  0
SECTION
  2
HEADER
  9
$ACADVER
  1
AC1009
  9
$INSBASE
 10
-11887.05623836842
 20
-9344.350143189069
 30
0.0
  9
$EXTMIN
 10
38214.05908709651
 20
16397.40556315379
 30
0.0
  9
$EXTMAX
 10
47556.68500113157
 20
46332.4893693992
 30
0.0
  9
$LIMMIN
 10
0.0
 20
0.0
  9
$LIMMAX
 10
420.0
 20
297.0
  9
$ORTHOMODE
 70
     0
  9
$REGENMODE
 70
     1
  9
$FILLMODE
 70
     1
  9
$QTEXTMODE
 70
     0
  9
$MIRRTEXT
 70
     1
  9
$DRAGMODE
 70
     2
  9
$LTSCALE
 40
10.0
  9
$OSMODE
 70
   512
  9
$ATTMODE
 70
     1
  9
$TEXTSIZE
 40
30.0
  9
$TRACEWID
 40
0.05
  9
$TEXTSTYLE
  7
ROMANS
  9
$CLAYER
  8
STREEPLIJN
  9
$CELTYPE
  6
BYLAYER
  9
$CECOLOR
 62
   256
  9
$DIMSCALE
 40
0.0
  9
$DIMASZ
 40
4.0
  9
$DIMEXO
 40
0.0
  9
$DIMDLI
 40
7.0
  9
$DIMRND
 40
1.0
  9
$DIMDLE
 40
0.0
  9
$DIMEXE
 40
1.0
  9
$DIMTP
 40
0.0
  9
$DIMTM
 40
0.0
  9
$DIMTXT
 40
100.0
  9
$DIMCEN
 40
1.75
  9
$DIMTSZ
 40
0.0
  9
$DIMTOL
 70
     0
  9
$DIMLIM
 70
     0
  9
$DIMTIH
 70
     0
  9
$DIMTOH
 70
     0
  9
$DIMSE1
 70
     0
  9
$DIMSE2
 70
     0
  9
$DIMTAD
 70
     1
  9
$DIMZIN
 70
     8
  9
$DIMBLK
  1

  9
$DIMASO
 70
     1
  9
$DIMSHO
 70
     0
  9
$DIMPOST
  1

  9
$DIMAPOST
  1

  9
$DIMALT
 70
     0
  9
$DIMALTD
 70
     2
  9
$DIMALTF
 40
25.4
  9
$DIMLFAC
 40
-1.0
  9
$DIMTOFL
 70
     1
  9
$DIMTVP
 40
0.0
  9
$DIMTIX
 70
     0
  9
$DIMSOXD
 70
     0
  9
$DIMSAH
 70
     0
  9
$DIMBLK1
  1

  9
$DIMBLK2
  1

  9
$DIMSTYLE
  2
*UNNAMED
  9
$DIMCLRD
 70
     6
  9
$DIMCLRE
 70
     6
  9
$DIMCLRT
 70
     6
  9
$DIMTFAC
 40
0.025
  9
$DIMGAP
 40
0.0
  9
$LUNITS
 70
     2
  9
$LUPREC
 70
     4
  9
$SKETCHINC
 40
0.1
  9
$FILLETRAD
 40
1000.0
  9
$AUNITS
 70
     0
  9
$AUPREC
 70
     0
  9
$MENU
  1
acad
  9
$ELEVATION
 40
0.0
  9
$PELEVATION
 40
0.0
  9
$THICKNESS
 40
0.0
  9
$LIMCHECK
 70
     0
  9
$BLIPMODE
 70
     1
  9
$CHAMFERA
 40
3.0
  9
$CHAMFERB
 40
3.0
  9
$SKPOLY
 70
     0
  9
$TDCREATE
 40
2452738.672631250
  9
$TDUPDATE
 40
2454125.692773148
  9
$TDINDWG
 40
0.0763685185
  9
$TDUSRTIMER
 40
0.0763685185
  9
$USRTIMER
 70
     1
  9
$ANGBASE
 50
0.0
  9
$ANGDIR
 70
     0
  9
$PDMODE
 70
     0
  9
$PDSIZE
 40
0.0
  9
$PLINEWID
 40
0.0
  9
$COORDS
 70
     2
  9
$SPLFRAME
 70
     0
  9
$SPLINETYPE
 70
     6
  9
$SPLINESEGS
 70
     8
  9
$ATTDIA
 70
     1
  9
$ATTREQ
 70
     1
  9
$HANDLING
 70
     0
  9
$HANDSEED
  5
0
  9
$SURFTAB1
 70
     6
  9
$SURFTAB2
 70
     6
  9
$SURFTYPE
 70
     6
  9
$SURFU
 70
     6
  9
$SURFV
 70
     6
  9
$UCSNAME
  2

  9
$UCSORG
 10
0.0
 20
0.0
 30
0.0
  9
$UCSXDIR
 10
1.0
 20
0.0
 30
0.0
  9
$UCSYDIR
 10
0.0
 20
1.0
 30
0.0
  9
$PUCSNAME
  2

  9
$PUCSORG
 10
0.0
 20
0.0
 30
0.0
  9
$PUCSXDIR
 10
1.0
 20
0.0
 30
0.0
  9
$PUCSYDIR
 10
0.0
 20
1.0
 30
0.0
  9
$USERI1
 70
     0
  9
$USERI2
 70
     0
  9
$USERI3
 70
     0
  9
$USERI4
 70
     0
  9
$USERI5
 70
     0
  9
$USERR1
 40
0.0
  9
$USERR2
 40
0.0
  9
$USERR3
 40
0.0
  9
$USERR4
 40
0.0
  9
$USERR5
 40
0.0
  9
$WORLDVIEW
 70
     1
  9
$SHADEDGE
 70
     3
  9
$SHADEDIF
 70
    70
  9
$TILEMODE
 70
     1
  9
$MAXACTVP
 70
    16
  9
$PINSBASE
 10
0.0
 20
0.0
 30
0.0
  9
$PLIMCHECK
 70
     0
  9
$PEXTMIN
 10
0.0
 20
0.0
 30
0.0
  9
$PEXTMAX
 10
420.0
 20
297.0
 30
0.0
  9
$PLIMMIN
 10
0.0
 20
0.0
  9
$PLIMMAX
 10
12.0
 20
9.0
  9
$UNITMODE
 70
     0
  9
$VISRETAIN
 70
     0
  9
$PLINEGEN
 70
     0
  9
$PSLTSCALE
 70
     0
  9
$TREEDEPTH
 70
  3020
  9
$DWGCODEPAGE
  3
iso8859-1
  0
ENDSEC
  0
SECTION
  2
TABLES
  0
TABLE
  2
VPORT
 70
     2
  0
VPORT
  2
*ACTIVE
 70
     0
 10
0.0
 20
0.0
 11
1.0
 21
1.0
 12
59531.97233218998
 22
31364.94746627649
 13
0.0
 23
0.0
 14
10.0
 24
10.0
 15
0.0
 25
0.0
 16
0.0
 26
0.0
 36
1.0
 17
0.0
 27
0.0
 37
0.0
 40
29935.0838062454
 41
1.424276169265
 42
50.0
 43
0.0
 44
0.0
 50
0.0
 51
0.0
 71
     0
 72
 20000
 73
     1
 74
     0
 75
     0
 76
     0
 77
     0
 78
     0
  0
ENDTAB
  0
TABLE
  2
LTYPE
 70
    10
  0
LTYPE
  2
CONTINUOUS
 70
    64
  3
Solid line
 72
    65
 73
     0
 40
0.0
  0
LTYPE
  2
CENTER
 70
    64
  3
____ _ ____ _ ____ _ ____ _ ____ _ ____ _ ____
 72
    65
 73
     4
 40
2.0
 49
1.25
 49
-0.25
 49
0.25
 49
-0.25
  0
LTYPE
  2
PHANTOM
 70
    64
  3
_____ _ _ _____ _ _ _____ _ _ _____ _ _ ____
 72
    65
 73
     6
 40
2.5
 49
1.25
 49
-0.25
 49
0.25
 49
-0.25
 49
0.25
 49
-0.25
  0
LTYPE
  2
DASHED
 70
    64
  3
__ __ __ __ __ __ __ __ __ __ __ __ __ __ __
 72
    65
 73
     2
 40
0.75
 49
0.5
 49
-0.25
  0
LTYPE
  2
CENTER2
 70
     0
  3
___ _ ___ _ ___ _ ___ _ ___ _ ___ _ ___ _ ___ _
 72
    65
 73
     4
 40
1.125
 49
0.75
 49
-0.125
 49
0.125
 49
-0.125
  0
LTYPE
  2
CENTERX2
 70
     0
  3
________  __  ________  __  ________  __  _____
 72
    65
 73
     4
 40
4.0
 49
2.5
 49
-0.5
 49
0.5
 49
-0.5
  0
LTYPE
  2
DASHED2
 70
     0
  3
_ _ _ _ _ _ _ _ _ _ _ _ _ _ _ _ _ _ _ _ _ _ _ _
 72
    65
 73
     2
 40
0.375
 49
0.25
 49
-0.125
  0
LTYPE
  2
DASHEDX2
 70
     0
  3
____  ____  ____  ____  ____  ____  ____  ____ 
 72
    65
 73
     2
 40
1.5
 49
1.0
 49
-0.5
  0
LTYPE
  2
PHANTOM2
 70
     0
  3
___ _ _ ___ _ _ ___ _ _ ___ _ _ ___ _ _ ___ _ _
 72
    65
 73
     6
 40
1.25
 49
0.625
 49
-0.125
 49
0.125
 49
-0.125
 49
0.125
 49
-0.125
  0
LTYPE
  2
PHANTOMX2
 70
     0
  3
____________    ____    ____    ____________   
 72
    65
 73
     6
 40
5.0
 49
2.5
 49
-0.5
 49
0.5
 49
-0.5
 49
0.5
 49
-0.5
  0
ENDTAB
  0
TABLE
  2
LAYER
 70
     8
  0
LAYER
  2
0
 70
    64
 62
     7
  6
CONTINUOUS
  0
LAYER
  2
DIK
 70
    64
 62
     2
  6
CONTINUOUS
  0
LAYER
  2
DUN
 70
    64
 62
     6
  6
CONTINUOUS
  0
LAYER
  2
HARTLIJN
 70
    64
 62
     1
  6
CENTER
  0
LAYER
  2
DEFPOINTS
 70
    64
 62
     7
  6
CONTINUOUS
  0
LAYER
  2
STREEPLIJN
 70
    64
 62
     5
  6
DASHED
  0
LAYER
  2
HARTLIJN-DUBBEL
 70
    64
 62
     1
  6
PHANTOM
  0
LAYER
  2
HARTLIJN-DIK
 70
     0
 62
     2
  6
CENTER
  0
ENDTAB
  0
TABLE
  2
STYLE
 70
     4
  0
STYLE
  2
STANDARD
 70
    64
 40
0.0
 41
1.0
 50
0.0
 71
     0
 42
0.2
  3
txt
  4

  0
STYLE
  2
ROMANS
 70
    64
 40
0.0
 41
1.0
 50
0.0
 71
     0
 42
30.0
  3
romans
  4

  0
STYLE
  2
SANSSERIFBOLD
 70
    64
 40
10.0
 41
1.0
 50
0.0
 71
     0
 42
10.0
  3
sasb____.pfb
  4

  0
STYLE
  2
ROMAND
 70
     0
 40
0.0
 41
1.0
 50
0.0
 71
     0
 42
5.591715976331
  3
romand
  4

  0
ENDTAB
  0
TABLE
  2
VIEW
 70
     0
  0
ENDTAB
  0
TABLE
  2
UCS
 70
     0
  0
ENDTAB
  0
TABLE
  2
APPID
 70
     1
  0
APPID
  2
ACAD
 70
    64
  0
ENDTAB
  0
TABLE
  2
DIMSTYLE
 70
     2
  0
DIMSTYLE
  2
STANDAARD
 70
    64
  3

  4

  5

  6

  7

 40
0.0
 41
35.0
 42
0.0
 43
7.0
 44
1.0
 45
0.1
 46
0.0
 47
0.0
 48
0.0
140
35.0
141
1.75
142
0.0
143
25.4
144
-1.0
145
0.0
146
0.071428571429
147
0.0
 71
     0
 72
     0
 73
     0
 74
     0
 75
     0
 76
     0
 77
     1
 78
     8
170
     0
171
     2
172
     1
173
     0
174
     0
175
     0
176
   256
177
   256
178
   256
  0
DIMSTYLE
  2
TOLERANTIE
 70
     0
  3

  4

  5
PIJLP
  6

  7

 40
0.0
 41
3.5
 42
0.0
 43
7.0
 44
1.0
 45
0.1
 46
0.0
 47
0.3
 48
0.7
140
3.5
141
1.75
142
0.0
143
25.4
144
-1.0
145
0.0
146
0.714285714286
147
0.0
 71
     1
 72
     0
 73
     0
 74
     0
 75
     0
 76
     0
 77
     1
 78
     8
170
     0
171
     2
172
     1
173
     0
174
     0
175
     0
176
   256
177
   256
178
   256
  0
ENDTAB
  0
ENDSEC
  0
SECTION
  2
BLOCKS
  0
BLOCK
  8
0
  2
A4S
 70
    66
 10
0.0
 20
0.0
 30
0.0
  3
A4S
  0
LINE
  8
DIK
 62
     7
 10
200.0
 20
265.0
 30
0.0
 11
0.0
 21
265.0
 31
0.0
  0
LINE
  8
DIK
 62
     7
 10
200.0
 20
0.0
 30
0.0
 11
200.0
 21
265.0
 31
0.0
  0
LINE
  8
DIK
 62
     7
 10
0.0
 20
265.0
 30
0.0
 11
0.0
 21
0.0
 31
0.0
  0
LINE
  8
DIK
 62
     7
 10
0.0
 20
0.0
 30
0.0
 11
200.0
 21
0.0
 31
0.0
  0
ATTDEF
  8
DUN
 10
147.865671307955
 20
22.434008393964
 30
0.0
 40
2.5
  1

  3
ENTER SCHAAL
  2
SCHAAL
 70
     0
  7
ROMANS
  0
ATTDEF
  8
DUN
 10
145.636377606345
 20
8.700113658062
 30
0.0
 40
2.5
  1

  3
ENTER DATUM
  2
DATUM
 70
     0
  7
ROMANS
  0
ATTDEF
  8
DUN
 10
156.445440055308
 20
1.78439242479
 30
0.0
 40
2.5
  1

  3
ENTER GETEKEND
  2
GETEKEND
 70
     0
  7
ROMANS
  0
ATTDEF
  8
DUN
 10
158.146500326126
 20
15.696951461516
 30
0.0
 40
2.5
  1

  3
ENTER MAATEENHEID
  2
MAATEENHEID
 70
     0
  7
ROMANS
  0
LINE
  8
DUN
 10
175.484930200881
 20
7.0
 30
0.0
 11
175.484930200888
 21
28.086824045226
 31
0.0
  0
TEXT
  8
DUN
 10
183.535447511735
 20
14.274654940444
 30
0.0
 40
6.0
  1
A4
 72
     2
 11
193.535447511735
 21
14.274654940444
 31
0.0
  0
LINE
  8
HARTLIJN
 10
99.397680541595
 20
9.205368291648
 30
0.0
 11
129.463468913906
 21
9.205368291648
 31
0.0
  0
TEXT
  8
DUN
 10
97.533769335721
 20
17.224758628468
 30
0.0
 40
2.5
  1
Amerik. proj.
  7
ROMANS
  0
LINE
  8
HARTLIJN
 10
104.272293720125
 20
14.279512514899
 30
0.0
 11
104.272293720125
 21
4.131224068395
 31
0.0
  0
LINE
  8
DIK
 10
123.833626955384
 20
12.705368291648
 30
0.0
 11
123.833626955384
 21
5.705368291648
 31
0.0
  0
LINE
  8
DIK
 10
113.833626955384
 20
9.205368291648
 30
0.0
 11
113.833626955384
 21
7.705368291648
 31
0.0
  0
CIRCLE
  8
DIK
 10
104.272293720125
 20
9.205368291648
 30
0.0
 40
1.5
  0
CIRCLE
  8
DIK
 10
104.272293720125
 20
9.205368291648
 30
0.0
 40
3.5
  0
LINE
  8
DIK
 10
123.833626955384
 20
5.705368291648
 30
0.0
 11
113.833626955384
 21
7.705368291648
 31
0.0
  0
LINE
  8
DIK
 10
113.833626955384
 20
10.705368291648
 30
0.0
 11
123.833626955384
 21
12.705368291648
 31
0.0
  0
LINE
  8
DIK
 10
113.833626955384
 20
9.205368291648
 30
0.0
 11
113.833626955384
 21
10.705368291648
 31
0.0
  0
ATTDEF
  8
DUN
 10
22.990016895914
 20
22.936080960895
 30
0.0
 40
2.5
  1

  3
ENTER BENAMING
  2
BENAMING
 70
     0
  7
ROMANS
  0
LINE
  8
DUN
 10
95.000000000007
 20
28.0
 30
0.0
 11
95.0
 21
0.0
 31
0.0
  0
LINE
  8
DIK
 10
72.961352999424
 20
21.0
 30
0.0
 11
75.000000000007
 21
15.11418104776
 31
0.0
  0
LINE
  8
DIK
 10
71.903066960927
 20
21.0
 30
0.0
 11
75.000000000007
 21
12.058782040262
 31
0.0
  0
LINE
  8
DIK
 10
70.844780922431
 20
21.0
 30
0.0
 11
75.000000000007
 21
9.003383032734
 31
0.0
  0
LINE
  8
DIK
 10
74.019639037913
 20
21.0
 30
0.0
 11
75.000000000007
 21
18.169580055273
 31
0.0
  0
LINE
  8
DUN
 10
75.000000000007
 20
21.0
 30
0.0
 11
65.55335072997
 21
21.0
 31
0.0
  0
LINE
  8
DIK
 10
68.728208845452
 20
21.0
 30
0.0
 11
75.000000000007
 21
2.8925850177
 31
0.0
  0
LINE
  8
DIK
 10
66.611636768466
 20
21.0
 30
0.0
 11
73.885320746791
 21
0.0
 31
0.0
  0
LINE
  8
DIK
 10
65.55335072997
 20
21.0
 30
0.0
 11
72.827034708302
 21
0.0
 31
0.0
  0
LINE
  8
DIK
 10
69.786494883942
 20
21.0
 30
0.0
 11
75.0
 21
5.947984025228
 31
0.0
  0
LINE
  8
DIK
 10
67.669922806963
 20
21.0
 30
0.0
 11
74.943606785295
 21
-0.000000000004
 31
0.0
  0
LINE
  8
DIK
 10
1.463804241401
 20
0.0
 30
0.0
 11
0.0
 21
5.316870944927
 31
0.0
  0
LINE
  8
DIK
 10
2.50101073242
 20
0.0
 30
0.0
 11
0.0
 21
9.084241540022
 31
0.0
  0
LINE
  8
DIK
 10
3.538217223446
 20
0.0
 30
0.0
 11
0.0
 21
12.851612135131
 31
0.0
  0
LINE
  8
DIK
 10
4.575423714472
 20
0.0
 30
0.0
 11
0.0
 21
16.618982730237
 31
0.0
  0
LINE
  8
DIK
 10
6.649836696524
 20
0.0
 30
0.0
 11
0.868261520503
 21
21.0
 31
0.0
  0
LINE
  8
DIK
 10
7.68704318755
 20
0.0
 30
0.0
 11
1.905468011537
 21
21.0
 31
0.0
  0
LINE
  8
DIK
 10
5.612630205498
 20
0.0
 30
0.0
 11
0.0
 21
20.38635332535
 31
0.0
  0
TEXT
  8
DIK
 10
2.433881911842
 20
11.266736841375
 30
0.0
 40
10.0
  1
WICO COMFA
  7
SANSSERIFBOLD
  0
TEXT
  8
DUN
 10
8.276180271525
 20
2.267660635709
 30
0.0
 40
2.5344
  1
SPEEL- EN SPORTTOESTELLEN
  7
ROMANS
  0
TEXT
  8
DUN
 10
1.851294722146
 20
23.170176683692
 30
0.0
 40
2.5
  1
Benaming
  7
ROMANS
  0
LINE
  8
DUN
 10
95.0
 20
21.0
 30
0.0
 11
0.0
 21
21.0
 31
0.0
  0
TEXT
  8
DUN
 10
78.169817738555
 20
15.777124798966
 30
0.0
 40
2.5
  1
Tek.nr
  7
ROMANS
  0
ATTDEF
  8
DUN
 10
77.691695399204
 20
3.737867561333
 30
0.0
 40
2.5
  1

  3
ENTER TEK.NR.
  2
TEK.NR.
 70
     0
  7
ROMANS
  0
LINE
  8
DUN
 10
75.0
 20
21.0
 30
0.0
 11
75.0
 21
0.0
 31
0.0
  0
LINE
  8
DUN
 10
131.283769335722
 20
28.086824045226
 30
0.0
 11
131.283769335722
 21
0.0
 31
0.0
  0
LINE
  8
0
 62
     7
 10
200.0
 20
28.0
 30
0.0
 11
0.0
 21
28.0
 31
0.0
  0
LINE
  8
DUN
 10
200.0
 20
7.0
 30
0.0
 11
131.283769335722
 21
7.0
 31
0.0
  0
TEXT
  8
DUN
 10
132.236321313925
 20
15.843244574979
 30
0.0
 40
2.5
  1
Maateenheid
  7
ROMANS
  0
TEXT
  8
DUN
 10
132.388336007127
 20
1.767244013554
 30
0.0
 40
2.5
  1
Getekend
  7
ROMANS
  0
TEXT
  8
DUN
 10
132.319605468445
 20
22.496726978341
 30
0.0
 40
2.5
  1
Schaal
  7
ROMANS
  0
TEXT
  8
DUN
 10
132.236321313925
 20
8.678189956896
 30
0.0
 40
2.5
  1
Datum
  7
ROMANS
  0
LINE
  8
DUN
 10
175.484930200888
 20
14.0
 30
0.0
 11
131.283769335722
 21
14.0
 31
0.0
  0
LINE
  8
DUN
 10
175.484930200888
 20
21.0
 30
0.0
 11
131.283769335722
 21
21.0
 31
0.0
  0
ENDBLK
  8
0
  0
BLOCK
  8
0
  2
ACAD3D09
 70
     0
 10
0.0
 20
0.0
 30
0.0
  3
ACAD3D09
  0
TEXT
  8
DIK
 10
3926.666324671439
 20
2191.209115986135
 30
0.0
 40
24.0
  1
Tussen AK buizen en rec.kunststof palen en alu. sluitring  M10x52mm
  7
ROMANS
  0
CIRCLE
  8
DIK
 10
5047.79088388293
 20
2199.376035312422
 30
0.0
 40
7.142930484825
  0
LINE
  8
DIK
 10
5040.09144302865
 20
2191.679187561518
 30
0.0
 11
5054.991960884814
 21
2207.222398320451
 31
0.0
  0
ENDBLK
  8
0
  0
BLOCK
  8
0
  2
*D2
 70
    65
 10
0.0
 20
0.0
 30
0.0
  3
*D
  0
LINE
  8
0
  6
BYBLOCK
 62
     6
 10
-10695.74021150216
 20
-8101.142692112723
 30
0.0
 11
-10382.50696444971
 21
-8101.142692112723
 31
0.0
  0
LINE
  8
0
  6
BYBLOCK
 62
     6
 10
-10695.74021150216
 20
-10601.14269211272
 30
0.0
 11
-10382.50696444971
 21
-10601.14269211272
 31
0.0
  0
LINE
  8
0
  6
BYBLOCK
 62
     6
 10
-10383.50696444971
 20
-8105.142692112725
 30
0.0
 11
-10383.50696444971
 21
-10597.14269211272
 31
0.0
  0
SOLID
  8
0
  6
BYBLOCK
 62
     6
 10
-10384.17363111638
 20
-8105.142692112725
 30
0.0
 11
-10382.84029778304
 21
-8105.142692112725
 31
0.0
 12
-10383.50696444971
 22
-8101.142692112723
 32
0.0
 13
-10383.50696444971
 23
-8101.142692112723
 33
0.0
  0
SOLID
  8
0
  6
BYBLOCK
 62
     6
 10
-10384.17363111638
 20
-10597.14269211272
 30
0.0
 11
-10382.84029778304
 21
-10597.14269211272
 31
0.0
 12
-10383.50696444971
 22
-10601.14269211272
 32
0.0
 13
-10383.50696444971
 23
-10601.14269211272
 33
0.0
  0
TEXT
  8
0
  6
BYBLOCK
 62
     6
 10
-10433.50696444971
 20
-9541.618882588915
 30
0.0
 40
100.0
  1
2500
 50
90.0
  7
ROMANS
 72
     1
 11
-10483.50696444971
 21
-9351.142692112723
 31
0.0
 73
     2
  0
POINT
  8
DEFPOINTS
  6
BYBLOCK
 62
     0
 10
-10695.74021150216
 20
-8101.142692112723
 30
0.0
  0
POINT
  8
DEFPOINTS
  6
BYBLOCK
 62
     0
 10
-10695.74021150216
 20
-10601.14269211272
 30
0.0
  0
POINT
  8
DEFPOINTS
  6
BYBLOCK
 62
     0
 10
-10383.50696444971
 20
-10601.14269211272
 30
0.0
  0
ENDBLK
  8
0
  0
BLOCK
  8
0
  2
*D3
 70
    65
 10
0.0
 20
0.0
 30
0.0
  3
*D
  0
LINE
  8
0
  6
BYBLOCK
 62
     6
 10
-13095.74021150216
 20
-10601.14269211272
 30
0.0
 11
-13095.74021150216
 21
-10925.48961033157
 31
0.0
  0
LINE
  8
0
  6
BYBLOCK
 62
     6
 10
-10695.74021150216
 20
-10601.14269211272
 30
0.0
 11
-10695.74021150216
 21
-10925.48961033157
 31
0.0
  0
LINE
  8
0
  6
BYBLOCK
 62
     6
 10
-13091.74021150216
 20
-10924.48961033157
 30
0.0
 11
-10699.74021150216
 21
-10924.48961033157
 31
0.0
  0
SOLID
  8
0
  6
BYBLOCK
 62
     6
 10
-13091.74021150216
 20
-10923.8229436649
 30
0.0
 11
-13091.74021150216
 21
-10925.15627699824
 31
0.0
 12
-13095.74021150216
 22
-10924.48961033157
 32
0.0
 13
-13095.74021150216
 23
-10924.48961033157
 33
0.0
  0
SOLID
  8
0
  6
BYBLOCK
 62
     6
 10
-10699.74021150216
 20
-10923.8229436649
 30
0.0
 11
-10699.74021150216
 21
-10925.15627699824
 31
0.0
 12
-10695.74021150216
 22
-10924.48961033157
 32
0.0
 13
-10695.74021150216
 23
-10924.48961033157
 33
0.0
  0
TEXT
  8
0
  6
BYBLOCK
 62
     6
 10
-12086.21640197835
 20
-10874.48961033157
 30
0.0
 40
100.0
  1
2400
  7
ROMANS
 72
     1
 11
-11895.74021150216
 21
-10824.48961033157
 31
0.0
 73
     2
  0
POINT
  8
DEFPOINTS
  6
BYBLOCK
 62
     0
 10
-13095.74021150216
 20
-10601.14269211272
 30
0.0
  0
POINT
  8
DEFPOINTS
  6
BYBLOCK
 62
     0
 10
-10695.74021150216
 20
-10601.14269211272
 30
0.0
  0
POINT
  8
DEFPOINTS
  6
BYBLOCK
 62
     0
 10
-10695.74021150216
 20
-10924.48961033157
 30
0.0
  0
ENDBLK
  8
0
  0
BLOCK
  8
0
  2
*D4
 70
    65
 10
0.0
 20
0.0
 30
0.0
  3
*D
  0
LINE
  8
0
  6
BYBLOCK
 62
     6
 10
-13095.74021150216
 20
-8625.056150860991
 30
0.0
 11
-13095.74021150216
 21
-8616.639707637022
 31
0.0
  0
LINE
  8
0
  6
BYBLOCK
 62
     6
 10
-15095.74021150216
 20
-8625.056150860991
 30
0.0
 11
-15095.74021150216
 21
-8616.639707637022
 31
0.0
  0
LINE
  8
0
  6
BYBLOCK
 62
     6
 10
-13099.74021150216
 20
-8617.639707637021
 30
0.0
 11
-15091.74021150216
 21
-8617.639707637021
 31
0.0
  0
SOLID
  8
0
  6
BYBLOCK
 62
     6
 10
-13099.74021150216
 20
-8616.973040970355
 30
0.0
 11
-13099.74021150216
 21
-8618.306374303687
 31
0.0
 12
-13095.74021150216
 22
-8617.639707637021
 32
0.0
 13
-13095.74021150216
 23
-8617.639707637021
 33
0.0
  0
SOLID
  8
0
  6
BYBLOCK
 62
     6
 10
-15091.74021150216
 20
-8616.973040970355
 30
0.0
 11
-15091.74021150216
 21
-8618.306374303687
 31
0.0
 12
-15095.74021150216
 22
-8617.639707637021
 32
0.0
 13
-15095.74021150216
 23
-8617.639707637021
 33
0.0
  0
TEXT
  8
0
  6
BYBLOCK
 62
     6
 10
-14286.21640197835
 20
-8567.63970763702
 30
0.0
 40
100.0
  1
2000
  7
ROMANS
 72
     1
 11
-14095.74021150216
 21
-8517.639707637021
 31
0.0
 73
     2
  0
POINT
  8
DEFPOINTS
  6
BYBLOCK
 62
     0
 10
-13095.74021150216
 20
-8625.056150860991
 30
0.0
  0
POINT
  8
DEFPOINTS
  6
BYBLOCK
 62
     0
 10
-15095.74021150216
 20
-8625.056150860991
 30
0.0
  0
POINT
  8
DEFPOINTS
  6
BYBLOCK
 62
     0
 10
-15095.74021150216
 20
-8617.639707637021
 30
0.0
  0
ENDBLK
  8
0
  0
BLOCK
  8
0
  2
*D5
 70
    65
 10
0.0
 20
0.0
 30
0.0
  3
*D
  0
LINE
  8
0
  6
BYBLOCK
 62
     6
 10
-12514.54884708744
 20
-8101.142692112723
 30
0.0
 11
-12500.96959669558
 21
-8101.142692112723
 31
0.0
  0
LINE
  8
0
  6
BYBLOCK
 62
     6
 10
-12514.54884708744
 20
-6051.142692112724
 30
0.0
 11
-12500.96959669558
 21
-6051.142692112724
 31
0.0
  0
LINE
  8
0
  6
BYBLOCK
 62
     6
 10
-12501.96959669558
 20
-8097.142692112724
 30
0.0
 11
-12501.96959669558
 21
-6055.142692112725
 31
0.0
  0
SOLID
  8
0
  6
BYBLOCK
 62
     6
 10
-12502.63626336225
 20
-8097.142692112724
 30
0.0
 11
-12501.30293002892
 21
-8097.142692112724
 31
0.0
 12
-12501.96959669558
 22
-8101.142692112723
 32
0.0
 13
-12501.96959669558
 23
-8101.142692112723
 33
0.0
  0
SOLID
  8
0
  6
BYBLOCK
 62
     6
 10
-12502.63626336225
 20
-6055.142692112725
 30
0.0
 11
-12501.30293002892
 21
-6055.142692112725
 31
0.0
 12
-12501.96959669558
 22
-6051.142692112724
 32
0.0
 13
-12501.96959669558
 23
-6051.142692112724
 33
0.0
  0
TEXT
  8
0
  6
BYBLOCK
 62
     6
 10
-12551.96959669558
 20
-7266.618882588915
 30
0.0
 40
100.0
  1
2050
 50
90.0
  7
ROMANS
 72
     1
 11
-12601.96959669558
 21
-7076.142692112725
 31
0.0
 73
     2
  0
POINT
  8
DEFPOINTS
  6
BYBLOCK
 62
     0
 10
-12514.54884708744
 20
-8101.142692112723
 30
0.0
  0
POINT
  8
DEFPOINTS
  6
BYBLOCK
 62
     0
 10
-12514.54884708744
 20
-6051.142692112724
 30
0.0
  0
POINT
  8
DEFPOINTS
  6
BYBLOCK
 62
     0
 10
-12501.96959669558
 20
-6051.142692112724
 30
0.0
  0
ENDBLK
  8
0
  0
BLOCK
  8
0
  2
*D6
 70
    65
 10
0.0
 20
0.0
 30
0.0
  3
*D
  0
LINE
  8
0
  6
BYBLOCK
 62
     6
 10
-15095.74021150216
 20
-7051.142692112724
 30
0.0
 11
-15095.74021150216
 21
-5301.053751070978
 31
0.0
  0
LINE
  8
0
  6
BYBLOCK
 62
     6
 10
-8695.740211502167
 20
-7051.142692112724
 30
0.0
 11
-8695.740211502167
 21
-5301.053751070978
 31
0.0
  0
LINE
  8
0
  6
BYBLOCK
 62
     6
 10
-15091.74021150216
 20
-5302.053751070977
 30
0.0
 11
-8699.740211502167
 21
-5302.053751070977
 31
0.0
  0
SOLID
  8
0
  6
BYBLOCK
 62
     6
 10
-15091.74021150216
 20
-5301.387084404311
 30
0.0
 11
-15091.74021150216
 21
-5302.720417737644
 31
0.0
 12
-15095.74021150216
 22
-5302.053751070977
 32
0.0
 13
-15095.74021150216
 23
-5302.053751070977
 33
0.0
  0
SOLID
  8
0
  6
BYBLOCK
 62
     6
 10
-8699.740211502167
 20
-5301.387084404311
 30
0.0
 11
-8699.740211502167
 21
-5302.720417737644
 31
0.0
 12
-8695.740211502167
 22
-5302.053751070977
 32
0.0
 13
-8695.740211502167
 23
-5302.053751070977
 33
0.0
  0
TEXT
  8
0
  6
BYBLOCK
 62
     6
 10
-12088.5973543593
 20
-5252.053751070977
 30
0.0
 40
100.0
  1
6400
  7
ROMANS
 72
     1
 11
-11895.74021150216
 21
-5202.053751070978
 31
0.0
 73
     2
  0
POINT
  8
DEFPOINTS
  6
BYBLOCK
 62
     0
 10
-15095.74021150216
 20
-7051.142692112724
 30
0.0
  0
POINT
  8
DEFPOINTS
  6
BYBLOCK
 62
     0
 10
-8695.740211502167
 20
-7051.142692112724
 30
0.0
  0
POINT
  8
DEFPOINTS
  6
BYBLOCK
 62
     0
 10
-8695.740211502167
 20
-5302.053751070977
 30
0.0
  0
ENDBLK
  8
0
  0
BLOCK
  8
0
  2
*D7
 70
    65
 10
0.0
 20
0.0
 30
0.0
  3
*D
  0
LINE
  8
0
  6
BYBLOCK
 62
     6
 10
-14095.74021150216
 20
-6051.142692112724
 30
0.0
 11
-15433.93217140431
 21
-6051.142692112724
 31
0.0
  0
LINE
  8
0
  6
BYBLOCK
 62
     6
 10
-14095.74021150216
 20
-12651.14269211272
 30
0.0
 11
-15433.93217140431
 21
-12651.14269211272
 31
0.0
  0
LINE
  8
0
  6
BYBLOCK
 62
     6
 10
-15432.93217140431
 20
-6055.142692112724
 30
0.0
 11
-15432.93217140431
 21
-12647.14269211272
 31
0.0
  0
SOLID
  8
0
  6
BYBLOCK
 62
     6
 10
-15433.59883807097
 20
-6055.142692112724
 30
0.0
 11
-15432.26550473764
 21
-6055.142692112724
 31
0.0
 12
-15432.93217140431
 22
-6051.142692112724
 32
0.0
 13
-15432.93217140431
 23
-6051.142692112724
 33
0.0
  0
SOLID
  8
0
  6
BYBLOCK
 62
     6
 10
-15433.59883807097
 20
-12647.14269211272
 30
0.0
 11
-15432.26550473764
 21
-12647.14269211272
 31
0.0
 12
-15432.93217140431
 22
-12651.14269211272
 32
0.0
 13
-15432.93217140431
 23
-12651.14269211272
 33
0.0
  0
TEXT
  8
0
  6
BYBLOCK
 62
     6
 10
-15482.93217140431
 20
-9543.999834969866
 30
0.0
 40
100.0
  1
6600
 50
90.0
  7
ROMANS
 72
     1
 11
-15532.93217140431
 21
-9351.142692112723
 31
0.0
 73
     2
  0
POINT
  8
DEFPOINTS
  6
BYBLOCK
 62
     0
 10
-14095.74021150216
 20
-6051.142692112724
 30
0.0
  0
POINT
  8
DEFPOINTS
  6
BYBLOCK
 62
     0
 10
-14095.74021150216
 20
-12651.14269211272
 30
0.0
  0
POINT
  8
DEFPOINTS
  6
BYBLOCK
 62
     0
 10
-15432.93217140431
 20
-12651.14269211272
 30
0.0
  0
ENDBLK
  8
0
  0
BLOCK
  8
0
  2
AKX00
 70
     0
 10
0.0
 20
0.0
 30
0.0
  3
AKX00
  0
LINE
  8
STREEPLIJN
 10
41288.3743923103
 20
30213.04295098595
 30
0.0
 11
41288.3743923103
 21
26713.04295098597
 31
0.0
  0
LINE
  8
STREEPLIJN
 10
40288.3743923103
 20
30213.04295098595
 30
0.0
 11
40288.3743923103
 21
26713.04295098596
 31
0.0
  0
LINE
  8
STREEPLIJN
 10
42288.3743923103
 20
30213.04295098596
 30
0.0
 11
42288.3743923103
 21
26713.04295098597
 31
0.0
  0
LINE
  8
STREEPLIJN
 10
43288.3743923103
 20
30213.04295098596
 30
0.0
 11
43288.3743923103
 21
26713.04295098597
 31
0.0
  0
LINE
  8
STREEPLIJN
 10
44288.3743923103
 20
30213.04295098596
 30
0.0
 11
44288.3743923103
 21
26713.04295098597
 31
0.0
  0
LINE
  8
STREEPLIJN
 10
39288.3743923103
 20
30213.04295098595
 30
0.0
 11
39288.3743923103
 21
26713.04295098596
 31
0.0
  0
LINE
  8
STREEPLIJN
 10
38288.37439231029
 20
30213.04295098595
 30
0.0
 11
38288.37439231029
 21
26713.04295098596
 31
0.0
  0
LINE
  8
STREEPLIJN
 10
37288.3743923103
 20
30213.04295098596
 30
0.0
 11
37288.3743923103
 21
26713.04295098596
 31
0.0
  0
LINE
  8
STREEPLIJN
 10
37288.3743923103
 20
26713.04295098596
 30
0.0
 11
44288.3743923103
 21
26713.04295098597
 31
0.0
  0
LINE
  8
STREEPLIJN
 10
37288.3743923103
 20
30213.04295098595
 30
0.0
 11
44288.3743923103
 21
30213.04295098595
 31
0.0
  0
LINE
  8
STREEPLIJN
 10
37288.3743923103
 20
27213.04295098596
 30
0.0
 11
44288.3743923103
 21
27213.04295098597
 31
0.0
  0
LINE
  8
STREEPLIJN
 10
37288.3743923103
 20
28213.04295098596
 30
0.0
 11
44288.3743923103
 21
28213.04295098597
 31
0.0
  0
LINE
  8
STREEPLIJN
 10
37288.3743923103
 20
29213.04295098596
 30
0.0
 11
44288.3743923103
 21
29213.04295098597
 31
0.0
  0
TEXT
  8
DIK
 10
42966.9401188307
 20
24156.21017759142
 30
0.0
 40
150.0
  1
afgerond= 25 tegels
  7
ROMANS
  0
POLYLINE
  8
DUN
 66
     1
 10
0.0
 20
0.0
 30
0.0
 70
     1
  0
VERTEX
  8
DUN
 10
36315.9248380172
 20
31303.03037889501
 30
0.0
  0
VERTEX
  8
DUN
 10
36315.9248380172
 20
23911.06625624618
 30
0.0
  0
VERTEX
  8
DUN
 10
45541.82596216184
 20
23911.06625624618
 30
0.0
  0
VERTEX
  8
DUN
 10
45541.82596216184
 20
31303.03037889501
 30
0.0
  0
SEQEND
  8
DUN
  0
POLYLINE
  8
DUN
 66
     1
 10
0.0
 20
0.0
 30
0.0
 70
     1
  0
VERTEX
  8
DUN
 10
36313.62476294596
 20
39538.30058482854
 30
0.0
  0
VERTEX
  8
DUN
 10
36313.62476294596
 20
31958.1151791251
 30
0.0
  0
VERTEX
  8
DUN
 10
45573.75935590491
 20
31958.1151791251
 30
0.0
  0
VERTEX
  8
DUN
 10
45573.75935590491
 20
39538.30058482854
 30
0.0
  0
SEQEND
  8
DUN
  0
ARC
  8
DIK
  6
DASHED
 10
44212.37045137268
 20
46588.50931616347
 30
0.0
 40
500.0
 50
0.0
 51
90.0
  0
ARC
  8
DIK
  6
DASHED
 10
44212.37045137268
 20
42488.50931616348
 30
0.0
 40
500.0
 50
270.0
 51
0.0
  0
ARC
  8
DIK
  6
DASHED
 10
37232.37045137269
 20
42488.50931616348
 30
0.0
 40
500.0
 50
180.0
 51
270.0
  0
ARC
  8
DIK
  6
DASHED
 10
37232.37045137268
 20
46588.50931616347
 30
0.0
 40
500.0
 50
90.0
 51
180.0
  0
POLYLINE
  8
DUN
 66
     1
 10
0.0
 20
0.0
 30
0.0
 70
     1
  0
VERTEX
  8
DUN
 10
36313.62476294596
 20
47758.39918209797
 30
0.0
  0
VERTEX
  8
DUN
 10
36313.62476294596
 20
40178.21377639453
 30
0.0
  0
VERTEX
  8
DUN
 10
45573.75935590491
 20
40178.21377639453
 30
0.0
  0
VERTEX
  8
DUN
 10
45573.75935590491
 20
47758.39918209797
 30
0.0
  0
SEQEND
  8
DUN
  0
DIMENSION
  8
DUN
  2
*D39
 10
44712.37045137268
 20
41243.29335851303
 30
0.0
 11
40722.37045137268
 21
41323.29335851303
 31
0.0
 12
11068.57457453656
 22
17686.04901289893
 32
0.0
 13
36732.37045137268
 23
41988.50931616348
 33
0.0
 14
44712.37045137268
 24
41988.50931616348
 34
0.0
  3
STANDAARD
  0
DIMENSION
  8
DUN
  2
*D38
 10
45231.08045013874
 20
47088.50931616348
 30
0.0
 11
45151.08045013874
 21
44538.50931616348
 31
0.0
 12
11068.57457453656
 22
17686.04901289893
 32
0.0
 13
45212.3704513727
 23
41988.50931616349
 33
0.0
 14
45212.3704513727
 24
47088.50931616348
 34
0.0
 50
90.0
  3
STANDAARD
  0
LINE
  8
DUN
 10
45112.3704513727
 20
41988.50931616348
 30
0.0
 11
45312.37045137269
 21
41988.50931616349
 31
0.0
  0
LINE
  8
DUN
 10
45112.3704513727
 20
47088.50931616348
 30
0.0
 11
45312.37045137269
 21
47088.50931616348
 31
0.0
  0
DIMENSION
  8
DUN
  2
*D37
 10
45023.14580922857
 20
46113.50931616348
 30
0.0
 11
44943.14580922857
 21
44538.50931616348
 31
0.0
 12
11068.57457453656
 22
17686.04901289893
 32
0.0
 13
45012.3704513727
 23
42963.50931616347
 33
0.0
 14
45012.3704513727
 24
46113.50931616348
 34
0.0
 50
90.0
  3
STANDAARD
  0
LINE
  8
DUN
 10
44912.37045137268
 20
42963.50931616347
 30
0.0
 11
45112.3704513727
 21
42963.50931616348
 31
0.0
  0
LINE
  8
DUN
 10
44912.37045137268
 20
46113.50931616348
 30
0.0
 11
45112.3704513727
 21
46113.50931616348
 31
0.0
  0
LINE
  8
DIK
  6
DASHED
 10
44212.37045137268
 20
41988.50931616348
 30
0.0
 11
37232.37045137269
 21
41988.50931616348
 31
0.0
  0
LINE
  8
DIK
  6
DASHED
 10
44712.37045137268
 20
46588.50931616347
 30
0.0
 11
44712.37045137268
 21
42488.50931616348
 31
0.0
  0
LINE
  8
DIK
  6
DASHED
 10
37232.37045137268
 20
47088.50931616348
 30
0.0
 11
44212.37045137268
 21
47088.50931616348
 31
0.0
  0
LINE
  8
DIK
  6
DASHED
 10
36732.37045137269
 20
42488.50931616348
 30
0.0
 11
36732.37045137268
 21
46588.50931616347
 31
0.0
  0
TEXT
  8
DUN
 10
38131.29304223059
 20
40503.39846431577
 30
0.0
 40
200.0
  1
Obstakelvrijeruimte
  7
ROMANS
  0
TEXT
  8
DUN
 10
38210.8989548121
 20
32200.60070369698
 30
0.0
 40
200.0
  1
Valdempende ondergrond
  7
ROMANS
  0
TEXT
  8
DUN
 10
38172.37992403711
 20
24312.81435947616
 30
0.0
 40
200.0
  1
rubbertegels 1mx1m
  7
ROMANS
  0
POLYLINE
  8
STREEPLIJN
 66
     1
 10
0.0
 20
0.0
 30
0.0
 70
     1
  0
VERTEX
  8
STREEPLIJN
 10
37006.14629365369
 20
33153.16284231617
 30
0.0
  0
VERTEX
  8
STREEPLIJN
 10
37006.14629365369
 20
32153.16284231619
 30
0.0
  0
VERTEX
  8
STREEPLIJN
 10
38006.14629365369
 20
32153.16284231619
 30
0.0
  0
VERTEX
  8
STREEPLIJN
 10
38006.14629365369
 20
33153.16284231617
 30
0.0
  0
SEQEND
  8
STREEPLIJN
  0
POLYLINE
  8
STREEPLIJN
 66
     1
 10
0.0
 20
0.0
 30
0.0
 70
     1
  0
VERTEX
  8
STREEPLIJN
 10
37006.14629365369
 20
25246.55125802577
 30
0.0
  0
VERTEX
  8
STREEPLIJN
 10
37006.14629365369
 20
24246.55125802579
 30
0.0
  0
VERTEX
  8
STREEPLIJN
 10
38006.14629365369
 20
24246.55125802579
 30
0.0
  0
VERTEX
  8
STREEPLIJN
 10
38006.14629365369
 20
25246.55125802577
 30
0.0
  0
SEQEND
  8
STREEPLIJN
  0
INSERT
  8
STREEPLIJN
  2
*X40
 10
0.0
 20
0.0
 30
0.0
1001
ACAD
1000
HATCH
1002
{
1070
    16
1000
ANSI31
1040
40.0
1040
0.0
1002
}
  0
ENDBLK
  8
0
  0
BLOCK
  8
0
  2
TEKENH
 70
    64
 10
0.0
 20
0.0
 30
0.0
  3
TEKENH
  0
LINE
  8
DUN
 10
0.0
 20
15.0
 30
0.0
 11
-105.0
 21
15.0
 31
0.0
  0
LINE
  8
DUN
 10
0.0
 20
29.0
 30
0.0
 11
-180.0
 21
29.0
 31
0.0
  0
LINE
  8
DUN
 10
-45.0
 20
35.0
 30
0.0
 11
-145.0
 21
35.0
 31
0.0
  0
LINE
  8
DUN
 10
-45.0
 20
41.0
 30
0.0
 11
-145.0
 21
41.0
 31
0.0
  0
LINE
  8
DUN
 10
0.0
 20
47.0
 30
0.0
 11
-180.0
 21
47.0
 31
0.0
  0
LINE
  8
DUN
 10
0.0
 20
54.0
 30
0.0
 11
-180.0
 21
54.0
 31
0.0
  0
LINE
  8
DIK
 10
-180.0
 20
5.0
 30
0.0
 11
0.0
 21
5.0
 31
0.0
  0
LINE
  8
DIK
 10
-180.0
 20
57.0
 30
0.0
 11
-180.0
 21
0.0
 31
0.0
  0
TEXT
  8
DUN
 10
-143.75
 20
36.25
 30
0.0
 40
2.5
  1
Maateenheid
  7
ROMANS
  0
TEXT
  8
DIK
 10
-148.440362545074
 20
19.340461725786
 30
0.0
 40
2.5
  1
SECTOR TECHNIEK
  7
ROMANS
  0
TEXT
  8
DIK
 10
-148.440362545074
 20
23.388080773405
 30
0.0
 40
2.5
  1
HAAGSE HOGESCHOOL
  7
ROMANS
  0
TEXT
  8
DIK
 10
-148.440362545074
 20
13.066876305898
 30
0.0
 40
2.5
  1
AFDELING INDUSTRIEEL
  7
ROMANS
  0
TEXT
  8
DIK
 10
-148.440362545074
 20
9.019257258279
 30
0.0
 40
2.5
  1
PRODUKTONTWERPEN
  7
ROMANS
  0
LINE
  8
DUN
 10
-155.0
 20
57.0
 30
0.0
 11
-155.0
 21
47.0
 31
0.0
  0
LINE
  8
DUN
 10
-167.5
 20
57.0
 30
0.0
 11
-167.5
 21
47.0
 31
0.0
  0
LINE
  8
HARTLIJN
 10
-176.886088794123
 20
35.230609663178
 30
0.0
 11
-146.820300421814
 21
35.230609663178
 31
0.0
  0
LINE
  8
DIK
 10
-162.450142380332
 20
36.730609663178
 30
0.0
 11
-152.450142380332
 21
38.730609663178
 31
0.0
  0
LINE
  8
DIK
 10
-152.450142380332
 20
31.730609663178
 30
0.0
 11
-162.450142380332
 21
33.730609663178
 31
0.0
  0
TEXT
  8
DUN
 10
-178.75
 20
43.25
 30
0.0
 40
2.5
  1
Amerik. proj.
  7
ROMANS
  0
CIRCLE
  8
DIK
 10
-155.16399605453
 20
19.101995476601
 30
0.0
 40
2.738926691931
  0
ARC
  8
DIK
 10
-155.16399605453
 20
19.101995476601
 30
0.0
 40
5.08244644145
 50
217.58615827382
 51
136.945859517254
  0
LINE
  8
DIK
 10
-160.606534081057
 20
13.81954903515
 30
0.0
 11
-149.881549613079
 21
13.81954903515
 31
0.0
  0
LINE
  8
DIK
 10
-160.738999640542
 20
24.384441918051
 30
0.0
 11
-149.881549613079
 21
24.384441918051
 31
0.0
  0
POLYLINE
  8
DIK
 66
     1
 10
0.0
 20
0.0
 30
0.0
  0
VERTEX
  8
DIK
 10
-173.299933916411
 20
19.893020206338
 30
0.0
 42
0.01519296989
  0
VERTEX
  8
DIK
 10
-173.80806199825
 20
19.191293308404
 30
0.0
 42
0.04059810252
  0
VERTEX
  8
DIK
 10
-174.638507094833
 20
17.724574301424
 30
0.0
 42
0.106995455646
 70
     2
 50
254.39619560055
  0
SEQEND
  8
DIK
  0
POLYLINE
  8
DIK
 66
     1
 10
0.0
 20
0.0
 30
0.0
  0
VERTEX
  8
DIK
 10
-174.369010352572
 20
10.671836157203
 30
0.0
 42
0.068010394449
  0
VERTEX
  8
DIK
 10
-173.430811033457
 20
9.820574846878
 30
0.0
 42
0.106995455646
  0
SEQEND
  8
DIK
  0
LINE
  8
DIK
 10
-173.430811033457
 20
9.820574846878
 30
0.0
 11
-175.038295632455
 21
7.779878286816
 31
0.0
  0
LINE
  8
DIK
 10
-175.665796239655
 20
21.060062653769
 30
0.0
 11
-173.299933916411
 21
19.893020206338
 31
0.0
  0
POLYLINE
  8
DIK
 66
     1
 10
0.0
 20
0.0
 30
0.0
  0
VERTEX
  8
DIK
 10
-175.06979071136
 20
16.637763287061
 30
0.0
 42
0.012293677113
  0
VERTEX
  8
DIK
 10
-175.219344929091
 20
16.148974448758
 30
0.0
 42
0.106995455646
 70
     2
 50
254.39619560055
  0
VERTEX
  8
DIK
 10
-175.408142861391
 20
12.961273310181
 30
0.0
 42
0.136872673305
 50
254.39619560055
  0
VERTEX
  8
DIK
 10
-174.369010352572
 20
10.671836157203
 30
0.0
 42
0.136872673305
  0
SEQEND
  8
DIK
  0
POLYLINE
  8
DIK
 66
     1
 10
0.0
 20
0.0
 30
0.0
  0
VERTEX
  8
DIK
 10
-177.533246919684
 20
17.450717667179
 30
0.0
 42
0.01215599776
  0
VERTEX
  8
DIK
 10
-177.717860069696
 20
16.846751246235
 30
0.0
 42
0.106995455646
 70
     2
 50
254.39619560055
  0
VERTEX
  8
DIK
 10
-177.971556021955
 20
12.563299271861
 30
0.0
 42
0.136872673305
 50
254.39619560055
  0
VERTEX
  8
DIK
 10
-176.356223304524
 20
9.00436650215
 30
0.0
 42
0.136872673305
  0
SEQEND
  8
DIK
  0
POLYLINE
  8
DIK
 66
     1
 10
0.0
 20
0.0
 30
0.0
  0
VERTEX
  8
DIK
 10
-176.356223304524
 20
9.00436650215
 30
0.0
 42
0.062080649113
  0
VERTEX
  8
DIK
 10
-175.038295632455
 20
7.779878286816
 30
0.0
 42
0.106995455646
  0
SEQEND
  8
DIK
  0
POLYLINE
  8
DIK
 66
     1
 10
0.0
 20
0.0
 30
0.0
  0
VERTEX
  8
DIK
 10
-175.665796239655
 20
21.060062653769
 30
0.0
 42
0.007460633215
  0
VERTEX
  8
DIK
 10
-175.954427875157
 20
20.648202327313
 30
0.0
 42
0.041760377079
  0
VERTEX
  8
DIK
 10
-177.017316923261
 20
18.760741908652
 30
0.0
 42
0.106995455646
 70
     2
 50
254.39619560055
  0
SEQEND
  8
DIK
  0
LINE
  8
DIK
 10
-175.06979071136
 20
16.637763287061
 30
0.0
 11
-177.533246919684
 21
17.450717667179
 31
0.0
  0
LINE
  8
DIK
 10
-177.017316923261
 20
18.760741908652
 30
0.0
 11
-174.638507094833
 21
17.724574301424
 31
0.0
  0
ARC
  8
DIK
 10
-166.836551726683
 20
17.489108830784
 30
0.0
 40
3.024136079487
 50
270.0
 51
90.0
  0
LINE
  8
DIK
 10
-168.670154683362
 20
20.513244910271
 30
0.0
 11
-168.670154683362
 21
12.447690434973
 31
0.0
  0
POLYLINE
  8
DIK
 66
     1
 10
0.0
 20
0.0
 30
0.0
  0
VERTEX
  8
DIK
 10
-160.606534081057
 20
13.81954903515
 30
0.0
 42
0.020212941293
  0
VERTEX
  8
DIK
 10
-159.92129908168
 20
14.746139761985
 30
0.0
 42
0.034969919681
  0
VERTEX
  8
DIK
 10
-159.191514773802
 20
16.001938251947
 30
0.0
 42
0.106995455646
 70
     2
 50
74.39619560055
  0
SEQEND
  8
DIK
  0
LINE
  8
DIK
 10
-166.836551726683
 20
14.464972751297
 30
0.0
 11
-166.836551726683
 21
12.447690434973
 31
0.0
  0
LINE
  8
DIK
 10
-168.670154683362
 20
12.447690434973
 30
0.0
 11
-166.836551726683
 21
12.447690434973
 31
0.0
  0
ARC
  8
DIK
 10
-166.836551726683
 20
17.489108830784
 30
0.0
 40
1.190136079487
 50
270.0
 51
90.0
  0
POLYLINE
  8
DIK
 66
     1
 10
0.0
 20
0.0
 30
0.0
  0
VERTEX
  8
DIK
 10
-164.821453945582
 20
25.51055579841
 30
0.0
 42
0.077262734149
 70
     2
 50
185.60380439945
  0
VERTEX
  8
DIK
 10
-168.042895588918
 20
24.62734996957
 30
0.0
 42
0.050945521512
 50
185.60380439945
  0
VERTEX
  8
DIK
 10
-170.636781555084
 20
23.129724656625
 30
0.0
 42
0.069190866296
  0
SEQEND
  8
DIK
  0
POLYLINE
  8
DIK
 66
     1
 10
0.0
 20
0.0
 30
0.0
  0
VERTEX
  8
DIK
 10
-164.816465222912
 20
25.031365508669
 30
0.0
 42
0.076071376639
 70
     2
 50
185.60380439945
  0
VERTEX
  8
DIK
 10
-167.847785840809
 20
24.192558833828
 30
0.0
 42
0.048801187094
 50
185.60380439945
  0
VERTEX
  8
DIK
 10
-170.258569566301
 20
22.81436839439
 30
0.0
 42
0.069190866296
  0
SEQEND
  8
DIK
  0
LINE
  8
DIK
 10
-166.836551726683
 20
18.679244910271
 30
0.0
 11
-166.836551726683
 21
16.298972751297
 31
0.0
  0
LINE
  8
DIK
 10
-166.836551726683
 20
20.513244910271
 30
0.0
 11
-168.670154683362
 21
20.513244910271
 31
0.0
  0
LINE
  8
DIK
 10
-170.636781555084
 20
23.129724656625
 30
0.0
 11
-170.258569566301
 21
22.81436839439
 31
0.0
  0
LINE
  8
DIK
 10
-164.821453945582
 20
25.51055579841
 30
0.0
 11
-164.816465222912
 21
25.031365508669
 31
0.0
  0
POLYLINE
  8
DIK
 66
     1
 10
0.0
 20
0.0
 30
0.0
  0
VERTEX
  8
DIK
 10
-158.877785079489
 20
22.571726432785
 30
0.0
 42
0.045257321946
 50
74.39619560055
  0
VERTEX
  8
DIK
 10
-159.360350727358
 20
23.265596913186
 30
0.0
 42
0.095750765923
  0
VERTEX
  8
DIK
 10
-160.738999640542
 20
24.384441918051
 30
0.0
 42
0.106995455646
  0
SEQEND
  8
DIK
  0
TEXT
  8
DUN
 10
-178.75
 20
48.25
 30
0.0
 40
2.5
  1
Pos
  7
ROMANS
  0
CIRCLE
  8
DIK
 10
-172.011475615595
 20
35.230609663178
 30
0.0
 40
3.5
  0
LINE
  8
HARTLIJN
 10
-172.011475615595
 20
40.304753886429
 30
0.0
 11
-172.011475615595
 21
30.156465439926
 31
0.0
  0
CIRCLE
  8
DIK
 10
-172.011475615595
 20
35.230609663178
 30
0.0
 40
1.5
  0
LINE
  8
DIK
 10
-162.450142380332
 20
35.230609663178
 30
0.0
 11
-162.450142380332
 21
36.730609663178
 31
0.0
  0
LINE
  8
DIK
 10
-162.450142380332
 20
35.230609663178
 30
0.0
 11
-162.450142380332
 21
33.730609663178
 31
0.0
  0
TEXT
  8
DUN
 10
-166.25
 20
48.25
 30
0.0
 40
2.5
  1
Aant.
  7
ROMANS
  0
LINE
  8
DIK
 10
-149.881549613079
 20
24.384441918051
 30
0.0
 11
-149.881549613079
 21
13.81954903515
 31
0.0
  0
TEXT
  8
DUN
 10
-143.75
 20
30.25
 30
0.0
 40
2.5
  1
Datum
  7
ROMANS
  0
TEXT
  8
DUN
 10
-153.75
 20
48.25
 30
0.0
 40
2.5
  1
Benaming
  7
ROMANS
  0
TEXT
  8
DUN
 10
-143.75
 20
42.25
 30
0.0
 40
2.5
  1
Schaal
  7
ROMANS
  0
LINE
  8
DUN
 10
-145.0
 20
47.0
 30
0.0
 11
-145.0
 21
29.0
 31
0.0
  0
LINE
  8
DIK
 10
-152.450142380332
 20
38.730609663178
 30
0.0
 11
-152.450142380332
 21
31.730609663178
 31
0.0
  0
LINE
  8
DUN
 10
-105.0
 20
57.0
 30
0.0
 11
-105.0
 21
5.0
 31
0.0
  0
LINE
  8
DUN
 10
-80.0
 20
57.0
 30
0.0
 11
-80.0
 21
47.0
 31
0.0
  0
TEXT
  8
DUN
 10
-103.75
 20
48.25
 30
0.0
 40
2.5
  1
Materiaal
  7
ROMANS
  0
TEXT
  8
DUN
 10
-103.75
 20
42.25
 30
0.0
 40
2.5
  1
Getekend
  7
ROMANS
  0
TEXT
  8
DUN
 10
-103.75
 20
36.25
 30
0.0
 40
2.5
  1
Semester
  7
ROMANS
  0
TEXT
  8
DUN
 10
-103.75
 20
11.25
 30
0.0
 40
2.5
  1
Opdracht
  7
ROMANS
  0
TEXT
  8
DUN
 10
-103.75
 20
25.25
 30
0.0
 40
2.5
  1
Benaming
  7
ROMANS
  0
TEXT
  8
DUN
 10
-103.75
 20
30.25
 30
0.0
 40
2.5
  1
Gezien
  7
ROMANS
  0
TEXT
  8
DUN
 10
-78.75
 20
48.25
 30
0.0
 40
2.5
  1
Afmetingen
  7
ROMANS
  0
LINE
  8
DUN
 10
-40.0
 20
57.0
 30
0.0
 11
-40.0
 21
47.0
 31
0.0
  0
TEXT
  8
DUN
 10
-43.75
 20
42.25
 30
0.0
 40
2.5
  1
Ruwheid NEN 3634
  7
ROMANS
  0
TEXT
  8
DUN
 10
-43.75
 20
36.25
 30
0.0
 40
2.5
  1
Maattol. NEN 406
  7
ROMANS
  0
TEXT
  8
DUN
 10
-43.75
 20
30.25
 30
0.0
 40
2.5
  1
Vorm/pl.tol NEN 1101
  7
ROMANS
  0
TEXT
  8
DUN
 10
-38.75
 20
48.25
 30
0.0
 40
2.5
  1
Opmerking
  7
ROMANS
  0
LINE
  8
DUN
 10
-55.0
 20
15.0
 30
0.0
 11
-55.0
 21
5.0
 31
0.0
  0
TEXT
  8
DUN
 10
-53.75
 20
11.25
 30
0.0
 40
2.5
  1
Tek.nr.
  7
ROMANS
  0
LINE
  8
DUN
 10
-45.0
 20
47.0
 30
0.0
 11
-45.0
 21
29.0
 31
0.0
  0
LINE
  8
DUN
 10
-12.5
 20
5.0
 30
0.0
 11
-12.5
 21
15.0
 31
0.0
  0
POINT
  8
DUN
 10
0.0
 20
5.0
 30
0.0
  0
POINT
  8
DIK
 10
0.0
 20
5.0
 30
0.0
  0
ENDBLK
  8
0
  0
BLOCK
  8
0
  2
REGEL
 70
     2
 10
0.0
 20
0.0
 30
0.0
  3
REGEL
  0
ATTDEF
  8
DUN
 10
-178.75
 20
1.25
 30
0.0
 40
2.5
  1

  3

  2
POS.NR.
 70
     0
  7
ROMANS
  0
ATTDEF
  8
DUN
 10
-166.25
 20
1.25
 30
0.0
 40
2.5
  1

  3

  2
AANTAL
 70
     0
  7
ROMANS
  0
ATTDEF
  8
DUN
 10
-153.75
 20
1.25
 30
0.0
 40
2.5
  1

  3

  2
BENAMING
 70
     0
  7
ROMANS
  0
ATTDEF
  8
DUN
 10
-103.75
 20
1.25
 30
0.0
 40
2.5
  1

  3

  2
MATERIAAL
 70
     0
  7
ROMANS
  0
ATTDEF
  8
DUN
 10
-78.75
 20
1.25
 30
0.0
 40
2.5
  1

  3

  2
AFMETINGEN
 70
     0
  7
ROMANS
  0
ATTDEF
  8
DUN
 10
-38.75
 20
1.25
 30
0.0
 40
2.5
  1

  3

  2
OPMERKINGEN
 70
     0
  7
ROMANS
  0
LINE
  8
DUN
 10
0.0
 20
5.0
 30
0.0
 11
-180.0
 21
5.0
 31
0.0
  0
LINE
  8
DUN
 10
-40.0
 20
5.0
 30
0.0
 11
-40.0
 21
0.0
 31
0.0
  0
LINE
  8
DUN
 10
-80.0
 20
5.0
 30
0.0
 11
-80.0
 21
0.0
 31
0.0
  0
LINE
  8
DUN
 10
-105.0
 20
5.0
 30
0.0
 11
-105.0
 21
0.0
 31
0.0
  0
LINE
  8
DUN
 10
-155.0
 20
5.0
 30
0.0
 11
-155.0
 21
0.0
 31
0.0
  0
LINE
  8
DUN
 10
-167.5
 20
5.0
 30
0.0
 11
-167.5
 21
0.0
 31
0.0
  0
LINE
  8
DIK
 10
-180.0
 20
5.0
 30
0.0
 11
-180.0
 21
0.0
 31
0.0
  0
ENDBLK
  8
0
  0
BLOCK
  8
0
  2
A0L
 70
     2
 10
0.0
 20
0.0
 30
0.0
  3
A0L
  0
LINE
  8
DUN
 10
0.0
 20
841.0
 30
0.0
 11
-1189.0
 21
841.0
 31
0.0
  0
LINE
  8
DUN
 10
-1189.0
 20
0.0
 30
0.0
 11
0.0
 21
0.0
 31
0.0
  0
POLYLINE
  8
DIK
 66
     1
 10
0.0
 20
0.0
 30
0.0
 70
     1
  0
VERTEX
  8
DIK
 10
-1169.0
 20
10.0
 30
0.0
  0
VERTEX
  8
DIK
 10
-10.0
 20
10.0
 30
0.0
  0
VERTEX
  8
DIK
 10
-10.0
 20
831.0
 30
0.0
  0
VERTEX
  8
DIK
 10
-1169.0
 20
831.0
 30
0.0
  0
SEQEND
  8
DIK
  0
LINE
  8
DUN
 10
-1189.0
 20
841.0
 30
0.0
 11
-1189.0
 21
0.0
 31
0.0
  0
LINE
  8
DUN
 10
-979.0
 20
0.0
 30
0.0
 11
-979.0
 21
10.0
 31
0.0
  0
LINE
  8
DUN
 10
-869.5
 20
0.0
 30
0.0
 11
-869.5
 21
10.0
 31
0.0
  0
LINE
  8
DUN
 10
-760.0
 20
0.0
 30
0.0
 11
-760.0
 21
10.0
 31
0.0
  0
LINE
  8
DUN
 10
-1189.0
 20
297.0
 30
0.0
 11
-1169.0
 21
297.0
 31
0.0
  0
LINE
  8
DUN
 10
-1189.0
 20
594.0
 30
0.0
 11
-1169.0
 21
594.0
 31
0.0
  0
LINE
  8
DUN
 10
-979.0
 20
831.0
 30
0.0
 11
-979.0
 21
841.0
 31
0.0
  0
LINE
  8
DUN
 10
-869.5
 20
831.0
 30
0.0
 11
-869.5
 21
841.0
 31
0.0
  0
LINE
  8
DUN
 10
-760.0
 20
831.0
 30
0.0
 11
-760.0
 21
841.0
 31
0.0
  0
LINE
  8
DUN
 10
0.0
 20
0.0
 30
0.0
 11
0.0
 21
841.0
 31
0.0
  0
LINE
  8
DUN
 10
-570.0
 20
0.0
 30
0.0
 11
-570.0
 21
10.0
 31
0.0
  0
LINE
  8
DUN
 10
-380.0
 20
0.0
 30
0.0
 11
-380.0
 21
10.0
 31
0.0
  0
INSERT
  8
HARTLIJN-DUBBEL
  2
TEKENH
 10
-10.0
 20
10.0
 30
0.0
  0
ATTDEF
  8
DUN
 10
-69.916666666667
 20
16.25
 30
0.0
 40
3.5
  1

  3

  2
TEKENINGNUMMER
 70
     0
  7
ROMANS
 72
     2
 11
-23.75
 21
16.25
 31
0.0
  0
LINE
  8
DUN
 10
-190.0
 20
0.0
 30
0.0
 11
-190.0
 21
10.0
 31
0.0
  0
ATTDEF
  8
DUN
 10
-140.416666666667
 20
46.25
 30
0.0
 40
2.5
  1
mm
  3

  2
MAATEENHEID
 70
     8
  7
ROMANS
 72
     2
 11
-116.25
 21
46.25
 31
0.0
  0
ATTDEF
  8
DUN
 10
-129.940476190476
 20
52.25
 30
0.0
 40
2.5
  1

  3

  2
SCHAAL
 70
     0
  7
ROMANS
 72
     2
 11
-116.25
 21
52.25
 31
0.0
  0
ATTDEF
  8
DUN
 10
-127.797619047619
 20
40.25
 30
0.0
 40
2.5
  1

  3

  2
DATUM
 70
     0
  7
ROMANS
 72
     2
 11
-116.25
 21
40.25
 31
0.0
  0
ATTDEF
  8
DUN
 10
-93.083333333333
 20
16.25
 30
0.0
 40
3.5
  1

  3

  2
OPDRACHT
 70
     0
  7
ROMANS
 72
     2
 11
-66.25
 21
16.25
 31
0.0
  0
ATTDEF
  8
DUN
 10
-74.702380952381
 20
52.25
 30
0.0
 40
2.5
  1

  3

  2
GETEKEND
 70
     0
  7
ROMANS
 72
     2
 11
-56.25
 21
52.25
 31
0.0
  0
ATTDEF
  8
DUN
 10
-74.702380952381
 20
46.25
 30
0.0
 40
2.5
  1

  3

  2
SEMESTER
 70
     0
  7
ROMANS
 72
     2
 11
-56.25
 21
46.25
 31
0.0
  0
ATTDEF
  8
DIK
 10
-48.690476190476
 20
27.5
 30
0.0
 40
5.0
  1

  3

  2
BENAMING
 70
     0
  7
ROMANS
 72
     2
 11
-12.5
 21
27.5
 31
0.0
  0
TEXT
  8
DUN
 10
-19.5
 20
18.5
 30
0.0
 40
3.0
  1
A0
 72
     2
 11
-15.0
 21
18.5
 31
0.0
  0
LINE
  8
DUN
 10
-570.0
 20
831.0
 30
0.0
 11
-570.0
 21
841.0
 31
0.0
  0
LINE
  8
DUN
 10
-380.0
 20
831.0
 30
0.0
 11
-380.0
 21
841.0
 31
0.0
  0
LINE
  8
DUN
 10
-10.0
 20
297.0
 30
0.0
 11
0.0
 21
297.0
 31
0.0
  0
LINE
  8
DUN
 10
-10.0
 20
594.0
 30
0.0
 11
0.0
 21
594.0
 31
0.0
  0
LINE
  8
DUN
 10
-190.0
 20
831.0
 30
0.0
 11
-190.0
 21
841.0
 31
0.0
  0
ENDBLK
  8
0
  0
BLOCK
  8
0
  2
A0S
 70
     2
 10
0.0
 20
0.0
 30
0.0
  3
A0S
  0
LINE
  8
DUN
 10
-841.0
 20
1188.0
 30
0.0
 11
-841.0
 21
0.0
 31
0.0
  0
LINE
  8
DUN
 10
0.0
 20
0.0
 30
0.0
 11
0.0
 21
1188.0
 31
0.0
  0
POLYLINE
  8
DIK
 66
     1
 10
0.0
 20
0.0
 30
0.0
 70
     1
  0
VERTEX
  8
DIK
 10
-821.0
 20
10.0
 30
0.0
  0
VERTEX
  8
DIK
 10
-10.0
 20
10.0
 30
0.0
  0
VERTEX
  8
DIK
 10
-10.0
 20
1178.0
 30
0.0
  0
VERTEX
  8
DIK
 10
-821.0
 20
1178.0
 30
0.0
  0
SEQEND
  8
DIK
  0
LINE
  8
DUN
 10
-841.0
 20
0.0
 30
0.0
 11
0.0
 21
0.0
 31
0.0
  0
LINE
  8
DUN
 10
-631.0
 20
0.0
 30
0.0
 11
-631.0
 21
10.0
 31
0.0
  0
LINE
  8
DUN
 10
-505.5
 20
0.0
 30
0.0
 11
-505.5
 21
10.0
 31
0.0
  0
LINE
  8
DUN
 10
-380.0
 20
0.0
 30
0.0
 11
-380.0
 21
10.0
 31
0.0
  0
INSERT
  8
DUN
  2
TEKENH
 10
-10.0
 20
10.0
 30
0.0
  0
ATTDEF
  8
DUN
 10
-69.916666666667
 20
16.25
 30
0.0
 40
3.5
  1

  3

  2
TEKENINGNUMMER
 70
     0
  7
ROMANS
 72
     2
 11
-23.75
 21
16.25
 31
0.0
  0
LINE
  8
DUN
 10
-190.0
 20
0.0
 30
0.0
 11
-190.0
 21
10.0
 31
0.0
  0
ATTDEF
  8
DUN
 10
-140.416666666667
 20
46.25
 30
0.0
 40
2.5
  1
mm
  3

  2
MAATEENHEID
 70
     8
  7
ROMANS
 72
     2
 11
-116.25
 21
46.25
 31
0.0
  0
ATTDEF
  8
DUN
 10
-129.940476190476
 20
52.25
 30
0.0
 40
2.5
  1

  3

  2
SCHAAL
 70
     0
  7
ROMANS
 72
     2
 11
-116.25
 21
52.25
 31
0.0
  0
ATTDEF
  8
DUN
 10
-127.797619047619
 20
40.25
 30
0.0
 40
2.5
  1

  3

  2
DATUM
 70
     0
  7
ROMANS
 72
     2
 11
-116.25
 21
40.25
 31
0.0
  0
ATTDEF
  8
DUN
 10
-93.083333333333
 20
16.25
 30
0.0
 40
3.5
  1

  3

  2
OPDRACHT
 70
     0
  7
ROMANS
 72
     2
 11
-66.25
 21
16.25
 31
0.0
  0
ATTDEF
  8
DUN
 10
-74.702380952381
 20
52.25
 30
0.0
 40
2.5
  1

  3

  2
GETEKEND
 70
     0
  7
ROMANS
 72
     2
 11
-56.25
 21
52.25
 31
0.0
  0
ATTDEF
  8
DUN
 10
-74.702380952381
 20
46.25
 30
0.0
 40
2.5
  1

  3

  2
SEMESTER
 70
     0
  7
ROMANS
 72
     2
 11
-56.25
 21
46.25
 31
0.0
  0
ATTDEF
  8
DIK
 10
-48.690476190476
 20
27.5
 30
0.0
 40
5.0
  1

  3

  2
BENAMING
 70
     0
  7
ROMANS
 72
     2
 11
-12.5
 21
27.5
 31
0.0
  0
TEXT
  8
DUN
 10
-19.5
 20
18.5
 30
0.0
 40
3.0
  1
A0
 72
     2
 11
-15.0
 21
18.5
 31
0.0
  0
LINE
  8
DUN
 10
0.0
 20
1188.0
 30
0.0
 11
-841.0
 21
1188.0
 31
0.0
  0
LINE
  8
DUN
 10
-841.0
 20
297.0
 30
0.0
 11
-821.0
 21
297.0
 31
0.0
  0
LINE
  8
DUN
 10
-841.0
 20
594.0
 30
0.0
 11
-821.0
 21
594.0
 31
0.0
  0
LINE
  8
DUN
 10
-841.0
 20
891.0
 30
0.0
 11
-821.0
 21
891.0
 31
0.0
  0
LINE
  8
DUN
 10
-10.0
 20
297.0
 30
0.0
 11
0.0
 21
297.0
 31
0.0
  0
LINE
  8
DUN
 10
-10.0
 20
594.0
 30
0.0
 11
0.0
 21
594.0
 31
0.0
  0
LINE
  8
DUN
 10
-631.0
 20
1178.0
 30
0.0
 11
-631.0
 21
1188.0
 31
0.0
  0
LINE
  8
DUN
 10
-505.5
 20
1178.0
 30
0.0
 11
-505.5
 21
1188.0
 31
0.0
  0
LINE
  8
DUN
 10
-380.0
 20
1178.0
 30
0.0
 11
-380.0
 21
1188.0
 31
0.0
  0
LINE
  8
DUN
 10
-10.0
 20
891.0
 30
0.0
 11
0.0
 21
891.0
 31
0.0
  0
LINE
  8
DUN
 10
-190.0
 20
1178.0
 30
0.0
 11
-190.0
 21
1188.0
 31
0.0
  0
ENDBLK
  8
0
  0
BLOCK
  8
0
  2
A1S
 70
     2
 10
0.0
 20
0.0
 30
0.0
  3
A1S
  0
LINE
  8
DIK
 10
-10.0
 20
830.0
 30
0.0
 11
-574.0
 21
830.0
 31
0.0
  0
LINE
  8
DIK
 10
-574.0
 20
10.0
 30
0.0
 11
-10.0
 21
10.0
 31
0.0
  0
LINE
  8
DUN
 10
0.0
 20
840.0
 30
0.0
 11
-594.0
 21
840.0
 31
0.0
  0
LINE
  8
DUN
 10
-594.0
 20
0.0
 30
0.0
 11
0.0
 21
0.0
 31
0.0
  0
LINE
  8
DIK
 10
-574.0
 20
830.0
 30
0.0
 11
-574.0
 21
10.0
 31
0.0
  0
LINE
  8
DUN
 10
-594.0
 20
840.0
 30
0.0
 11
-594.0
 21
0.0
 31
0.0
  0
LINE
  8
DUN
 10
-594.0
 20
297.0
 30
0.0
 11
-574.0
 21
297.0
 31
0.0
  0
LINE
  8
DUN
 10
-594.0
 20
594.0
 30
0.0
 11
-574.0
 21
594.0
 31
0.0
  0
LINE
  8
DIK
 10
-10.0
 20
10.0
 30
0.0
 11
-10.0
 21
830.0
 31
0.0
  0
LINE
  8
DUN
 10
0.0
 20
0.0
 30
0.0
 11
0.0
 21
840.0
 31
0.0
  0
INSERT
  8
DUN
  2
TEKENH
 10
-10.0
 20
10.0
 30
0.0
  0
ATTDEF
  8
DUN
 10
-74.702380952381
 20
52.25
 30
0.0
 40
2.5
  1

  3

  2
GETEKEND
 70
     0
  7
ROMANS
 72
     2
 11
-56.25
 21
52.25
 31
0.0
  0
ATTDEF
  8
DUN
 10
-74.702380952381
 20
46.25
 30
0.0
 40
2.5
  1

  3

  2
SEMESTER
 70
     0
  7
ROMANS
 72
     2
 11
-56.25
 21
46.25
 31
0.0
  0
ATTDEF
  8
DUN
 10
-69.916666666667
 20
16.25
 30
0.0
 40
3.5
  1

  3

  2
TEKENINGNUMMER
 70
     0
  7
ROMANS
 72
     2
 11
-23.75
 21
16.25
 31
0.0
  0
LINE
  8
DUN
 10
-478.0
 20
0.0
 30
0.0
 11
-478.0
 21
10.0
 31
0.0
  0
LINE
  8
DUN
 10
-382.0
 20
0.0
 30
0.0
 11
-382.0
 21
10.0
 31
0.0
  0
LINE
  8
DUN
 10
-286.0
 20
0.0
 30
0.0
 11
-286.0
 21
10.0
 31
0.0
  0
LINE
  8
DUN
 10
-190.0
 20
0.0
 30
0.0
 11
-190.0
 21
10.0
 31
0.0
  0
ATTDEF
  8
DUN
 10
-129.940476190476
 20
52.25
 30
0.0
 40
2.5
  1

  3

  2
SCHAAL
 70
     0
  7
ROMANS
 72
     2
 11
-116.25
 21
52.25
 31
0.0
  0
ATTDEF
  8
DUN
 10
-140.416666666667
 20
46.25
 30
0.0
 40
2.5
  1
mm
  3

  2
MAATEENHEID
 70
     8
  7
ROMANS
 72
     2
 11
-116.25
 21
46.25
 31
0.0
  0
ATTDEF
  8
DUN
 10
-127.797619047619
 20
40.25
 30
0.0
 40
2.5
  1

  3

  2
DATUM
 70
     0
  7
ROMANS
 72
     2
 11
-116.25
 21
40.25
 31
0.0
  0
ATTDEF
  8
DUN
 10
-93.083333333333
 20
16.25
 30
0.0
 40
3.5
  1

  3

  2
OPDRACHT
 70
     0
  7
ROMANS
 72
     2
 11
-66.25
 21
16.25
 31
0.0
  0
TEXT
  8
DUN
 10
-19.0
 20
18.5
 30
0.0
 40
3.0
  1
A1
 72
     2
 11
-15.0
 21
18.5
 31
0.0
  0
ATTDEF
  8
DIK
 10
-48.690476190476
 20
27.5
 30
0.0
 40
5.0
  1

  3

  2
BENAMING
 70
     0
  7
ROMANS
 72
     2
 11
-12.5
 21
27.5
 31
0.0
  0
LINE
  8
DUN
 10
-478.0
 20
830.0
 30
0.0
 11
-478.0
 21
840.0
 31
0.0
  0
LINE
  8
DUN
 10
-382.0
 20
830.0
 30
0.0
 11
-382.0
 21
840.0
 31
0.0
  0
LINE
  8
DUN
 10
-286.0
 20
830.0
 30
0.0
 11
-286.0
 21
840.0
 31
0.0
  0
LINE
  8
DUN
 10
-190.0
 20
830.0
 30
0.0
 11
-190.0
 21
840.0
 31
0.0
  0
LINE
  8
DUN
 10
-10.0
 20
297.0
 30
0.0
 11
0.0
 21
297.0
 31
0.0
  0
LINE
  8
DUN
 10
-10.0
 20
594.0
 30
0.0
 11
0.0
 21
594.0
 31
0.0
  0
ENDBLK
  8
0
  0
BLOCK
  8
0
  2
A1L
 70
     2
 10
0.0
 20
0.0
 30
0.0
  3
A1L
  0
LINE
  8
DUN
 10
0.0
 20
594.0
 30
0.0
 11
-841.0
 21
594.0
 31
0.0
  0
LINE
  8
DUN
 10
-841.0
 20
0.0
 30
0.0
 11
0.0
 21
0.0
 31
0.0
  0
POLYLINE
  8
DIK
 66
     1
 10
0.0
 20
0.0
 30
0.0
 70
     1
  0
VERTEX
  8
DIK
 10
-821.0
 20
10.0
 30
0.0
  0
VERTEX
  8
DIK
 10
-10.0
 20
10.0
 30
0.0
  0
VERTEX
  8
DIK
 10
-10.0
 20
584.0
 30
0.0
  0
VERTEX
  8
DIK
 10
-821.0
 20
584.0
 30
0.0
  0
SEQEND
  8
DIK
  0
LINE
  8
DUN
 10
-841.0
 20
594.0
 30
0.0
 11
-841.0
 21
0.0
 31
0.0
  0
LINE
  8
DUN
 10
-631.0
 20
0.0
 30
0.0
 11
-631.0
 21
10.0
 31
0.0
  0
LINE
  8
DUN
 10
-505.5
 20
0.0
 30
0.0
 11
-505.5
 21
10.0
 31
0.0
  0
LINE
  8
DUN
 10
-505.5
 20
584.0
 30
0.0
 11
-505.5
 21
594.0
 31
0.0
  0
LINE
  8
DUN
 10
-631.0
 20
584.0
 30
0.0
 11
-631.0
 21
594.0
 31
0.0
  0
LINE
  8
DUN
 10
-841.0
 20
297.0
 30
0.0
 11
-821.0
 21
297.0
 31
0.0
  0
LINE
  8
DUN
 10
0.0
 20
0.0
 30
0.0
 11
0.0
 21
594.0
 31
0.0
  0
INSERT
  8
HARTLIJN-DUBBEL
  2
TEKENH
 10
-10.0
 20
10.0
 30
0.0
  0
ATTDEF
  8
DUN
 10
-93.083333333334
 20
16.25
 30
0.0
 40
3.5
  1

  3

  2
OPDRACHT
 70
     0
  7
ROMANS
 72
     2
 11
-66.25
 21
16.25
 31
0.0
  0
LINE
  8
DUN
 10
-380.0
 20
0.0
 30
0.0
 11
-380.0
 21
10.0
 31
0.0
  0
LINE
  8
DUN
 10
-190.0
 20
0.0
 30
0.0
 11
-190.0
 21
10.0
 31
0.0
  0
ATTDEF
  8
DUN
 10
-140.416666666667
 20
46.25
 30
0.0
 40
2.5
  1
mm
  3

  2
MAATEENHEID
 70
     8
  7
ROMANS
 72
     2
 11
-116.25
 21
46.25
 31
0.0
  0
ATTDEF
  8
DUN
 10
-129.940476190476
 20
52.25
 30
0.0
 40
2.5
  1

  3

  2
SCHAAL
 70
     0
  7
ROMANS
 72
     2
 11
-116.25
 21
52.25
 31
0.0
  0
ATTDEF
  8
DUN
 10
-127.797619047619
 20
40.25
 30
0.0
 40
2.5
  1

  3

  2
DATUM
 70
     0
  7
ROMANS
 72
     2
 11
-116.25
 21
40.25
 31
0.0
  0
ATTDEF
  8
DUN
 10
-69.916666666667
 20
16.25
 30
0.0
 40
3.5
  1

  3

  2
TEKENINGNUMMER
 70
     0
  7
ROMANS
 72
     2
 11
-23.75
 21
16.25
 31
0.0
  0
ATTDEF
  8
DIK
 10
-48.690476190476
 20
27.5
 30
0.0
 40
5.0
  1

  3

  2
BENAMING
 70
     0
  7
ROMANS
 72
     2
 11
-12.5
 21
27.5
 31
0.0
  0
ATTDEF
  8
DUN
 10
-74.702380952381
 20
52.25
 30
0.0
 40
2.5
  1

  3

  2
GETEKEND
 70
     0
  7
ROMANS
 72
     2
 11
-56.25
 21
52.25
 31
0.0
  0
ATTDEF
  8
DUN
 10
-74.702380952381
 20
46.25
 30
0.0
 40
2.5
  1

  3

  2
SEMESTER
 70
     0
  7
ROMANS
 72
     2
 11
-56.25
 21
46.25
 31
0.0
  0
TEXT
  8
DUN
 10
-19.0
 20
18.5
 30
0.0
 40
3.0
  1
A1
 72
     2
 11
-15.0
 21
18.5
 31
0.0
  0
LINE
  8
DUN
 10
-190.0
 20
584.0
 30
0.0
 11
-190.0
 21
594.0
 31
0.0
  0
LINE
  8
DUN
 10
-380.0
 20
584.0
 30
0.0
 11
-380.0
 21
594.0
 31
0.0
  0
LINE
  8
DUN
 10
-10.0
 20
297.0
 30
0.0
 11
0.0
 21
297.0
 31
0.0
  0
ENDBLK
  8
0
  0
BLOCK
  8
0
  2
A2L
 70
     2
 10
0.0
 20
0.0
 30
0.0
  3
A2L
  0
LINE
  8
DUN
 10
0.0
 20
420.0
 30
0.0
 11
-594.0
 21
420.0
 31
0.0
  0
LINE
  8
DUN
 10
-594.0
 20
0.0
 30
0.0
 11
0.0
 21
0.0
 31
0.0
  0
POLYLINE
  8
DIK
 66
     1
 10
0.0
 20
0.0
 30
0.0
 70
     1
  0
VERTEX
  8
DIK
 10
-574.0
 20
10.0
 30
0.0
  0
VERTEX
  8
DIK
 10
-10.0
 20
10.0
 30
0.0
  0
VERTEX
  8
DIK
 10
-10.0
 20
410.0
 30
0.0
  0
VERTEX
  8
DIK
 10
-574.0
 20
410.0
 30
0.0
  0
SEQEND
  8
DIK
  0
LINE
  8
DUN
 10
-594.0
 20
420.0
 30
0.0
 11
-594.0
 21
0.0
 31
0.0
  0
LINE
  8
DUN
 10
-594.0
 20
297.0
 30
0.0
 11
-574.0
 21
297.0
 31
0.0
  0
LINE
  8
DUN
 10
0.0
 20
0.0
 30
0.0
 11
0.0
 21
420.0
 31
0.0
  0
INSERT
  8
DIK
  2
TEKENH
 10
-10.0
 20
10.0
 30
0.0
  0
ATTDEF
  8
DUN
 10
-74.702380952381
 20
52.25
 30
0.0
 40
2.5
  1

  3

  2
GETEKEND
 70
     0
  7
ROMANS
 72
     2
 11
-56.25
 21
52.25
 31
0.0
  0
ATTDEF
  8
DUN
 10
-74.702380952381
 20
46.25
 30
0.0
 40
2.5
  1

  3

  2
SEMESTER
 70
     0
  7
ROMANS
 72
     2
 11
-56.25
 21
46.25
 31
0.0
  0
ATTDEF
  8
DUN
 10
-69.916666666667
 20
16.25
 30
0.0
 40
3.5
  1

  3

  2
TEKENINGNUMMER
 70
     0
  7
ROMANS
 72
     2
 11
-23.75
 21
16.25
 31
0.0
  0
LINE
  8
DUN
 10
-478.0
 20
0.0
 30
0.0
 11
-478.0
 21
10.0
 31
0.0
  0
LINE
  8
DUN
 10
-382.0
 20
0.0
 30
0.0
 11
-382.0
 21
10.0
 31
0.0
  0
LINE
  8
DUN
 10
-286.0
 20
0.0
 30
0.0
 11
-286.0
 21
10.0
 31
0.0
  0
LINE
  8
DUN
 10
-190.0
 20
0.0
 30
0.0
 11
-190.0
 21
10.0
 31
0.0
  0
ATTDEF
  8
DUN
 10
-140.416666666667
 20
46.25
 30
0.0
 40
2.5
  1
mm
  3

  2
MAATEENHEID
 70
     8
  7
ROMANS
 72
     2
 11
-116.25
 21
46.25
 31
0.0
  0
ATTDEF
  8
DUN
 10
-129.940476190476
 20
52.25
 30
0.0
 40
2.5
  1

  3

  2
SCHAAL
 70
     0
  7
ROMANS
 72
     2
 11
-116.25
 21
52.25
 31
0.0
  0
ATTDEF
  8
DUN
 10
-127.797619047619
 20
40.25
 30
0.0
 40
2.5
  1

  3

  2
DATUM
 70
     0
  7
ROMANS
 72
     2
 11
-116.25
 21
40.25
 31
0.0
  0
ATTDEF
  8
DUN
 10
-93.083333333333
 20
16.25
 30
0.0
 40
3.5
  1

  3

  2
OPDRACHT
 70
     0
  7
ROMANS
 72
     2
 11
-66.25
 21
16.25
 31
0.0
  0
ATTDEF
  8
DIK
 10
-48.690476190476
 20
27.5
 30
0.0
 40
5.0
  1

  3

  2
BENAMING
 70
     0
  7
ROMANS
 72
     2
 11
-12.5
 21
27.5
 31
0.0
  0
TEXT
  8
DUN
 10
-20.0
 20
18.5
 30
0.0
 40
3.0
  1
A2
 72
     2
 11
-15.0
 21
18.5
 31
0.0
  0
LINE
  8
DUN
 10
-478.0
 20
410.0
 30
0.0
 11
-478.0
 21
420.0
 31
0.0
  0
LINE
  8
DUN
 10
-382.0
 20
410.0
 30
0.0
 11
-382.0
 21
420.0
 31
0.0
  0
LINE
  8
DUN
 10
-286.0
 20
410.0
 30
0.0
 11
-286.0
 21
420.0
 31
0.0
  0
LINE
  8
DUN
 10
-190.0
 20
410.0
 30
0.0
 11
-190.0
 21
420.0
 31
0.0
  0
LINE
  8
DUN
 10
-10.0
 20
297.0
 30
0.0
 11
0.0
 21
297.0
 31
0.0
  0
ENDBLK
  8
0
  0
BLOCK
  8
0
  2
A2S
 70
     2
 10
0.0
 20
0.0
 30
0.0
  3
A2S
  0
LINE
  8
DIK
 10
-400.0
 20
584.0
 30
0.0
 11
-400.0
 21
10.0
 31
0.0
  0
LINE
  8
DIK
 10
-10.0
 20
10.0
 30
0.0
 11
-10.0
 21
584.0
 31
0.0
  0
LINE
  8
DUN
 10
-420.0
 20
594.0
 30
0.0
 11
-420.0
 21
0.0
 31
0.0
  0
LINE
  8
DUN
 10
0.0
 20
0.0
 30
0.0
 11
0.0
 21
594.0
 31
0.0
  0
LINE
  8
DIK
 10
-400.0
 20
10.0
 30
0.0
 11
-10.0
 21
10.0
 31
0.0
  0
LINE
  8
DUN
 10
-420.0
 20
0.0
 30
0.0
 11
0.0
 21
0.0
 31
0.0
  0
INSERT
  8
DIK
  2
TEKENH
 10
-10.0
 20
10.0
 30
0.0
  0
ATTDEF
  8
DUN
 10
-93.083333333334
 20
16.25
 30
0.0
 40
3.5
  1

  3

  2
OPDRACHT
 70
     0
  7
ROMANS
 72
     2
 11
-66.25
 21
16.25
 31
0.0
  0
LINE
  8
DUN
 10
-295.0
 20
0.0
 30
0.0
 11
-295.0
 21
10.0
 31
0.0
  0
LINE
  8
DUN
 10
-420.0
 20
297.0
 30
0.0
 11
-400.0
 21
297.0
 31
0.0
  0
LINE
  8
DUN
 10
-190.0
 20
0.0
 30
0.0
 11
-190.0
 21
10.0
 31
0.0
  0
ATTDEF
  8
DUN
 10
-140.416666666667
 20
46.25
 30
0.0
 40
2.5
  1
mm
  3

  2
MAATEENHEID
 70
     8
  7
ROMANS
 72
     2
 11
-116.25
 21
46.25
 31
0.0
  0
ATTDEF
  8
DUN
 10
-127.797619047619
 20
40.25
 30
0.0
 40
2.5
  1

  3

  2
DATUM
 70
     0
  7
ROMANS
 72
     2
 11
-116.25
 21
40.25
 31
0.0
  0
ATTDEF
  8
DUN
 10
-129.940476190476
 20
52.25
 30
0.0
 40
2.5
  1

  3

  2
SCHAAL
 70
     0
  7
ROMANS
 72
     2
 11
-116.25
 21
52.25
 31
0.0
  0
ATTDEF
  8
DUN
 10
-69.916666666667
 20
16.25
 30
0.0
 40
3.5
  1

  3

  2
TEKENINGNUMMER
 70
     0
  7
ROMANS
 72
     2
 11
-23.75
 21
16.25
 31
0.0
  0
ATTDEF
  8
DIK
 10
-48.690476190476
 20
27.5
 30
0.0
 40
5.0
  1

  3

  2
BENAMING
 70
     0
  7
ROMANS
 72
     2
 11
-12.5
 21
27.5
 31
0.0
  0
ATTDEF
  8
DUN
 10
-74.702380952381
 20
46.25
 30
0.0
 40
2.5
  1

  3

  2
SEMESTER
 70
     0
  7
ROMANS
 72
     2
 11
-56.25
 21
46.25
 31
0.0
  0
TEXT
  8
DUN
 10
-20.0
 20
28.5
 30
0.0
 40
3.0
  1
A2
 72
     2
 11
-15.0
 21
28.5
 31
0.0
  0
ATTDEF
  8
DUN
 10
-74.702380952381
 20
52.25
 30
0.0
 40
2.5
  1

  3

  2
GETEKEND
 70
     0
  7
ROMANS
 72
     2
 11
-56.25
 21
52.25
 31
0.0
  0
LINE
  8
DUN
 10
-10.0
 20
297.0
 30
0.0
 11
0.0
 21
297.0
 31
0.0
  0
LINE
  8
DIK
 10
-10.0
 20
584.0
 30
0.0
 11
-400.0
 21
584.0
 31
0.0
  0
LINE
  8
DUN
 10
0.0
 20
594.0
 30
0.0
 11
-420.0
 21
594.0
 31
0.0
  0
LINE
  8
DUN
 10
-295.0
 20
584.0
 30
0.0
 11
-295.0
 21
594.0
 31
0.0
  0
LINE
  8
DUN
 10
-190.0
 20
584.0
 30
0.0
 11
-190.0
 21
594.0
 31
0.0
  0
ENDBLK
  8
0
  0
BLOCK
  8
0
  2
A3S
 70
     2
 10
0.0
 20
0.0
 30
0.0
  3
A3S
  0
LINE
  8
DIK
 10
-277.0
 20
410.0
 30
0.0
 11
-277.0
 21
10.0
 31
0.0
  0
LINE
  8
DIK
 10
-10.0
 20
10.0
 30
0.0
 11
-10.0
 21
410.0
 31
0.0
  0
LINE
  8
DUN
 10
-297.0
 20
420.0
 30
0.0
 11
-297.0
 21
0.0
 31
0.0
  0
LINE
  8
DUN
 10
0.0
 20
0.0
 30
0.0
 11
0.0
 21
420.0
 31
0.0
  0
LINE
  8
DIK
 10
-277.0
 20
10.0
 30
0.0
 11
-10.0
 21
10.0
 31
0.0
  0
LINE
  8
DUN
 10
-297.0
 20
0.0
 30
0.0
 11
0.0
 21
0.0
 31
0.0
  0
LINE
  8
DUN
 10
-233.5
 20
0.0
 30
0.0
 11
-233.5
 21
10.0
 31
0.0
  0
LINE
  8
DUN
 10
-297.0
 20
297.0
 30
0.0
 11
-277.0
 21
297.0
 31
0.0
  0
INSERT
  8
0
  2
TEKENH
 10
-10.0
 20
10.0
 30
0.0
  0
ATTDEF
  8
DUN
 10
-129.940476190476
 20
52.25
 30
0.0
 40
2.5
  1

  3

  2
SCHAAL
 70
     0
  7
ROMANS
 72
     2
 11
-116.25
 21
52.25
 31
0.0
  0
LINE
  8
DUN
 10
-190.0
 20
0.0
 30
0.0
 11
-190.0
 21
10.0
 31
0.0
  0
ATTDEF
  8
DUN
 10
-140.416666666667
 20
46.25
 30
0.0
 40
2.5
  1
mm
  3

  2
MAATEENHEID
 70
     8
  7
ROMANS
 72
     2
 11
-116.25
 21
46.25
 31
0.0
  0
ATTDEF
  8
DUN
 10
-127.797619047619
 20
40.25
 30
0.0
 40
2.5
  1

  3

  2
DATUM
 70
     0
  7
ROMANS
 72
     2
 11
-116.25
 21
40.25
 31
0.0
  0
ATTDEF
  8
DUN
 10
-74.702380952381
 20
52.25
 30
0.0
 40
2.5
  1

  3

  2
GETEKEND
 70
     0
  7
ROMANS
 72
     2
 11
-56.25
 21
52.25
 31
0.0
  0
ATTDEF
  8
DUN
 10
-69.916666666667
 20
16.25
 30
0.0
 40
3.5
  1

  3

  2
TEKENINGNUMMER
 70
     0
  7
ROMANS
 72
     2
 11
-23.75
 21
16.25
 31
0.0
  0
ATTDEF
  8
DUN
 10
-93.083333333333
 20
16.25
 30
0.0
 40
3.5
  1

  3

  2
OPDRACHT
 70
     0
  7
ROMANS
 72
     2
 11
-66.25
 21
16.25
 31
0.0
  0
ATTDEF
  8
DUN
 10
-74.702380952381
 20
46.25
 30
0.0
 40
2.5
  1

  3

  2
SEMESTER
 70
     0
  7
ROMANS
 72
     2
 11
-56.25
 21
46.25
 31
0.0
  0
ATTDEF
  8
DIK
 10
-48.690476190476
 20
27.5
 30
0.0
 40
5.0
  1

  3

  2
BENAMING
 70
     0
  7
ROMANS
 72
     2
 11
-12.5
 21
27.5
 31
0.0
  0
TEXT
  8
DUN
 10
-20.0
 20
18.5
 30
0.0
 40
3.0
  1
A3
 72
     2
 11
-15.0
 21
18.5
 31
0.0
  0
LINE
  8
DUN
 10
-10.0
 20
297.0
 30
0.0
 11
0.0
 21
297.0
 31
0.0
  0
LINE
  8
DIK
 10
-10.0
 20
410.0
 30
0.0
 11
-277.0
 21
410.0
 31
0.0
  0
LINE
  8
DUN
 10
0.0
 20
420.0
 30
0.0
 11
-297.0
 21
420.0
 31
0.0
  0
LINE
  8
DUN
 10
-233.5
 20
410.0
 30
0.0
 11
-233.5
 21
420.0
 31
0.0
  0
LINE
  8
DUN
 10
-190.0
 20
410.0
 30
0.0
 11
-190.0
 21
420.0
 31
0.0
  0
ENDBLK
  8
0
  0
BLOCK
  8
0
  2
A3L
 70
     2
 10
0.0
 20
0.0
 30
0.0
  3
A3L
  0
LINE
  8
DUN
 10
-420.0
 20
297.0
 30
0.0
 11
0.0
 21
297.0
 31
0.0
  0
LINE
  8
DUN
 10
0.0
 20
0.0
 30
0.0
 11
-420.0
 21
0.0
 31
0.0
  0
LINE
  8
DIK
 10
-400.0
 20
287.0
 30
0.0
 11
-10.0
 21
287.0
 31
0.0
  0
LINE
  8
DIK
 10
-10.0
 20
10.0
 30
0.0
 11
-400.0
 21
10.0
 31
0.0
  0
LINE
  8
DUN
 10
-420.0
 20
0.0
 30
0.0
 11
-420.0
 21
297.0
 31
0.0
  0
LINE
  8
DIK
 10
-400.0
 20
10.0
 30
0.0
 11
-400.0
 21
287.0
 31
0.0
  0
INSERT
  8
0
  2
TEKENH
 10
-10.0
 20
10.0
 30
0.0
  0
LINE
  8
DUN
 10
-295.0
 20
10.0
 30
0.0
 11
-295.0
 21
0.0
 31
0.0
  0
LINE
  8
DUN
 10
-190.0
 20
10.0
 30
0.0
 11
-190.0
 21
0.0
 31
0.0
  0
ATTDEF
  8
DUN
 10
-127.797619047619
 20
40.25
 30
0.0
 40
2.5
  1

  3

  2
DATUM
 70
     0
  7
ROMANS
 72
     2
 11
-116.25
 21
40.25
 31
0.0
  0
ATTDEF
  8
DUN
 10
-129.940476190476
 20
52.25
 30
0.0
 40
2.5
  1

  3

  2
SCHAAL
 70
     0
  7
ROMANS
 72
     2
 11
-116.25
 21
52.25
 31
0.0
  0
ATTDEF
  8
DUN
 10
-140.416666666667
 20
46.25
 30
0.0
 40
2.5
  1
mm
  3

  2
MAATEENHEID
 70
     8
  7
ROMANS
 72
     2
 11
-116.25
 21
46.25
 31
0.0
  0
LINE
  8
DUN
 10
-295.0
 20
297.0
 30
0.0
 11
-295.0
 21
287.0
 31
0.0
  0
LINE
  8
DUN
 10
-190.0
 20
297.0
 30
0.0
 11
-190.0
 21
287.0
 31
0.0
  0
LINE
  8
DUN
 10
0.0
 20
297.0
 30
0.0
 11
0.0
 21
0.0
 31
0.0
  0
LINE
  8
DIK
 10
-10.0
 20
287.0
 30
0.0
 11
-10.0
 21
10.0
 31
0.0
  0
ATTDEF
  8
DUN
 10
-69.916666666667
 20
16.25
 30
0.0
 40
3.5
  1

  3

  2
TEKENINGNUMMER
 70
     0
  7
ROMANS
 72
     2
 11
-23.75
 21
16.25
 31
0.0
  0
ATTDEF
  8
DUN
 10
-93.083333333333
 20
16.25
 30
0.0
 40
3.5
  1

  3

  2
OPDRACHT
 70
     0
  7
ROMANS
 72
     2
 11
-66.25
 21
16.25
 31
0.0
  0
ATTDEF
  8
DIK
 10
-48.690476190476
 20
27.5
 30
0.0
 40
5.0
  1

  3

  2
BENAMING
 70
     0
  7
ROMANS
 72
     2
 11
-12.5
 21
27.5
 31
0.0
  0
TEXT
  8
DUN
 10
-20.0
 20
18.5
 30
0.0
 40
3.0
  1
A3
 72
     2
 11
-15.0
 21
18.5
 31
0.0
  0
ATTDEF
  8
DUN
 10
-74.702380952381
 20
52.25
 30
0.0
 40
2.5
  1

  3

  2
GETEKEND
 70
     0
  7
ROMANS
 72
     2
 11
-56.25
 21
52.25
 31
0.0
  0
ATTDEF
  8
DUN
 10
-74.702380952381
 20
46.25
 30
0.0
 40
2.5
  1

  3

  2
SEMESTER
 70
     0
  7
ROMANS
 72
     2
 11
-56.25
 21
46.25
 31
0.0
  0
ENDBLK
  8
0
  0
BLOCK
  8
0
  2
PIJLP
 70
     0
 10
0.0
 20
0.0
 30
0.0
  3
PIJLP
  0
LINE
  8
0
  6
BYBLOCK
 62
     0
 10
0.0
 20
0.0
 30
0.0
 11
-1.0
 21
0.1666665
 31
0.0
  0
LINE
  8
0
  6
BYBLOCK
 62
     0
 10
0.0
 20
0.0
 30
0.0
 11
-1.0
 21
-0.1666665
 31
0.0
  0
LINE
  8
0
  6
BYBLOCK
 62
     0
 10
-1.0
 20
0.1666665
 30
0.0
 11
-1.0
 21
-0.1666665
 31
0.0
  0
ENDBLK
  8
0
  0
BLOCK
  8
0
  2
ACAD1306
 70
     0
 10
0.0
 20
0.0
 30
0.0
  3
ACAD1306
  0
INSERT
  8
DUN
 66
     1
  2
A4S
 10
7457.848178303282
 20
6816.897785734175
 30
0.0
 41
25.0
 42
25.0
 43
25.0
  0
ATTRIB
  8
DUN
 10
11154.48996100214
 20
7377.74799558328
 30
0.0
 40
62.5
  1
1:25
  2
SCHAAL
 70
     0
  7
ROMANS
  0
ATTRIB
  8
DUN
 10
11098.75761846189
 20
7034.400627185726
 30
0.0
 40
62.5
  1
april 1997
  2
DATUM
 70
     0
  7
ROMANS
  0
ATTRIB
  8
DUN
 10
11368.98417968597
 20
6861.507596353924
 30
0.0
 40
62.5
  1
S. van Leeuwen
  2
GETEKEND
 70
     0
  7
ROMANS
  0
ATTRIB
  8
DUN
 10
11411.51068645641
 20
7209.321572272068
 30
0.0
 40
62.5
  1
mm
  2
MAATEENHEID
 70
     0
  7
ROMANS
  0
ATTRIB
  8
DUN
 10
8032.598600701128
 20
7390.299809756555
 30
0.0
 40
62.5
  1
Plaatsing ROOS 
  2
BENAMING
 70
     0
  7
ROMANS
  0
ATTRIB
  8
DUN
 10
9400.140563283381
 20
6910.344474767492
 30
0.0
 40
62.5
  1
AK 714
  2
TEK.NR.
 70
     0
  7
ROMANS
  0
SEQEND
  8
DUN
  0
TEXT
  8
DIK
 10
8195.958343086131
 20
7890.141580783528
 30
0.0
 40
50.0
  1
Dubbele BETONFUNDERING
  7
ROMANS
  0
TEXT
  8
DIK
 10
8188.538938690973
 20
7813.77459110361
 30
0.0
 40
50.0
  1
Kuil: 300x600 mm
  7
ROMANS
  0
TEXT
  8
DIK
 10
8188.538938690973
 20
7732.822210151229
 30
0.0
 40
50.0
  1
Diepte: 500 mm
  7
ROMANS
  0
LINE
  8
DIK
 10
9178.384225652456
 20
9815.159022176267
 30
0.0
 11
7997.594811847393
 21
9815.159022176267
 31
0.0
  0
TEXT
  8
DIK
 10
8027.115647627375
 20
9846.294230061396
 30
0.0
 40
60.0
  1
Kijkrichting
  7
ROMANS
 11
8027.115647627375
 21
9876.294230061397
 31
0.0
 73
     2
  0
TEXT
  8
DIK
 10
7930.73692130013
 20
9293.788181623819
 30
0.0
 40
50.0
  1
BETONFUNDERING
  7
ROMANS
  0
TEXT
  8
DIK
 10
7923.317516904972
 20
9136.468810991519
 30
0.0
 40
50.0
  1
Diepte: 500 mm
  7
ROMANS
  0
TEXT
  8
DIK
 10
7923.317516904972
 20
9217.4211919439
 30
0.0
 40
50.0
  1
Kuil: 300x600 mm
  7
ROMANS
  0
SOLID
  8
DIK
 10
9130.770616435905
 20
9820.086749340978
 30
0.0
 11
9130.770616435905
 21
9796.753416007646
 31
0.0
 12
9200.770616435905
 22
9808.420082674313
 32
0.0
 13
9200.770616435905
 23
9808.420082674313
 33
0.0
  0
INSERT
  8
DIK
  2
ACAD162F
 10
-526335.8633804267
 20
-349753.4138942679
 30
0.0
 41
15.0
 42
15.0
 43
15.0
  0
INSERT
  8
DUN
 66
     1
  2
A4S
 10
14423.61064056095
 20
5065.407958029315
 30
0.0
 41
50.0
 42
50.0
 43
50.0
  0
ATTRIB
  8
DUN
 10
21816.89420595867
 20
6187.108377727525
 30
0.0
 40
125.0
  1
1:50
  2
SCHAAL
 70
     0
  7
ROMANS
  0
ATTRIB
  8
DUN
 10
21705.42952087817
 20
5500.413640932418
 30
0.0
 40
125.0
  1
april 1997
  2
DATUM
 70
     0
  7
ROMANS
  0
ATTRIB
  8
DUN
 10
22245.88264332633
 20
5154.627579268815
 30
0.0
 40
125.0
  1
S. van Leeuwen
  2
GETEKEND
 70
     0
  7
ROMANS
  0
ATTRIB
  8
DUN
 10
22330.93565686722
 20
5850.255531105101
 30
0.0
 40
125.0
  1
mm
  2
MAATEENHEID
 70
     0
  7
ROMANS
  0
ATTRIB
  8
DUN
 10
15573.11148535664
 20
6212.212006074076
 30
0.0
 40
125.0
  1
Obstakelvrije-ruimte ROOS 
  2
BENAMING
 70
     0
  7
ROMANS
  0
ATTRIB
  8
DUN
 10
18308.19541052115
 20
5252.30133609595
 30
0.0
 40
125.0
  1
AK 714a
  2
TEK.NR.
 70
     0
  7
ROMANS
  0
SEQEND
  8
DUN
  0
TEXT
  8
DIK
 10
14593.98285948564
 20
18100.34735629979
 30
0.0
 40
100.0
  1
Veilige ondergrond in de gehele obstakelvrije-ruimte.
  7
ROMANS
  0
ENDBLK
  8
0
  0
BLOCK
  8
0
  2
ACAD162F
 70
    64
 10
0.0
 20
0.0
 30
0.0
  3
ACAD162F
  0
TEXT
  8
DUN
 62
     2
 10
35594.66690434648
 20
24198.56074463023
 30
0.0
 40
3.2
  1
Bij plaatsing, nummers op staanders naar kijkrichting toe houden.
  7
ROMANS
  0
TEXT
  8
DIK
 10
35594.59745236317
 20
24204.76535227344
 30
0.0
 40
3.2
  1
Maten hart op hart kuilen.
  7
ROMANS
  0
ENDBLK
  8
0
  0
BLOCK
  8
0
  2
ACAD287A
 70
     0
 10
0.0
 20
0.0
 30
0.0
  3
ACAD287A
  0
INSERT
  8
DUN
 66
     1
  2
A4S
 10
7457.848178303282
 20
6816.897785734175
 30
0.0
 41
25.0
 42
25.0
 43
25.0
  0
ATTRIB
  8
DUN
 10
11154.48996100214
 20
7377.74799558328
 30
0.0
 40
62.5
  1
1:25
  2
SCHAAL
 70
     0
  7
ROMANS
  0
ATTRIB
  8
DUN
 10
11098.75761846189
 20
7034.400627185726
 30
0.0
 40
62.5
  1
april 1997
  2
DATUM
 70
     0
  7
ROMANS
  0
ATTRIB
  8
DUN
 10
11368.98417968597
 20
6861.507596353924
 30
0.0
 40
62.5
  1
S. van Leeuwen
  2
GETEKEND
 70
     0
  7
ROMANS
  0
ATTRIB
  8
DUN
 10
11411.51068645641
 20
7209.321572272068
 30
0.0
 40
62.5
  1
mm
  2
MAATEENHEID
 70
     0
  7
ROMANS
  0
ATTRIB
  8
DUN
 10
8032.598600701128
 20
7390.299809756555
 30
0.0
 40
62.5
  1
Plaatsing ROOS 
  2
BENAMING
 70
     0
  7
ROMANS
  0
ATTRIB
  8
DUN
 10
9400.140563283381
 20
6910.344474767492
 30
0.0
 40
62.5
  1
AK 714
  2
TEK.NR.
 70
     0
  7
ROMANS
  0
SEQEND
  8
DUN
  0
TEXT
  8
DIK
 10
8195.958343086131
 20
7890.141580783528
 30
0.0
 40
50.0
  1
Dubbele BETONFUNDERING
  7
ROMANS
  0
TEXT
  8
DIK
 10
8188.538938690973
 20
7813.77459110361
 30
0.0
 40
50.0
  1
Kuil: 300x600 mm
  7
ROMANS
  0
TEXT
  8
DIK
 10
8188.538938690973
 20
7732.822210151229
 30
0.0
 40
50.0
  1
Diepte: 500 mm
  7
ROMANS
  0
LINE
  8
DIK
 10
9178.384225652456
 20
9815.159022176267
 30
0.0
 11
7997.594811847393
 21
9815.159022176267
 31
0.0
  0
TEXT
  8
DIK
 10
8027.115647627375
 20
9846.294230061396
 30
0.0
 40
60.0
  1
Kijkrichting
  7
ROMANS
 11
8027.115647627375
 21
9876.294230061397
 31
0.0
 73
     2
  0
TEXT
  8
DIK
 10
7930.73692130013
 20
9293.788181623819
 30
0.0
 40
50.0
  1
BETONFUNDERING
  7
ROMANS
  0
TEXT
  8
DIK
 10
7923.317516904972
 20
9136.468810991519
 30
0.0
 40
50.0
  1
Diepte: 500 mm
  7
ROMANS
  0
TEXT
  8
DIK
 10
7923.317516904972
 20
9217.4211919439
 30
0.0
 40
50.0
  1
Kuil: 300x600 mm
  7
ROMANS
  0
SOLID
  8
DIK
 10
9130.770616435905
 20
9820.086749340978
 30
0.0
 11
9130.770616435905
 21
9796.753416007646
 31
0.0
 12
9200.770616435905
 22
9808.420082674313
 32
0.0
 13
9200.770616435905
 23
9808.420082674313
 33
0.0
  0
INSERT
  8
DIK
  2
ACAD162F
 10
-526335.8633804267
 20
-349753.4138942679
 30
0.0
 41
15.0
 42
15.0
 43
15.0
  0
INSERT
  8
DUN
 66
     1
  2
A4S
 10
14423.61064056095
 20
5065.407958029315
 30
0.0
 41
50.0
 42
50.0
 43
50.0
  0
ATTRIB
  8
DUN
 10
21816.89420595867
 20
6187.108377727525
 30
0.0
 40
125.0
  1
1:50
  2
SCHAAL
 70
     0
  7
ROMANS
  0
ATTRIB
  8
DUN
 10
21705.42952087817
 20
5500.413640932418
 30
0.0
 40
125.0
  1
april 1997
  2
DATUM
 70
     0
  7
ROMANS
  0
ATTRIB
  8
DUN
 10
22245.88264332633
 20
5154.627579268815
 30
0.0
 40
125.0
  1
S. van Leeuwen
  2
GETEKEND
 70
     0
  7
ROMANS
  0
ATTRIB
  8
DUN
 10
22330.93565686722
 20
5850.255531105101
 30
0.0
 40
125.0
  1
mm
  2
MAATEENHEID
 70
     0
  7
ROMANS
  0
ATTRIB
  8
DUN
 10
15573.11148535664
 20
6212.212006074076
 30
0.0
 40
125.0
  1
Obstakelvrije-ruimte ROOS 
  2
BENAMING
 70
     0
  7
ROMANS
  0
ATTRIB
  8
DUN
 10
18308.19541052115
 20
5252.30133609595
 30
0.0
 40
125.0
  1
AK 714a
  2
TEK.NR.
 70
     0
  7
ROMANS
  0
SEQEND
  8
DUN
  0
TEXT
  8
DIK
 10
14593.98285948564
 20
18100.34735629979
 30
0.0
 40
100.0
  1
Veilige ondergrond in de gehele obstakelvrije-ruimte.
  7
ROMANS
  0
ENDBLK
  8
0
  0
BLOCK
  8
0
  2
ACAD1B78
 70
     0
 10
0.0
 20
0.0
 30
0.0
  3
ACAD1B78
  0
INSERT
  8
DUN
 66
     1
  2
A4S
 10
17969.1431073978
 20
2957.184935128287
 30
0.0
 41
40.0
 42
40.0
 43
40.0
  0
ATTRIB
  8
DUN
 10
23883.76995971598
 20
3854.545270886855
 30
0.0
 40
100.0
  1
1:40
  2
SCHAAL
 70
     0
  7
ROMANS
  0
ATTRIB
  8
DUN
 10
23794.59821165158
 20
3305.189481450769
 30
0.0
 40
100.0
  1
april 1997
  2
DATUM
 70
     0
  7
ROMANS
  0
ATTRIB
  8
DUN
 10
24226.96070961011
 20
3028.560632119887
 30
0.0
 40
100.0
  1
S. van Leeuwen
  2
GETEKEND
 70
     0
  7
ROMANS
  0
ATTRIB
  8
DUN
 10
24295.00312044282
 20
3585.062993588916
 30
0.0
 40
100.0
  1
mm
  2
MAATEENHEID
 70
     0
  7
ROMANS
  0
ATTRIB
  8
DUN
 10
18888.74378323435
 20
3874.628173564095
 30
0.0
 40
100.0
  1
Obstakelvrije-ruimte ANEMONE
  2
BENAMING
 70
     0
  7
ROMANS
  0
ATTRIB
  8
DUN
 10
21076.81092336596
 20
3106.699637581594
 30
0.0
 40
100.0
  1
AK 731
  2
TEK.NR.
 70
     0
  7
ROMANS
  0
SEQEND
  8
DUN
  0
DIMENSION
  8
DUN
  2
*D28
 10
21920.39984446363
 20
4818.918734503893
 30
0.0
 11
21840.39984446363
 21
5818.918734503893
 31
0.0
 12
21118.93523406079
 22
9300.663864716559
 32
0.0
 13
21914.6995055326
 23
6818.918734503893
 33
0.0
 14
21940.35112588606
 24
4818.918734503893
 34
0.0
 50
90.0
  3
STANDAARD
  0
DIMENSION
  8
DUN
  2
*D30
 10
24669.23678582999
 20
4818.918734503893
 30
0.0
 11
24589.23678582999
 21
8544.168734503891
 31
0.0
 13
23947.35248426107
 23
12269.41873450388
 33
0.0
 14
23104.78348420327
 24
4818.918734503893
 34
0.0
 50
90.0
  3
STANDAARD
  0
LINE
  8
DIK
 10
20651.57813251509
 20
8252.994512118004
 30
0.0
 11
20651.57813251509
 21
5619.418734503892
 31
0.0
  0
LINE
  8
DIK
 10
23171.57813251509
 20
8252.994512118039
 30
0.0
 11
23171.57813251509
 21
5619.418734503891
 31
0.0
  0
LINE
  8
DIK
 10
21651.57813251509
 20
9549.418734503889
 30
0.0
 11
21651.57813251509
 21
6768.918734503892
 31
0.0
  0
LINE
  8
DIK
 10
22171.57813251509
 20
9549.418734503889
 30
0.0
 11
22171.57813251509
 21
6768.918734503892
 31
0.0
  0
LINE
  8
DIK
 10
21701.57813251509
 20
9549.418734503889
 30
0.0
 11
21701.57813251509
 21
6768.918734503892
 31
0.0
  0
LINE
  8
DIK
 10
22121.57813251509
 20
9549.418734503889
 30
0.0
 11
22121.57813251509
 21
6768.918734503892
 31
0.0
  0
DIMENSION
  8
DUN
  2
*D27
 10
20651.57813251509
 20
4524.343558120358
 30
0.0
 11
21911.57813251509
 21
4604.343558120358
 31
0.0
 12
21118.93523406079
 22
9475.057133380067
 32
0.0
 13
23171.57813251509
 23
6110.541139725922
 33
0.0
 14
20651.57813251509
 24
6209.67846620544
 34
0.0
  3
STANDAARD
  0
LINE
  8
STREEPLIJN
 10
21654.50662297535
 20
4818.113540323165
 30
0.0
 11
20654.50662297535
 21
4818.113540323165
 31
0.0
  0
ARC
  8
DIK
 10
21654.50662297535
 20
5818.113540323166
 30
0.0
 40
1000.0
 50
180.0
 51
270.0
  0
LINE
  8
STREEPLIJN
 10
20651.57813251508
 20
5953.189197915397
 30
0.0
 11
20651.57813251508
 21
4893.812003167398
 31
0.0
  0
ARC
  8
DIK
 10
22174.50662297535
 20
5818.113540323165
 30
0.0
 40
1000.0
 50
270.0
 51
0.0
  0
LINE
  8
STREEPLIJN
 10
22174.50662297534
 20
4818.113540323165
 30
0.0
 11
23174.50662297535
 21
4818.113540323165
 31
0.0
  0
LINE
  8
DIK
 10
22121.57813251509
 20
4818.918734503893
 30
0.0
 11
21701.57813251508
 21
4818.918734503893
 31
0.0
  0
LINE
  8
DIK
 10
22118.80625685465
 20
4818.918734503893
 30
0.0
 11
21698.80625685465
 21
4818.918734503893
 31
0.0
  0
LINE
  8
DIK
 10
22118.80625685465
 20
4818.918734503893
 30
0.0
 11
21698.80625685465
 21
4818.918734503893
 31
0.0
  0
LINE
  8
DIK
 10
22174.50662297534
 20
4818.113540323165
 30
0.0
 11
21654.50662297534
 21
4818.113540323168
 31
0.0
  0
LINE
  8
DIK
 10
21701.57813251509
 20
6768.918734503892
 30
0.0
 11
21651.57813251509
 21
6768.918734503892
 31
0.0
  0
LINE
  8
DIK
 10
22171.57813251509
 20
6768.918734503892
 30
0.0
 11
22121.57813251509
 21
6768.918734503892
 31
0.0
  0
LINE
  8
STREEPLIJN
 10
23171.57813251509
 20
5953.189197915397
 30
0.0
 11
23171.57813251509
 21
4893.812003167398
 31
0.0
  0
TEXT
  8
DIK
 10
18277.13352821414
 20
13183.00695056774
 30
0.0
 40
100.0
  1
Veilige ondergrond in het gearceerde gedeelte.
  7
ROMANS
  0
LINE
  8
DIK
 10
20651.57813251509
 20
8252.994512118023
 30
0.0
 11
21651.57813251509
 21
8252.994512118023
 31
0.0
  0
DIMENSION
  8
DUN
  2
*D26
 10
20651.57813251509
 20
7070.719744127971
 30
0.0
 11
21151.57813251509
 21
7150.719744127971
 31
0.0
 12
21118.93523406079
 22
9300.663864716559
 32
0.0
 13
21651.57813251509
 23
7280.00968311806
 33
0.0
 14
20651.57813251509
 24
7268.994424620336
 34
0.0
  3
STANDAARD
  0
DIMENSION
  8
DUN
  2
*D32
 10
24011.57813251509
 20
12569.7680862713
 30
0.0
 11
21911.57813251508
 21
12649.7680862713
 31
0.0
 13
19811.57813251509
 23
10421.24626046339
 33
0.0
 14
24011.57813251509
 24
10387.80932693116
 34
0.0
  3
STANDAARD
  0
LINE
  8
STREEPLIJN
 10
21546.95216642195
 20
12269.41873450389
 30
0.0
 11
19811.57813251509
 21
12269.41873450389
 31
0.0
  0
ARC
  8
DIK
 10
21511.57813251509
 20
10569.41873450389
 30
0.0
 40
1700.0
 50
90.0
 51
180.0
  0
DIMENSION
  8
DUN
  2
*D24
 10
19811.57813251509
 20
10164.89645597989
 30
0.0
 11
20561.57813251509
 21
10244.89645597989
 31
0.0
 12
21168.93523406079
 22
9300.663864716559
 32
0.0
 13
21311.57813251509
 23
10122.10515186509
 33
0.0
 14
19811.57813251509
 24
10201.10448550219
 34
0.0
  3
STANDAARD
  0
LINE
  8
STREEPLIJN
 10
19811.57813251509
 20
10490.59669943615
 30
0.0
 11
19811.57813251509
 21
12269.41873450389
 31
0.0
  0
ARC
  8
DIK
 10
21511.57813251509
 20
9719.418734503889
 30
0.0
 40
1700.0
 50
180.0
 51
239.610057550673
  0
LINE
  8
STREEPLIJN
 10
19811.57813251509
 20
9848.240769571624
 30
0.0
 11
19811.57813251509
 21
8252.994512118023
 31
0.0
  0
LINE
  8
STREEPLIJN
 10
20701.57813251509
 20
8252.994512118025
 30
0.0
 11
19811.57813251509
 21
8252.994512118023
 31
0.0
  0
LINE
  8
DIK
 10
19811.57813251509
 20
10619.41873450389
 30
0.0
 11
19811.57813251509
 21
9719.418734503889
 31
0.0
  0
DIMENSION
  8
DUN
  2
*D31
 10
24363.5558379434
 20
8252.994512118023
 30
0.0
 11
24283.5558379434
 21
10261.20662331095
 31
0.0
 13
23892.99368944891
 23
12269.41873450388
 33
0.0
 14
23916.98324248612
 24
8252.994512118023
 34
0.0
 50
90.0
  3
STANDAARD
  0
ARC
  8
DIK
 10
22311.57813251509
 20
10569.41873450389
 30
0.0
 40
1700.0
 50
0.0
 51
90.0
  0
LINE
  8
STREEPLIJN
 10
24011.57813251509
 20
10490.59669943615
 30
0.0
 11
24011.57813251509
 21
12269.41873450388
 31
0.0
  0
DIMENSION
  8
DUN
  2
*D25
 10
21805.04240931767
 20
12269.41873450388
 30
0.0
 11
21725.04240931767
 21
11519.41873450389
 31
0.0
 12
21162.99784788534
 22
9250.66386471656
 32
0.0
 13
21325.62050067778
 23
10769.41873450389
 33
0.0
 14
21859.04323187276
 24
12269.41873450388
 34
0.0
 50
90.0
  3
STANDAARD
  0
LINE
  8
STREEPLIJN
 10
24011.57813251509
 20
9848.240769571624
 30
0.0
 11
24011.57813251509
 21
8224.795036043303
 31
0.0
  0
ARC
  8
DIK
 10
22311.57813251509
 20
9719.418734503893
 30
0.0
 40
1700.0
 50
300.389942449328
 51
0.0
  0
LINE
  8
DIK
 10
22171.57813251509
 20
8252.994512118023
 30
0.0
 11
23171.57813251509
 21
8252.994512118025
 31
0.0
  0
LINE
  8
DIK
 10
22121.57813251509
 20
6818.918734503893
 30
0.0
 11
21701.57813251509
 21
6818.918734503893
 31
0.0
  0
DIMENSION
  8
DUN
  2
*D29
 10
24011.57813251509
 20
7819.757459639864
 30
0.0
 11
23591.57813251509
 21
7899.757459639863
 31
0.0
 13
23171.57813251509
 23
7819.757459639864
 33
0.0
 14
24011.57813251509
 24
8381.164472108125
 34
0.0
  3
STANDAARD
  0
LINE
  8
STREEPLIJN
 10
23171.57813251509
 20
8252.994512118023
 30
0.0
 11
24061.57813251509
 21
8252.994512118023
 31
0.0
  0
POLYLINE
  8
DIK
 66
     1
 10
0.0
 20
0.0
 30
0.0
  0
VERTEX
  8
DIK
 10
22511.57813251509
 20
10819.41873450389
 30
0.0
  0
VERTEX
  8
DIK
 10
22561.57813251509
 20
10819.41873450389
 30
0.0
  0
VERTEX
  8
DIK
 10
22561.57813251509
 20
9519.41873450389
 30
0.0
  0
VERTEX
  8
DIK
 10
22511.57813251509
 20
9519.418734503892
 30
0.0
  0
SEQEND
  8
DIK
  0
POLYLINE
  8
DIK
 66
     1
 10
0.0
 20
0.0
 30
0.0
  0
VERTEX
  8
DIK
 10
21261.57813251509
 20
9519.41873450389
 30
0.0
  0
VERTEX
  8
DIK
 10
21261.57813251509
 20
10819.41873450389
 30
0.0
  0
VERTEX
  8
DIK
 10
21296.57813251509
 20
10819.41873450389
 30
0.0
  0
SEQEND
  8
DIK
  0
LINE
  8
DIK
 10
22511.57813251509
 20
10819.41873450389
 30
0.0
 11
22511.57813251509
 21
9519.41873450389
 31
0.0
  0
LINE
  8
DIK
 10
21311.57813251509
 20
9519.41873450389
 30
0.0
 11
21311.57813251509
 21
10819.41873450389
 31
0.0
  0
LINE
  8
DIK
 10
22511.57813251509
 20
9549.418734503889
 30
0.0
 11
21311.57813251509
 21
9549.418734503889
 31
0.0
  0
POLYLINE
  8
STREEPLIJN
 66
     1
 10
0.0
 20
0.0
 30
0.0
 70
     1
  0
VERTEX
  8
STREEPLIJN
 10
21311.57813251509
 20
9569.418734503893
 30
0.0
  0
VERTEX
  8
STREEPLIJN
 10
21311.57813251509
 20
9669.418734503892
 30
0.0
  0
VERTEX
  8
STREEPLIJN
 10
21411.57813251509
 20
9669.418734503892
 30
0.0
  0
VERTEX
  8
STREEPLIJN
 10
21411.57813251509
 20
9569.418734503893
 30
0.0
  0
SEQEND
  8
STREEPLIJN
  0
TEXT
  8
DIK
 10
21114.10699222011
 20
9429.109193188864
 30
0.0
 40
100.0
  1
2
  7
ROMANS
  0
POLYLINE
  8
DIK
 66
     1
 10
0.0
 20
0.0
 30
0.0
  0
VERTEX
  8
DIK
 10
21311.57813251509
 20
9519.41873450389
 30
0.0
  0
VERTEX
  8
DIK
 10
21261.57813251509
 20
9519.41873450389
 30
0.0
  0
SEQEND
  8
DIK
  0
TEXT
  8
DIK
 10
22553.3160494282
 20
9407.964231532139
 30
0.0
 40
100.0
  1
1
  7
ROMANS
  0
POLYLINE
  8
STREEPLIJN
 66
     1
 10
0.0
 20
0.0
 30
0.0
 70
     1
  0
VERTEX
  8
STREEPLIJN
 10
22411.57813251509
 20
9569.418734503893
 30
0.0
  0
VERTEX
  8
STREEPLIJN
 10
22411.57813251509
 20
9669.418734503892
 30
0.0
  0
VERTEX
  8
STREEPLIJN
 10
22511.57813251509
 20
9669.418734503892
 30
0.0
  0
VERTEX
  8
STREEPLIJN
 10
22511.57813251509
 20
9569.418734503893
 30
0.0
  0
SEQEND
  8
STREEPLIJN
  0
POLYLINE
  8
DIK
 66
     1
 10
0.0
 20
0.0
 30
0.0
 70
     1
  0
VERTEX
  8
DIK
 10
22091.09680028939
 20
10142.52800376497
 30
0.0
 42
-0.168849830484
  0
VERTEX
  8
DIK
 10
22093.13956848871
 20
10148.40461119305
 30
0.0
 42
-0.105184028713
  0
VERTEX
  8
DIK
 10
22098.31114254314
 20
10152.69128072635
 30
0.0
 42
-0.067315372571
 70
     2
 50
27.645975363739
  0
VERTEX
  8
DIK
 10
22104.27022668681
 20
10154.85359543492
 30
0.0
 42
-0.053465209097
  0
VERTEX
  8
DIK
 10
22111.57813251509
 20
10155.63727302605
 30
0.0
 42
-0.053465209097
  0
VERTEX
  8
DIK
 10
22118.88603834336
 20
10154.85359543492
 30
0.0
 42
-0.067315372571
  0
VERTEX
  8
DIK
 10
22124.84512248704
 20
10152.69128072635
 30
0.0
 42
-0.105184028713
 70
     2
 50
332.354024636262
  0
VERTEX
  8
DIK
 10
22130.01669654147
 20
10148.40461119305
 30
0.0
 42
-0.168849830484
  0
VERTEX
  8
DIK
 10
22132.05946474079
 20
10142.52800376497
 30
0.0
 42
-0.168849830484
  0
VERTEX
  8
DIK
 10
22130.01669654147
 20
10136.65139633688
 30
0.0
 42
-0.105184028713
  0
VERTEX
  8
DIK
 10
22124.84512248704
 20
10132.36472680359
 30
0.0
 42
-0.067315372571
 70
     2
 50
207.645975363739
  0
VERTEX
  8
DIK
 10
22118.88603834335
 20
10130.20241209502
 30
0.0
 42
-0.053465209097
  0
VERTEX
  8
DIK
 10
22111.57813251509
 20
10129.41873450389
 30
0.0
 42
-0.053465209097
  0
VERTEX
  8
DIK
 10
22104.27022668682
 20
10130.20241209502
 30
0.0
 42
-0.067315372571
  0
VERTEX
  8
DIK
 10
22098.31114254314
 20
10132.36472680359
 30
0.0
 42
-0.105184028713
 70
     2
 50
152.354024636262
  0
VERTEX
  8
DIK
 10
22093.13956848871
 20
10136.65139633688
 30
0.0
 42
-0.168849830484
  0
SEQEND
  8
DIK
  0
POLYLINE
  8
DIK
 66
     1
 10
0.0
 20
0.0
 30
0.0
 70
     1
  0
VERTEX
  8
DIK
 10
22096.09680028938
 20
10138.10623858405
 30
0.0
 42
-0.168849830484
  0
VERTEX
  8
DIK
 10
22097.06150586834
 20
10140.88149031016
 30
0.0
 42
-0.105184028713
  0
VERTEX
  8
DIK
 10
22100.6311775165
 20
10143.84035786903
 30
0.0
 42
-0.067315372571
 70
     2
 50
27.645975363739
  0
VERTEX
  8
DIK
 10
22105.33040447227
 20
10145.54552049476
 30
0.0
 42
-0.053465209097
  0
VERTEX
  8
DIK
 10
22111.57813251509
 20
10146.21550784513
 30
0.0
 42
-0.053465209097
  0
VERTEX
  8
DIK
 10
22117.8258605579
 20
10145.54552049476
 30
0.0
 42
-0.067315372571
  0
VERTEX
  8
DIK
 10
22122.52508751368
 20
10143.84035786903
 30
0.0
 42
-0.105184028713
 70
     2
 50
332.354024636262
  0
VERTEX
  8
DIK
 10
22126.09475916184
 20
10140.88149031016
 30
0.0
 42
-0.168849830484
  0
VERTEX
  8
DIK
 10
22127.05946474079
 20
10138.10623858405
 30
0.0
 42
-0.168849830484
  0
VERTEX
  8
DIK
 10
22126.09475916184
 20
10135.33098685795
 30
0.0
 42
-0.105184028713
  0
VERTEX
  8
DIK
 10
22122.52508751368
 20
10132.37211929908
 30
0.0
 42
-0.067315372571
 70
     2
 50
207.645975363739
  0
VERTEX
  8
DIK
 10
22117.8258605579
 20
10130.66695667335
 30
0.0
 42
-0.053465209097
  0
VERTEX
  8
DIK
 10
22111.57813251509
 20
10129.99696932297
 30
0.0
 42
-0.053465209097
  0
VERTEX
  8
DIK
 10
22105.33040447227
 20
10130.66695667335
 30
0.0
 42
-0.067315372571
  0
VERTEX
  8
DIK
 10
22100.6311775165
 20
10132.37211929908
 30
0.0
 42
-0.105184028713
 70
     2
 50
152.354024636262
  0
VERTEX
  8
DIK
 10
22097.06150586834
 20
10135.33098685795
 30
0.0
 42
-0.168849830484
  0
SEQEND
  8
DIK
  0
POLYLINE
  8
DIK
 66
     1
 10
0.0
 20
0.0
 30
0.0
 70
     1
  0
VERTEX
  8
DIK
 10
22096.09680028938
 20
10200.73123042372
 30
0.0
 42
0.168849830484
  0
VERTEX
  8
DIK
 10
22097.06150586834
 20
10197.95597869762
 30
0.0
 42
0.105184028713
  0
VERTEX
  8
DIK
 10
22100.6311775165
 20
10194.99711113874
 30
0.0
 42
0.067315372571
 70
     2
 50
332.354024636261
  0
VERTEX
  8
DIK
 10
22105.33040447227
 20
10193.29194851301
 30
0.0
 42
0.053465209097
 50
332.354024636261
  0
VERTEX
  8
DIK
 10
22111.57813251509
 20
10192.62196116264
 30
0.0
 42
0.053465209097
  0
VERTEX
  8
DIK
 10
22117.8258605579
 20
10193.29194851301
 30
0.0
 42
0.067315372571
  0
VERTEX
  8
DIK
 10
22122.52508751368
 20
10194.99711113874
 30
0.0
 42
0.105184028713
 70
     2
 50
27.645975363739
  0
VERTEX
  8
DIK
 10
22126.09475916184
 20
10197.95597869762
 30
0.0
 42
0.168849830484
 50
27.645975363739
  0
VERTEX
  8
DIK
 10
22127.05946474079
 20
10200.73123042372
 30
0.0
 42
0.168849830484
  0
VERTEX
  8
DIK
 10
22126.09475916184
 20
10203.50648214982
 30
0.0
 42
0.105184028713
  0
VERTEX
  8
DIK
 10
22122.52508751368
 20
10206.4653497087
 30
0.0
 42
0.067315372571
 70
     2
 50
152.354024636261
  0
VERTEX
  8
DIK
 10
22117.8258605579
 20
10208.17051233443
 30
0.0
 42
0.053465209097
 50
152.354024636261
  0
VERTEX
  8
DIK
 10
22111.57813251509
 20
10208.8404996848
 30
0.0
 42
0.053465209097
  0
VERTEX
  8
DIK
 10
22105.33040447227
 20
10208.17051233443
 30
0.0
 42
0.067315372571
  0
VERTEX
  8
DIK
 10
22100.6311775165
 20
10206.4653497087
 30
0.0
 42
0.105184028713
 70
     2
 50
207.645975363739
  0
VERTEX
  8
DIK
 10
22097.06150586834
 20
10203.50648214982
 30
0.0
 42
0.168849830484
 50
207.645975363739
  0
SEQEND
  8
DIK
  0
POLYLINE
  8
DIK
 66
     1
 10
0.0
 20
0.0
 30
0.0
 70
     1
  0
VERTEX
  8
DIK
 10
22091.09680028939
 20
10196.3094652428
 30
0.0
 42
0.168849830484
  0
VERTEX
  8
DIK
 10
22093.13956848871
 20
10190.43285781472
 30
0.0
 42
0.105184028713
  0
VERTEX
  8
DIK
 10
22098.31114254314
 20
10186.14618828143
 30
0.0
 42
0.067315372571
 70
     2
 50
332.354024636261
  0
VERTEX
  8
DIK
 10
22104.27022668681
 20
10183.98387357286
 30
0.0
 42
0.053465209097
 50
332.354024636261
  0
VERTEX
  8
DIK
 10
22111.57813251509
 20
10183.20019598172
 30
0.0
 42
0.053465209097
  0
VERTEX
  8
DIK
 10
22118.88603834336
 20
10183.98387357286
 30
0.0
 42
0.067315372571
  0
VERTEX
  8
DIK
 10
22124.84512248704
 20
10186.14618828143
 30
0.0
 42
0.105184028713
 70
     2
 50
27.645975363739
  0
VERTEX
  8
DIK
 10
22130.01669654147
 20
10190.43285781472
 30
0.0
 42
0.168849830484
 50
27.645975363739
  0
VERTEX
  8
DIK
 10
22132.05946474079
 20
10196.3094652428
 30
0.0
 42
0.168849830484
  0
VERTEX
  8
DIK
 10
22130.01669654147
 20
10202.18607267089
 30
0.0
 42
0.105184028713
  0
VERTEX
  8
DIK
 10
22124.84512248704
 20
10206.47274220418
 30
0.0
 42
0.067315372571
 70
     2
 50
152.354024636261
  0
VERTEX
  8
DIK
 10
22118.88603834335
 20
10208.63505691275
 30
0.0
 42
0.053465209097
 50
152.354024636261
  0
VERTEX
  8
DIK
 10
22111.57813251509
 20
10209.41873450389
 30
0.0
 42
0.053465209097
  0
VERTEX
  8
DIK
 10
22104.27022668682
 20
10208.63505691275
 30
0.0
 42
0.067315372571
  0
VERTEX
  8
DIK
 10
22098.31114254314
 20
10206.47274220418
 30
0.0
 42
0.105184028713
 70
     2
 50
207.645975363739
  0
VERTEX
  8
DIK
 10
22093.13956848871
 20
10202.18607267089
 30
0.0
 42
0.168849830484
 50
207.645975363739
  0
SEQEND
  8
DIK
  0
LINE
  8
DIK
 10
21311.57813251509
 20
10789.41873450389
 30
0.0
 11
22511.57813251509
 21
10789.41873450389
 31
0.0
  0
LINE
  8
DIK
 10
22511.57813251509
 20
10129.41873450389
 30
0.0
 11
21311.57813251509
 21
10129.41873450388
 31
0.0
  0
LINE
  8
DIK
 10
22511.57813251509
 20
10209.41873450389
 30
0.0
 11
21311.57813251509
 21
10209.41873450389
 31
0.0
  0
LINE
  8
DIK
 10
22561.57813251509
 20
10169.41873450389
 30
0.0
 11
21261.57813251509
 21
10169.41873450389
 31
0.0
  0
POLYLINE
  8
DIK
 66
     1
 10
0.0
 20
0.0
 30
0.0
 70
     1
  0
VERTEX
  8
DIK
 10
21357.05946474079
 20
10142.52800376497
 30
0.0
 42
0.168849830484
  0
VERTEX
  8
DIK
 10
21355.01669654147
 20
10148.40461119305
 30
0.0
 42
0.105184028713
  0
VERTEX
  8
DIK
 10
21349.84512248703
 20
10152.69128072635
 30
0.0
 42
0.067315372571
 70
     2
 50
152.354024636261
  0
VERTEX
  8
DIK
 10
21343.88603834336
 20
10154.85359543492
 30
0.0
 42
0.053465209097
  0
VERTEX
  8
DIK
 10
21336.57813251509
 20
10155.63727302605
 30
0.0
 42
0.053465209097
  0
VERTEX
  8
DIK
 10
21329.27022668682
 20
10154.85359543492
 30
0.0
 42
0.067315372571
  0
VERTEX
  8
DIK
 10
21323.31114254314
 20
10152.69128072635
 30
0.0
 42
0.105184028713
 70
     2
 50
207.645975363739
  0
VERTEX
  8
DIK
 10
21318.1395684887
 20
10148.40461119306
 30
0.0
 42
0.168849830484
  0
VERTEX
  8
DIK
 10
21316.09680028939
 20
10142.52800376497
 30
0.0
 42
0.168849830484
  0
VERTEX
  8
DIK
 10
21318.1395684887
 20
10136.65139633688
 30
0.0
 42
0.105184028713
  0
VERTEX
  8
DIK
 10
21323.31114254314
 20
10132.36472680359
 30
0.0
 42
0.067315372571
 70
     2
 50
332.354024636261
  0
VERTEX
  8
DIK
 10
21329.27022668682
 20
10130.20241209502
 30
0.0
 42
0.053465209097
  0
VERTEX
  8
DIK
 10
21336.57813251509
 20
10129.41873450389
 30
0.0
 42
0.053465209097
  0
VERTEX
  8
DIK
 10
21343.88603834335
 20
10130.20241209502
 30
0.0
 42
0.067315372571
  0
VERTEX
  8
DIK
 10
21349.84512248703
 20
10132.36472680359
 30
0.0
 42
0.105184028713
 70
     2
 50
27.645975363739
  0
VERTEX
  8
DIK
 10
21355.01669654147
 20
10136.65139633688
 30
0.0
 42
0.168849830484
  0
SEQEND
  8
DIK
  0
POLYLINE
  8
DIK
 66
     1
 10
0.0
 20
0.0
 30
0.0
 70
     1
  0
VERTEX
  8
DIK
 10
21352.05946474079
 20
10138.10623858405
 30
0.0
 42
0.168849830484
  0
VERTEX
  8
DIK
 10
21351.09475916184
 20
10140.88149031016
 30
0.0
 42
0.105184028713
  0
VERTEX
  8
DIK
 10
21347.52508751368
 20
10143.84035786904
 30
0.0
 42
0.067315372571
 70
     2
 50
152.354024636261
  0
VERTEX
  8
DIK
 10
21342.8258605579
 20
10145.54552049476
 30
0.0
 42
0.053465209097
  0
VERTEX
  8
DIK
 10
21336.57813251509
 20
10146.21550784514
 30
0.0
 42
0.053465209097
  0
VERTEX
  8
DIK
 10
21330.33040447227
 20
10145.54552049476
 30
0.0
 42
0.067315372571
  0
VERTEX
  8
DIK
 10
21325.63117751649
 20
10143.84035786904
 30
0.0
 42
0.105184028713
 70
     2
 50
207.645975363739
  0
VERTEX
  8
DIK
 10
21322.06150586834
 20
10140.88149031016
 30
0.0
 42
0.168849830484
  0
VERTEX
  8
DIK
 10
21321.09680028939
 20
10138.10623858405
 30
0.0
 42
0.168849830484
  0
VERTEX
  8
DIK
 10
21322.06150586834
 20
10135.33098685795
 30
0.0
 42
0.105184028713
  0
VERTEX
  8
DIK
 10
21325.63117751649
 20
10132.37211929908
 30
0.0
 42
0.067315372571
 70
     2
 50
332.354024636261
  0
VERTEX
  8
DIK
 10
21330.33040447227
 20
10130.66695667335
 30
0.0
 42
0.053465209097
  0
VERTEX
  8
DIK
 10
21336.57813251509
 20
10129.99696932298
 30
0.0
 42
0.053465209097
  0
VERTEX
  8
DIK
 10
21342.8258605579
 20
10130.66695667335
 30
0.0
 42
0.067315372571
  0
VERTEX
  8
DIK
 10
21347.52508751368
 20
10132.37211929908
 30
0.0
 42
0.105184028713
 70
     2
 50
27.645975363739
  0
VERTEX
  8
DIK
 10
21351.09475916184
 20
10135.33098685796
 30
0.0
 42
0.168849830484
  0
SEQEND
  8
DIK
  0
POLYLINE
  8
DIK
 66
     1
 10
0.0
 20
0.0
 30
0.0
 70
     1
  0
VERTEX
  8
DIK
 10
21696.09680028939
 20
10138.10623858405
 30
0.0
 42
-0.168849830484
  0
VERTEX
  8
DIK
 10
21697.06150586834
 20
10140.88149031015
 30
0.0
 42
-0.105184028713
  0
VERTEX
  8
DIK
 10
21700.6311775165
 20
10143.84035786903
 30
0.0
 42
-0.067315372571
 70
     2
 50
27.645975363739
  0
VERTEX
  8
DIK
 10
21705.33040447227
 20
10145.54552049476
 30
0.0
 42
-0.053465209097
  0
VERTEX
  8
DIK
 10
21711.57813251509
 20
10146.21550784513
 30
0.0
 42
-0.053465209097
  0
VERTEX
  8
DIK
 10
21717.8258605579
 20
10145.54552049476
 30
0.0
 42
-0.067315372571
  0
VERTEX
  8
DIK
 10
21722.52508751368
 20
10143.84035786903
 30
0.0
 42
-0.105184028713
 70
     2
 50
332.354024636262
  0
VERTEX
  8
DIK
 10
21726.09475916184
 20
10140.88149031015
 30
0.0
 42
-0.168849830484
  0
VERTEX
  8
DIK
 10
21727.05946474079
 20
10138.10623858405
 30
0.0
 42
-0.168849830484
  0
VERTEX
  8
DIK
 10
21726.09475916184
 20
10135.33098685795
 30
0.0
 42
-0.105184028713
  0
VERTEX
  8
DIK
 10
21722.52508751368
 20
10132.37211929908
 30
0.0
 42
-0.067315372571
 70
     2
 50
207.645975363739
  0
VERTEX
  8
DIK
 10
21717.8258605579
 20
10130.66695667334
 30
0.0
 42
-0.053465209097
  0
VERTEX
  8
DIK
 10
21711.57813251509
 20
10129.99696932297
 30
0.0
 42
-0.053465209097
  0
VERTEX
  8
DIK
 10
21705.33040447227
 20
10130.66695667334
 30
0.0
 42
-0.067315372571
  0
VERTEX
  8
DIK
 10
21700.6311775165
 20
10132.37211929908
 30
0.0
 42
-0.105184028713
 70
     2
 50
152.354024636262
  0
VERTEX
  8
DIK
 10
21697.06150586834
 20
10135.33098685795
 30
0.0
 42
-0.168849830484
  0
SEQEND
  8
DIK
  0
POLYLINE
  8
DIK
 66
     1
 10
0.0
 20
0.0
 30
0.0
 70
     1
  0
VERTEX
  8
DIK
 10
21691.09680028939
 20
10142.52800376497
 30
0.0
 42
-0.168849830484
  0
VERTEX
  8
DIK
 10
21693.13956848871
 20
10148.40461119305
 30
0.0
 42
-0.105184028713
  0
VERTEX
  8
DIK
 10
21698.31114254314
 20
10152.69128072635
 30
0.0
 42
-0.067315372571
 70
     2
 50
27.645975363739
  0
VERTEX
  8
DIK
 10
21704.27022668681
 20
10154.85359543491
 30
0.0
 42
-0.053465209097
  0
VERTEX
  8
DIK
 10
21711.57813251509
 20
10155.63727302605
 30
0.0
 42
-0.053465209097
  0
VERTEX
  8
DIK
 10
21718.88603834336
 20
10154.85359543491
 30
0.0
 42
-0.067315372571
  0
VERTEX
  8
DIK
 10
21724.84512248704
 20
10152.69128072635
 30
0.0
 42
-0.105184028713
 70
     2
 50
332.354024636262
  0
VERTEX
  8
DIK
 10
21730.01669654147
 20
10148.40461119305
 30
0.0
 42
-0.168849830484
  0
VERTEX
  8
DIK
 10
21732.05946474079
 20
10142.52800376497
 30
0.0
 42
-0.168849830484
  0
VERTEX
  8
DIK
 10
21730.01669654147
 20
10136.65139633688
 30
0.0
 42
-0.105184028713
  0
VERTEX
  8
DIK
 10
21724.84512248704
 20
10132.36472680359
 30
0.0
 42
-0.067315372571
 70
     2
 50
207.645975363739
  0
VERTEX
  8
DIK
 10
21718.88603834336
 20
10130.20241209502
 30
0.0
 42
-0.053465209097
  0
VERTEX
  8
DIK
 10
21711.57813251509
 20
10129.41873450388
 30
0.0
 42
-0.053465209097
  0
VERTEX
  8
DIK
 10
21704.27022668682
 20
10130.20241209502
 30
0.0
 42
-0.067315372571
  0
VERTEX
  8
DIK
 10
21698.31114254314
 20
10132.36472680359
 30
0.0
 42
-0.105184028713
 70
     2
 50
152.354024636262
  0
VERTEX
  8
DIK
 10
21693.13956848871
 20
10136.65139633688
 30
0.0
 42
-0.168849830484
  0
SEQEND
  8
DIK
  0
POLYLINE
  8
DIK
 66
     1
 10
0.0
 20
0.0
 30
0.0
 70
     1
  0
VERTEX
  8
DIK
 10
21691.09680028939
 20
10196.3094652428
 30
0.0
 42
0.168849830484
  0
VERTEX
  8
DIK
 10
21693.13956848871
 20
10190.43285781472
 30
0.0
 42
0.105184028713
  0
VERTEX
  8
DIK
 10
21698.31114254314
 20
10186.14618828143
 30
0.0
 42
0.067315372571
 70
     2
 50
332.354024636261
  0
VERTEX
  8
DIK
 10
21704.27022668681
 20
10183.98387357286
 30
0.0
 42
0.053465209097
 50
332.354024636261
  0
VERTEX
  8
DIK
 10
21711.57813251509
 20
10183.20019598172
 30
0.0
 42
0.053465209097
  0
VERTEX
  8
DIK
 10
21718.88603834336
 20
10183.98387357286
 30
0.0
 42
0.067315372571
  0
VERTEX
  8
DIK
 10
21724.84512248704
 20
10186.14618828143
 30
0.0
 42
0.105184028713
 70
     2
 50
27.645975363739
  0
VERTEX
  8
DIK
 10
21730.01669654147
 20
10190.43285781472
 30
0.0
 42
0.168849830484
 50
27.645975363739
  0
VERTEX
  8
DIK
 10
21732.05946474079
 20
10196.3094652428
 30
0.0
 42
0.168849830484
  0
VERTEX
  8
DIK
 10
21730.01669654147
 20
10202.18607267089
 30
0.0
 42
0.105184028713
  0
VERTEX
  8
DIK
 10
21724.84512248704
 20
10206.47274220418
 30
0.0
 42
0.067315372571
 70
     2
 50
152.354024636261
  0
VERTEX
  8
DIK
 10
21718.88603834336
 20
10208.63505691275
 30
0.0
 42
0.053465209097
 50
152.354024636261
  0
VERTEX
  8
DIK
 10
21711.57813251509
 20
10209.41873450389
 30
0.0
 42
0.053465209097
  0
VERTEX
  8
DIK
 10
21704.27022668682
 20
10208.63505691275
 30
0.0
 42
0.067315372571
  0
VERTEX
  8
DIK
 10
21698.31114254314
 20
10206.47274220418
 30
0.0
 42
0.105184028713
 70
     2
 50
207.645975363739
  0
VERTEX
  8
DIK
 10
21693.13956848871
 20
10202.18607267089
 30
0.0
 42
0.168849830484
 50
207.645975363739
  0
SEQEND
  8
DIK
  0
POLYLINE
  8
DIK
 66
     1
 10
0.0
 20
0.0
 30
0.0
 70
     1
  0
VERTEX
  8
DIK
 10
21696.09680028939
 20
10200.73123042372
 30
0.0
 42
0.168849830484
  0
VERTEX
  8
DIK
 10
21697.06150586834
 20
10197.95597869762
 30
0.0
 42
0.105184028713
  0
VERTEX
  8
DIK
 10
21700.6311775165
 20
10194.99711113874
 30
0.0
 42
0.067315372571
 70
     2
 50
332.354024636261
  0
VERTEX
  8
DIK
 10
21705.33040447227
 20
10193.29194851301
 30
0.0
 42
0.053465209097
 50
332.354024636261
  0
VERTEX
  8
DIK
 10
21711.57813251509
 20
10192.62196116264
 30
0.0
 42
0.053465209097
  0
VERTEX
  8
DIK
 10
21717.8258605579
 20
10193.29194851301
 30
0.0
 42
0.067315372571
  0
VERTEX
  8
DIK
 10
21722.52508751368
 20
10194.99711113874
 30
0.0
 42
0.105184028713
 70
     2
 50
27.645975363739
  0
VERTEX
  8
DIK
 10
21726.09475916184
 20
10197.95597869762
 30
0.0
 42
0.168849830484
 50
27.645975363739
  0
VERTEX
  8
DIK
 10
21727.05946474079
 20
10200.73123042372
 30
0.0
 42
0.168849830484
  0
VERTEX
  8
DIK
 10
21726.09475916184
 20
10203.50648214982
 30
0.0
 42
0.105184028713
  0
VERTEX
  8
DIK
 10
21722.52508751368
 20
10206.4653497087
 30
0.0
 42
0.067315372571
 70
     2
 50
152.354024636261
  0
VERTEX
  8
DIK
 10
21717.8258605579
 20
10208.17051233443
 30
0.0
 42
0.053465209097
 50
152.354024636261
  0
VERTEX
  8
DIK
 10
21711.57813251509
 20
10208.8404996848
 30
0.0
 42
0.053465209097
  0
VERTEX
  8
DIK
 10
21705.33040447227
 20
10208.17051233443
 30
0.0
 42
0.067315372571
  0
VERTEX
  8
DIK
 10
21700.6311775165
 20
10206.4653497087
 30
0.0
 42
0.105184028713
 70
     2
 50
207.645975363739
  0
VERTEX
  8
DIK
 10
21697.06150586834
 20
10203.50648214982
 30
0.0
 42
0.168849830484
 50
207.645975363739
  0
SEQEND
  8
DIK
  0
POLYLINE
  8
STREEPLIJN
 66
     1
 10
0.0
 20
0.0
 30
0.0
 70
     1
  0
VERTEX
  8
STREEPLIJN
 10
21311.57813251509
 20
10769.41873450389
 30
0.0
  0
VERTEX
  8
STREEPLIJN
 10
21311.57813251509
 20
10669.41873450389
 30
0.0
  0
VERTEX
  8
STREEPLIJN
 10
21411.57813251509
 20
10669.41873450389
 30
0.0
  0
VERTEX
  8
STREEPLIJN
 10
21411.57813251509
 20
10769.41873450389
 30
0.0
  0
SEQEND
  8
STREEPLIJN
  0
TEXT
  8
DIK
 10
21117.76907875372
 20
10511.94272160555
 30
0.0
 40
100.0
  1
3
  7
ROMANS
  0
POLYLINE
  8
DIK
 66
     1
 10
0.0
 20
0.0
 30
0.0
 70
     1
  0
VERTEX
  8
DIK
 10
22466.09680028939
 20
10196.3094652428
 30
0.0
 42
0.168849830484
  0
VERTEX
  8
DIK
 10
22468.13956848871
 20
10190.43285781472
 30
0.0
 42
0.105184028713
  0
VERTEX
  8
DIK
 10
22473.31114254314
 20
10186.14618828143
 30
0.0
 42
0.067315372571
 70
     2
 50
332.354024636261
  0
VERTEX
  8
DIK
 10
22479.27022668681
 20
10183.98387357286
 30
0.0
 42
0.053465209097
 50
332.354024636261
  0
VERTEX
  8
DIK
 10
22486.57813251509
 20
10183.20019598172
 30
0.0
 42
0.053465209097
  0
VERTEX
  8
DIK
 10
22493.88603834336
 20
10183.98387357286
 30
0.0
 42
0.067315372571
  0
VERTEX
  8
DIK
 10
22499.84512248704
 20
10186.14618828143
 30
0.0
 42
0.105184028713
 70
     2
 50
27.645975363739
  0
VERTEX
  8
DIK
 10
22505.01669654147
 20
10190.43285781472
 30
0.0
 42
0.168849830484
 50
27.645975363739
  0
VERTEX
  8
DIK
 10
22507.05946474079
 20
10196.3094652428
 30
0.0
 42
0.168849830484
  0
VERTEX
  8
DIK
 10
22505.01669654147
 20
10202.18607267089
 30
0.0
 42
0.105184028713
  0
VERTEX
  8
DIK
 10
22499.84512248704
 20
10206.47274220418
 30
0.0
 42
0.067315372571
 70
     2
 50
152.354024636261
  0
VERTEX
  8
DIK
 10
22493.88603834336
 20
10208.63505691275
 30
0.0
 42
0.053465209097
 50
152.354024636261
  0
VERTEX
  8
DIK
 10
22486.57813251509
 20
10209.41873450389
 30
0.0
 42
0.053465209097
  0
VERTEX
  8
DIK
 10
22479.27022668682
 20
10208.63505691275
 30
0.0
 42
0.067315372571
  0
VERTEX
  8
DIK
 10
22473.31114254314
 20
10206.47274220418
 30
0.0
 42
0.105184028713
 70
     2
 50
207.645975363739
  0
VERTEX
  8
DIK
 10
22468.13956848871
 20
10202.18607267089
 30
0.0
 42
0.168849830484
 50
207.645975363739
  0
SEQEND
  8
DIK
  0
POLYLINE
  8
DIK
 66
     1
 10
0.0
 20
0.0
 30
0.0
 70
     1
  0
VERTEX
  8
DIK
 10
22471.09680028938
 20
10200.73123042372
 30
0.0
 42
0.168849830484
  0
VERTEX
  8
DIK
 10
22472.06150586834
 20
10197.95597869762
 30
0.0
 42
0.105184028713
  0
VERTEX
  8
DIK
 10
22475.63117751649
 20
10194.99711113874
 30
0.0
 42
0.067315372571
 70
     2
 50
332.354024636261
  0
VERTEX
  8
DIK
 10
22480.33040447227
 20
10193.29194851301
 30
0.0
 42
0.053465209097
 50
332.354024636261
  0
VERTEX
  8
DIK
 10
22486.57813251509
 20
10192.62196116264
 30
0.0
 42
0.053465209097
  0
VERTEX
  8
DIK
 10
22492.8258605579
 20
10193.29194851301
 30
0.0
 42
0.067315372571
  0
VERTEX
  8
DIK
 10
22497.52508751369
 20
10194.99711113874
 30
0.0
 42
0.105184028713
 70
     2
 50
27.645975363739
  0
VERTEX
  8
DIK
 10
22501.09475916184
 20
10197.95597869762
 30
0.0
 42
0.168849830484
 50
27.645975363739
  0
VERTEX
  8
DIK
 10
22502.05946474079
 20
10200.73123042372
 30
0.0
 42
0.168849830484
  0
VERTEX
  8
DIK
 10
22501.09475916184
 20
10203.50648214982
 30
0.0
 42
0.105184028713
  0
VERTEX
  8
DIK
 10
22497.52508751369
 20
10206.4653497087
 30
0.0
 42
0.067315372571
 70
     2
 50
152.354024636261
  0
VERTEX
  8
DIK
 10
22492.8258605579
 20
10208.17051233443
 30
0.0
 42
0.053465209097
 50
152.354024636261
  0
VERTEX
  8
DIK
 10
22486.57813251509
 20
10208.8404996848
 30
0.0
 42
0.053465209097
  0
VERTEX
  8
DIK
 10
22480.33040447227
 20
10208.17051233443
 30
0.0
 42
0.067315372571
  0
VERTEX
  8
DIK
 10
22475.63117751649
 20
10206.4653497087
 30
0.0
 42
0.105184028713
 70
     2
 50
207.645975363739
  0
VERTEX
  8
DIK
 10
22472.06150586834
 20
10203.50648214982
 30
0.0
 42
0.168849830484
 50
207.645975363739
  0
SEQEND
  8
DIK
  0
POLYLINE
  8
STREEPLIJN
 66
     1
 10
0.0
 20
0.0
 30
0.0
 70
     1
  0
VERTEX
  8
STREEPLIJN
 10
22411.57813251509
 20
10769.41873450389
 30
0.0
  0
VERTEX
  8
STREEPLIJN
 10
22411.57813251509
 20
10669.41873450389
 30
0.0
  0
VERTEX
  8
STREEPLIJN
 10
22511.57813251509
 20
10669.41873450389
 30
0.0
  0
VERTEX
  8
STREEPLIJN
 10
22511.57813251509
 20
10769.41873450389
 30
0.0
  0
SEQEND
  8
STREEPLIJN
  0
TEXT
  8
DIK
 10
22608.24768763909
 20
10511.12173004316
 30
0.0
 40
100.0
  1
4
  7
ROMANS
  0
LINE
  8
DIK
 10
24011.57813251509
 20
10619.41873450389
 30
0.0
 11
24011.57813251509
 21
9719.418734503893
 31
0.0
  0
LINE
  8
STREEPLIJN
 10
22276.20409860822
 20
12269.41873450389
 30
0.0
 11
24061.57813251509
 21
12269.41873450388
 31
0.0
  0
LINE
  8
DIK
 10
21461.57813251509
 20
12269.41873450389
 30
0.0
 11
22361.57813251509
 21
12269.41873450389
 31
0.0
  0
ENDBLK
  8
0
  0
BLOCK
  8
0
  2
*D24
 70
    65
 10
0.0
 20
0.0
 30
0.0
  3
*D
  0
LINE
  8
0
  6
BYBLOCK
 10
142.642898454297
 20
821.441287148535
 30
0.0
 11
142.642898454297
 21
865.23259126333
 31
0.0
  0
LINE
  8
0
  6
BYBLOCK
 10
-1357.357101545703
 20
900.440620785639
 30
0.0
 11
-1357.357101545703
 21
863.23259126333
 31
0.0
  0
LINE
  8
0
  6
BYBLOCK
 10
42.642898454297
 20
864.23259126333
 30
0.0
 11
-1257.357101545703
 21
864.23259126333
 31
0.0
  0
SOLID
  8
0
  6
BYBLOCK
 10
42.642898454297
 20
880.899257929997
 30
0.0
 11
42.642898454297
 21
847.565924596664
 31
0.0
 12
142.642898454297
 22
864.23259126333
 32
0.0
 13
142.642898454297
 23
864.23259126333
 33
0.0
  0
SOLID
  8
0
  6
BYBLOCK
 10
-1257.357101545703
 20
880.899257929997
 30
0.0
 11
-1257.357101545703
 21
847.565924596664
 31
0.0
 12
-1357.357101545703
 22
864.23259126333
 32
0.0
 13
-1357.357101545703
 23
864.23259126333
 33
0.0
  0
TEXT
  8
0
  6
BYBLOCK
 10
-765.452339640941
 20
904.23259126333
 30
0.0
 40
80.0
  1
1500
  7
ROMANS
 72
     1
 11
-607.357101545703
 21
944.23259126333
 31
0.0
 73
     2
  0
POINT
  8
DEFPOINTS
  6
BYBLOCK
 62
     0
 10
142.642898454297
 20
821.441287148535
 30
0.0
  0
POINT
  8
DEFPOINTS
  6
BYBLOCK
 62
     0
 10
-1357.357101545703
 20
900.440620785639
 30
0.0
  0
POINT
  8
DEFPOINTS
  6
BYBLOCK
 62
     0
 10
-1357.357101545703
 20
864.23259126333
 30
0.0
  0
ENDBLK
  8
0
  0
BLOCK
  8
0
  2
*D25
 70
    65
 10
0.0
 20
0.0
 30
0.0
  3
*D
  0
LINE
  8
0
  6
BYBLOCK
 10
162.622652792446
 20
1518.754869787331
 30
0.0
 11
643.044561432329
 21
1518.754869787331
 31
0.0
  0
LINE
  8
0
  6
BYBLOCK
 10
696.045383987419
 20
3018.75486978733
 30
0.0
 11
641.044561432329
 21
3018.75486978733
 31
0.0
  0
LINE
  8
0
  6
BYBLOCK
 10
642.044561432329
 20
1618.754869787331
 30
0.0
 11
642.044561432329
 21
2918.75486978733
 31
0.0
  0
SOLID
  8
0
  6
BYBLOCK
 10
625.377894765662
 20
1618.754869787331
 30
0.0
 11
658.711228098995
 21
1618.754869787331
 31
0.0
 12
642.044561432329
 22
1518.754869787331
 32
0.0
 13
642.044561432329
 23
1518.754869787331
 33
0.0
  0
SOLID
  8
0
  6
BYBLOCK
 10
625.377894765662
 20
2918.75486978733
 30
0.0
 11
658.711228098995
 21
2918.75486978733
 31
0.0
 12
642.044561432329
 22
3018.75486978733
 32
0.0
 13
642.044561432329
 23
3018.75486978733
 33
0.0
  0
TEXT
  8
0
  6
BYBLOCK
 10
602.044561432329
 20
2110.659631692093
 30
0.0
 40
80.0
  1
1500
 50
90.0
  7
ROMANS
 72
     1
 11
562.044561432329
 21
2268.754869787331
 31
0.0
 73
     2
  0
POINT
  8
DEFPOINTS
  6
BYBLOCK
 62
     0
 10
162.622652792446
 20
1518.754869787331
 30
0.0
  0
POINT
  8
DEFPOINTS
  6
BYBLOCK
 62
     0
 10
696.045383987419
 20
3018.75486978733
 30
0.0
  0
POINT
  8
DEFPOINTS
  6
BYBLOCK
 62
     0
 10
642.044561432329
 20
3018.75486978733
 30
0.0
  0
ENDBLK
  8
0
  0
BLOCK
  8
0
  2
*D26
 70
    65
 10
0.0
 20
0.0
 30
0.0
  3
*D
  0
LINE
  8
0
  6
BYBLOCK
 10
532.642898454297
 20
-2020.654181598501
 30
0.0
 11
532.642898454297
 21
-2230.944120588591
 31
0.0
  0
LINE
  8
0
  6
BYBLOCK
 10
-467.357101545703
 20
-2031.669440096225
 30
0.0
 11
-467.357101545703
 21
-2230.944120588591
 31
0.0
  0
LINE
  8
0
  6
BYBLOCK
 10
432.642898454297
 20
-2229.944120588591
 30
0.0
 11
-367.357101545703
 21
-2229.944120588591
 31
0.0
  0
SOLID
  8
0
  6
BYBLOCK
 10
432.642898454297
 20
-2213.277453921924
 30
0.0
 11
432.642898454297
 21
-2246.610787255257
 31
0.0
 12
532.642898454297
 22
-2229.944120588591
 32
0.0
 13
532.642898454297
 23
-2229.944120588591
 33
0.0
  0
SOLID
  8
0
  6
BYBLOCK
 10
-367.357101545703
 20
-2213.277453921924
 30
0.0
 11
-367.357101545703
 21
-2246.610787255257
 31
0.0
 12
-467.357101545703
 22
-2229.944120588591
 32
0.0
 13
-467.357101545703
 23
-2229.944120588591
 33
0.0
  0
TEXT
  8
0
  6
BYBLOCK
 10
-125.452339640941
 20
-2189.944120588591
 30
0.0
 40
80.0
  1
1000
  7
ROMANS
 72
     1
 11
32.642898454297
 21
-2149.944120588591
 31
0.0
 73
     2
  0
POINT
  8
DEFPOINTS
  6
BYBLOCK
 62
     0
 10
532.642898454297
 20
-2020.654181598501
 30
0.0
  0
POINT
  8
DEFPOINTS
  6
BYBLOCK
 62
     0
 10
-467.357101545703
 20
-2031.669440096225
 30
0.0
  0
POINT
  8
DEFPOINTS
  6
BYBLOCK
 62
     0
 10
-467.357101545703
 20
-2229.944120588591
 30
0.0
  0
ENDBLK
  8
0
  0
BLOCK
  8
0
  2
*D27
 70
    65
 10
0.0
 20
0.0
 30
0.0
  3
*D
  0
LINE
  8
0
  6
BYBLOCK
 10
2052.642898454297
 20
-3364.515993654145
 30
0.0
 11
2052.642898454297
 21
-4951.713575259709
 31
0.0
  0
LINE
  8
0
  6
BYBLOCK
 10
-467.357101545704
 20
-3265.378667174627
 30
0.0
 11
-467.357101545704
 21
-4951.713575259709
 31
0.0
  0
LINE
  8
0
  6
BYBLOCK
 10
1952.642898454297
 20
-4950.713575259709
 30
0.0
 11
-367.357101545704
 21
-4950.713575259709
 31
0.0
  0
SOLID
  8
0
  6
BYBLOCK
 10
1952.642898454297
 20
-4934.046908593042
 30
0.0
 11
1952.642898454297
 21
-4967.380241926377
 31
0.0
 12
2052.642898454297
 22
-4950.713575259709
 32
0.0
 13
2052.642898454297
 23
-4950.713575259709
 33
0.0
  0
SOLID
  8
0
  6
BYBLOCK
 10
-367.357101545704
 20
-4934.046908593042
 30
0.0
 11
-367.357101545704
 21
-4967.380241926377
 31
0.0
 12
-467.357101545704
 22
-4950.713575259709
 32
0.0
 13
-467.357101545704
 23
-4950.713575259709
 33
0.0
  0
TEXT
  8
0
  6
BYBLOCK
 10
640.261946073345
 20
-4910.71357525971
 30
0.0
 40
80.0
  1
2520
  7
ROMANS
 72
     1
 11
792.642898454297
 21
-4870.71357525971
 31
0.0
 73
     2
  0
POINT
  8
DEFPOINTS
  6
BYBLOCK
 62
     0
 10
2052.642898454297
 20
-3364.515993654145
 30
0.0
  0
POINT
  8
DEFPOINTS
  6
BYBLOCK
 62
     0
 10
-467.357101545704
 20
-3265.378667174627
 30
0.0
  0
POINT
  8
DEFPOINTS
  6
BYBLOCK
 62
     0
 10
-467.357101545704
 20
-4950.713575259709
 30
0.0
  0
ENDBLK
  8
0
  0
BLOCK
  8
0
  2
*D28
 70
    65
 10
0.0
 20
0.0
 30
0.0
  3
*D
  0
LINE
  8
0
  6
BYBLOCK
 10
795.764271471806
 20
-2481.745130212669
 30
0.0
 11
802.464610402843
 21
-2481.745130212669
 31
0.0
  0
LINE
  8
0
  6
BYBLOCK
 10
821.415891825274
 20
-4481.745130212669
 30
0.0
 11
800.464610402843
 21
-4481.745130212669
 31
0.0
  0
LINE
  8
0
  6
BYBLOCK
 10
801.464610402843
 20
-2581.745130212669
 30
0.0
 11
801.464610402843
 21
-4381.745130212669
 31
0.0
  0
SOLID
  8
0
  6
BYBLOCK
 10
784.797943736176
 20
-2581.745130212669
 30
0.0
 11
818.13127706951
 21
-2581.745130212669
 31
0.0
 12
801.464610402843
 22
-2481.745130212669
 32
0.0
 13
801.464610402843
 23
-2481.745130212669
 33
0.0
  0
SOLID
  8
0
  6
BYBLOCK
 10
784.797943736176
 20
-4381.745130212669
 30
0.0
 11
818.13127706951
 21
-4381.745130212669
 31
0.0
 12
801.464610402843
 22
-4481.745130212669
 32
0.0
 13
801.464610402843
 23
-4481.745130212669
 33
0.0
  0
TEXT
  8
0
  6
BYBLOCK
 10
761.464610402843
 20
-3634.126082593621
 30
0.0
 40
80.0
  1
2000
 50
90.0
  7
ROMANS
 72
     1
 11
721.464610402843
 21
-3481.745130212669
 31
0.0
 73
     2
  0
POINT
  8
DEFPOINTS
  6
BYBLOCK
 62
     0
 10
795.764271471806
 20
-2481.745130212669
 30
0.0
  0
POINT
  8
DEFPOINTS
  6
BYBLOCK
 62
     0
 10
821.415891825274
 20
-4481.745130212669
 30
0.0
  0
POINT
  8
DEFPOINTS
  6
BYBLOCK
 62
     0
 10
801.464610402843
 20
-4481.745130212669
 30
0.0
  0
ENDBLK
  8
0
  0
BLOCK
  8
0
  2
*D29
 70
    65
 10
0.0
 20
0.0
 30
0.0
  3
*D
  0
LINE
  8
0
  6
BYBLOCK
 10
23171.57813251509
 20
7819.757459639864
 30
0.0
 11
23171.57813251509
 21
7820.757459639864
 31
0.0
  0
LINE
  8
0
  6
BYBLOCK
 10
24011.57813251509
 20
8381.164472108125
 30
0.0
 11
24011.57813251509
 21
7818.757459639864
 31
0.0
  0
LINE
  8
0
  6
BYBLOCK
 10
23271.57813251509
 20
7819.757459639864
 30
0.0
 11
23911.57813251509
 21
7819.757459639864
 31
0.0
  0
SOLID
  8
0
  6
BYBLOCK
 10
23271.57813251509
 20
7836.42412630653
 30
0.0
 11
23271.57813251509
 21
7803.090792973196
 31
0.0
 12
23171.57813251509
 22
7819.757459639864
 32
0.0
 13
23171.57813251509
 23
7819.757459639864
 33
0.0
  0
SOLID
  8
0
  6
BYBLOCK
 10
23911.57813251509
 20
7836.42412630653
 30
0.0
 11
23911.57813251509
 21
7803.090792973196
 31
0.0
 12
24011.57813251509
 22
7819.757459639864
 32
0.0
 13
24011.57813251509
 23
7819.757459639864
 33
0.0
  0
TEXT
  8
0
  6
BYBLOCK
 10
23477.29241822937
 20
7859.757459639864
 30
0.0
 40
80.0
  1
840
  7
ROMANS
 72
     1
 11
23591.57813251509
 21
7899.757459639863
 31
0.0
 73
     2
  0
POINT
  8
DEFPOINTS
  6
BYBLOCK
 62
     0
 10
23171.57813251509
 20
7819.757459639864
 30
0.0
  0
POINT
  8
DEFPOINTS
  6
BYBLOCK
 62
     0
 10
24011.57813251509
 20
8381.164472108125
 30
0.0
  0
POINT
  8
DEFPOINTS
  6
BYBLOCK
 62
     0
 10
24011.57813251509
 20
7819.757459639864
 30
0.0
  0
ENDBLK
  8
0
  0
BLOCK
  8
0
  2
*D30
 70
    65
 10
0.0
 20
0.0
 30
0.0
  3
*D
  0
LINE
  8
0
  6
BYBLOCK
 10
23947.35248426107
 20
12269.41873450388
 30
0.0
 11
24670.23678582999
 21
12269.41873450388
 31
0.0
  0
LINE
  8
0
  6
BYBLOCK
 10
23104.78348420327
 20
4818.918734503893
 30
0.0
 11
24670.23678582999
 21
4818.918734503893
 31
0.0
  0
LINE
  8
0
  6
BYBLOCK
 10
24669.23678582999
 20
12169.41873450388
 30
0.0
 11
24669.23678582999
 21
4918.918734503892
 31
0.0
  0
SOLID
  8
0
  6
BYBLOCK
 10
24652.57011916333
 20
12169.41873450388
 30
0.0
 11
24685.90345249666
 21
12169.41873450388
 31
0.0
 12
24669.23678582999
 22
12269.41873450388
 32
0.0
 13
24669.23678582999
 23
12269.41873450388
 33
0.0
  0
SOLID
  8
0
  6
BYBLOCK
 10
24652.57011916333
 20
4918.918734503892
 30
0.0
 11
24685.90345249666
 21
4918.918734503892
 31
0.0
 12
24669.23678582999
 22
4818.918734503893
 32
0.0
 13
24669.23678582999
 23
4818.918734503893
 33
0.0
  0
TEXT
  8
0
  6
BYBLOCK
 10
24629.23678582999
 20
8391.787782122939
 30
0.0
 40
80.0
  1
7450
 50
90.0
  7
ROMANS
 72
     1
 11
24589.23678582999
 21
8544.168734503891
 31
0.0
 73
     2
  0
POINT
  8
DEFPOINTS
  6
BYBLOCK
 62
     0
 10
23947.35248426107
 20
12269.41873450388
 30
0.0
  0
POINT
  8
DEFPOINTS
  6
BYBLOCK
 62
     0
 10
23104.78348420327
 20
4818.918734503893
 30
0.0
  0
POINT
  8
DEFPOINTS
  6
BYBLOCK
 62
     0
 10
24669.23678582999
 20
4818.918734503893
 30
0.0
  0
ENDBLK
  8
0
  0
BLOCK
  8
0
  2
*D31
 70
    65
 10
0.0
 20
0.0
 30
0.0
  3
*D
  0
LINE
  8
0
  6
BYBLOCK
 10
23892.99368944891
 20
12269.41873450388
 30
0.0
 11
24364.5558379434
 21
12269.41873450388
 31
0.0
  0
LINE
  8
0
  6
BYBLOCK
 10
23916.98324248612
 20
8252.994512118023
 30
0.0
 11
24364.5558379434
 21
8252.994512118023
 31
0.0
  0
LINE
  8
0
  6
BYBLOCK
 10
24363.5558379434
 20
12169.41873450388
 30
0.0
 11
24363.5558379434
 21
8352.994512118023
 31
0.0
  0
SOLID
  8
0
  6
BYBLOCK
 10
24346.88917127674
 20
12169.41873450388
 30
0.0
 11
24380.22250461007
 21
12169.41873450388
 31
0.0
 12
24363.5558379434
 22
12269.41873450388
 32
0.0
 13
24363.5558379434
 23
12269.41873450388
 33
0.0
  0
SOLID
  8
0
  6
BYBLOCK
 10
24346.88917127674
 20
8352.994512118023
 30
0.0
 11
24380.22250461007
 21
8352.994512118023
 31
0.0
 12
24363.5558379434
 22
8252.994512118023
 32
0.0
 13
24363.5558379434
 23
8252.994512118023
 33
0.0
  0
TEXT
  8
0
  6
BYBLOCK
 10
24323.5558379434
 20
10108.82567093
 30
0.0
 40
80.0
  1
4016
 50
90.0
  7
ROMANS
 72
     1
 11
24283.5558379434
 21
10261.20662331095
 31
0.0
 73
     2
  0
POINT
  8
DEFPOINTS
  6
BYBLOCK
 62
     0
 10
23892.99368944891
 20
12269.41873450388
 30
0.0
  0
POINT
  8
DEFPOINTS
  6
BYBLOCK
 62
     0
 10
23916.98324248612
 20
8252.994512118023
 30
0.0
  0
POINT
  8
DEFPOINTS
  6
BYBLOCK
 62
     0
 10
24363.5558379434
 20
8252.994512118023
 30
0.0
  0
ENDBLK
  8
0
  0
BLOCK
  8
0
  2
*D32
 70
    65
 10
0.0
 20
0.0
 30
0.0
  3
*D
  0
LINE
  8
0
  6
BYBLOCK
 10
19811.57813251509
 20
10421.24626046339
 30
0.0
 11
19811.57813251509
 21
12570.7680862713
 31
0.0
  0
LINE
  8
0
  6
BYBLOCK
 10
24011.57813251509
 20
10387.80932693116
 30
0.0
 11
24011.57813251509
 21
12570.7680862713
 31
0.0
  0
LINE
  8
0
  6
BYBLOCK
 10
19911.57813251509
 20
12569.7680862713
 30
0.0
 11
23911.57813251509
 21
12569.7680862713
 31
0.0
  0
SOLID
  8
0
  6
BYBLOCK
 10
19911.57813251509
 20
12586.43475293797
 30
0.0
 11
19911.57813251509
 21
12553.10141960463
 31
0.0
 12
19811.57813251509
 22
12569.7680862713
 32
0.0
 13
19811.57813251509
 23
12569.7680862713
 33
0.0
  0
SOLID
  8
0
  6
BYBLOCK
 10
23911.57813251509
 20
12586.43475293797
 30
0.0
 11
23911.57813251509
 21
12553.10141960463
 31
0.0
 12
24011.57813251509
 22
12569.7680862713
 32
0.0
 13
24011.57813251509
 23
12569.7680862713
 33
0.0
  0
TEXT
  8
0
  6
BYBLOCK
 10
21759.19718013413
 20
12609.7680862713
 30
0.0
 40
80.0
  1
4200
  7
ROMANS
 72
     1
 11
21911.57813251508
 21
12649.7680862713
 31
0.0
 73
     2
  0
POINT
  8
DEFPOINTS
  6
BYBLOCK
 62
     0
 10
19811.57813251509
 20
10421.24626046339
 30
0.0
  0
POINT
  8
DEFPOINTS
  6
BYBLOCK
 62
     0
 10
24011.57813251509
 20
10387.80932693116
 30
0.0
  0
POINT
  8
DEFPOINTS
  6
BYBLOCK
 62
     0
 10
24011.57813251509
 20
12569.7680862713
 30
0.0
  0
ENDBLK
  8
0
  0
BLOCK
  8
0
  2
ACAD132E
 70
     0
 10
0.0
 20
0.0
 30
0.0
  3
ACAD132E
  0
LINE
  8
DIK
 10
-4061.835676448856
 20
10058.36048959261
 30
0.0
 11
-961.835676448855
 21
10058.36048959261
 31
0.0
  0
LINE
  8
STREEPLIJN
 10
-961.835676448855
 20
8558.360489592613
 30
0.0
 11
-4061.835676448856
 21
8558.360489592613
 31
0.0
  0
ARC
  8
DIK
 10
-2461.835676448855
 20
10058.36048959261
 30
0.0
 40
1500.0
 50
270.0
 51
0.0
  0
LINE
  8
DIK
 10
-2061.835676448857
 20
13521.10218938957
 30
0.0
 11
-961.835676448855
 21
12421.10218938955
 31
0.0
  0
LINE
  8
DIK
 10
-6747.245793593362
 20
13418.36048959261
 30
0.0
 11
-5161.835676448856
 21
13418.36048959261
 31
0.0
  0
LINE
  8
STREEPLIJN
 10
-5161.835676448856
 20
13418.36048959261
 30
0.0
 11
-7747.245793593371
 21
13418.36048959261
 31
0.0
  0
LINE
  8
DIK
 10
-6747.245793593364
 20
10898.36048959261
 30
0.0
 11
-5148.952690789095
 21
10898.36048959261
 31
0.0
  0
DIMENSION
  8
DUN
  2
*D36
 10
-7747.245793593362
 20
12151.08668474307
 30
0.0
 11
-6747.245793593362
 21
12181.08668474306
 31
0.0
 13
-5747.245793593362
 23
12159.84856262259
 33
0.0
 14
-7747.245793593362
 24
12168.61044050211
 34
0.0
  3
STANDAARD
  0
LINE
  8
STREEPLIJN
 10
-5148.952690789095
 20
10898.36048959261
 30
0.0
 11
-7747.245793593371
 21
10898.36048959261
 31
0.0
  0
LINE
  8
STREEPLIJN
 10
-7747.245793593371
 20
10898.36048959261
 30
0.0
 11
-7747.24579359336
 21
12368.36048959263
 31
0.0
  0
ARC
  8
DIK
 10
-6747.245793593364
 20
11898.36048959261
 30
0.0
 40
1000.0
 50
180.0
 51
270.0
  0
ARC
  8
DIK
 10
-6747.245793593362
 20
12418.36048959261
 30
0.0
 40
1000.0
 50
90.0
 51
180.000000000001
  0
LINE
  8
DIK
 10
-7747.245793593362
 20
12418.3604895926
 30
0.0
 11
-7747.245793593364
 21
11898.36048959262
 31
0.0
  0
LINE
  8
STREEPLIJN
 10
-7747.245793593371
 20
13418.36048959261
 30
0.0
 11
-7747.24579359336
 21
11948.36048959259
 31
0.0
  0
LINE
  8
DIK
 10
-7747.245793593362
 20
12398.3604895926
 30
0.0
 11
-7747.245793593364
 21
11918.36048959262
 31
0.0
  0
LINE
  8
DIK
 10
-2061.835676448855
 20
13858.36048959261
 30
0.0
 11
-2061.835676448857
 21
13521.10218938957
 31
0.0
  0
LINE
  8
STREEPLIJN
 10
-2061.835676448855
 20
13858.3604895926
 30
0.0
 11
-2061.835676448856
 21
13758.3604895926
 31
0.0
  0
LINE
  8
STREEPLIJN
 10
-2061.835676448849
 20
15358.36048959262
 30
0.0
 11
-2061.835676448857
 21
13521.10218938957
 31
0.0
  0
LINE
  8
DIK
 10
-3661.835676448855
 20
13758.36048959261
 30
0.0
 11
-3661.835676448855
 21
13858.36048959261
 31
0.0
  0
LINE
  8
DIK
 10
-3561.835676448855
 20
13858.36048959261
 30
0.0
 11
-3561.835676448856
 21
13758.36048959261
 31
0.0
  0
LINE
  8
DIK
 10
-5161.835676448856
 20
13418.36048959261
 30
0.0
 11
-5161.835676448857
 21
13858.36048959261
 31
0.0
  0
LINE
  8
STREEPLIJN
 10
-5161.835676448856
 20
15358.36048959261
 30
0.0
 11
-5161.835676448856
 21
13418.3604895926
 31
0.0
  0
ARC
  8
DIK
 10
-2561.835676448855
 20
10058.36048959261
 30
0.0
 40
1500.0
 50
180.0
 51
270.0
  0
LINE
  8
DIK
 10
-3632.835676448856
 20
11898.36048959261
 30
0.0
 11
-5797.245793593362
 21
11898.36048959261
 31
0.0
  0
LINE
  8
DIK
 10
-3632.835676448856
 20
11948.36048959261
 30
0.0
 11
-5797.245793593362
 21
11948.36048959261
 31
0.0
  0
LINE
  8
DIK
 10
-3632.835676448856
 20
12368.36048959261
 30
0.0
 11
-5797.245793593362
 21
12368.36048959261
 31
0.0
  0
LINE
  8
DIK
 10
-3632.835676448856
 20
12418.36048959261
 30
0.0
 11
-5797.245793593362
 21
12418.36048959261
 31
0.0
  0
LINE
  8
DIK
 10
-5161.835676448855
 20
11898.36048959261
 30
0.0
 11
-5161.835676448856
 21
10898.36048959261
 31
0.0
  0
ARC
  8
DIK
 10
-4161.835676448855
 20
11058.36048959261
 30
0.0
 40
1000.0
 50
189.206896221346
 51
270.0
  0
LINE
  8
STREEPLIJN
 10
-4061.835676448856
 20
8558.360489592613
 30
0.0
 11
-4061.835676448856
 21
10058.36048959261
 31
0.0
  0
LINE
  8
STREEPLIJN
 10
-4061.835676448856
 20
10058.36048959261
 30
0.0
 11
-5161.835676448856
 21
10058.36048959261
 31
0.0
  0
LINE
  8
STREEPLIJN
 10
-5161.835676448856
 20
10058.36048959261
 30
0.0
 11
-5161.835676448856
 21
10898.36048959261
 31
0.0
  0
LINE
  8
DIK
 10
-5797.24579359336
 20
12368.36048959261
 30
0.0
 11
-5797.24579359336
 21
12418.36048959261
 31
0.0
  0
LINE
  8
DIK
 10
-5797.24579359336
 20
11898.36048959261
 30
0.0
 11
-5797.24579359336
 21
11948.36048959261
 31
0.0
  0
LINE
  8
DIK
 10
-5747.245793593363
 20
11948.3604895926
 30
0.0
 11
-5747.24579359336
 21
12368.36048959261
 31
0.0
  0
LINE
  8
DIK
 10
-5161.835676448856
 20
13418.3604895926
 30
0.0
 11
-5161.835676448855
 21
12418.36048959261
 31
0.0
  0
LINE
  8
DIK
 10
-2490.835676448856
 20
10158.36048959261
 30
0.0
 11
-2490.835676448856
 21
11558.36048959261
 31
0.0
  0
LINE
  8
DIK
 10
-2532.835676448855
 20
10158.36048959261
 30
0.0
 11
-2532.835676448856
 21
11558.36048959261
 31
0.0
  0
LINE
  8
DIK
 10
-2561.835676448855
 20
8558.360489592613
 30
0.0
 11
-2461.835676448855
 21
8558.360489592613
 31
0.0
  0
LINE
  8
DIK
 10
-2461.835676448855
 20
10058.36048959261
 30
0.0
 11
-2561.835676448855
 21
10058.36048959261
 31
0.0
  0
LINE
  8
DIK
 10
-2561.835676448855
 20
10158.36048959261
 30
0.0
 11
-2461.835676448855
 21
10158.36048959261
 31
0.0
  0
ARC
  8
DIK
 10
-2511.835676448856
 20
10058.36048959261
 30
0.0
 40
17.5
 50
180.0
 51
0.0
  0
LINE
  8
DIK
 10
-2561.835676448855
 20
10058.36048959261
 30
0.0
 11
-2561.835676448855
 21
10158.36048959261
 31
0.0
  0
LINE
  8
DIK
 10
-2461.835676448855
 20
10158.36048959261
 30
0.0
 11
-2461.835676448855
 21
10058.36048959261
 31
0.0
  0
LINE
  8
DIK
 10
-3461.835676448855
 20
12658.36048959261
 30
0.0
 11
-2561.835676448855
 21
11758.36048959261
 31
0.0
  0
LINE
  8
DIK
 10
-3561.835676448855
 20
12546.22845523665
 30
0.0
 11
-2673.96771080482
 21
11658.36048959261
 31
0.0
  0
LINE
  8
DIK
 10
-3561.835676448855
 20
11658.36048959261
 30
0.0
 11
-2461.835676448855
 21
11658.36048959261
 31
0.0
  0
LINE
  8
DIK
 10
-2678.788382509992
 20
11975.72235858223
 30
0.0
 11
-3244.473807459228
 21
12541.40778353147
 31
0.0
  0
LINE
  8
DIK
 10
-2708.486867319829
 20
11946.0238737724
 30
0.0
 11
-3274.172292269064
 21
12511.70929872164
 31
0.0
  0
LINE
  8
DIK
 10
-3561.835676448855
 20
12758.36048959261
 30
0.0
 11
-3561.835676448855
 21
11558.36048959261
 31
0.0
  0
LINE
  8
DIK
 10
-3590.835676448855
 20
12515.86048959261
 30
0.0
 11
-3590.835676448855
 21
11800.86048959261
 31
0.0
  0
LINE
  8
DIK
 10
-3632.835676448856
 20
12515.86048959261
 30
0.0
 11
-3632.835676448856
 21
11800.86048959261
 31
0.0
  0
LINE
  8
DIK
 10
-3561.835676448855
 20
11909.83235216876
 30
0.0
 11
-3310.363813872712
 21
11658.36048959261
 31
0.0
  0
LINE
  8
DIK
 10
-3561.835676448855
 20
12121.96438652472
 30
0.0
 11
-3098.231779516748
 21
11658.36048959261
 31
0.0
  0
LINE
  8
DIK
 10
-3561.835676448855
 20
12334.09642088068
 30
0.0
 11
-2886.099745160784
 21
11658.36048959261
 31
0.0
  0
LINE
  8
DIK
 10
-3632.835676448856
 20
11765.86048959261
 30
0.0
 11
-3632.835676448856
 21
11658.36048959261
 31
0.0
  0
LINE
  8
DIK
 10
-3561.835676448855
 20
11697.70031781279
 30
0.0
 11
-3522.495848228675
 21
11658.36048959261
 31
0.0
  0
LINE
  8
DIK
 10
-3561.835676448855
 20
11758.36048959261
 30
0.0
 11
-3561.835676448855
 21
11658.36048959261
 31
0.0
  0
LINE
  8
DIK
 10
-3590.835676448855
 20
11765.86048959261
 30
0.0
 11
-3590.835676448855
 21
11658.36048959261
 31
0.0
  0
POLYLINE
  8
DIK
 66
     1
 10
0.0
 20
0.0
 30
0.0
 70
     1
  0
VERTEX
  8
DIK
 10
-3661.835676448855
 20
11558.36048959261
 30
0.0
  0
VERTEX
  8
DIK
 10
-3661.835676448855
 20
11658.36048959261
 30
0.0
  0
VERTEX
  8
DIK
 10
-3561.835676448855
 20
11658.36048959261
 30
0.0
  0
VERTEX
  8
DIK
 10
-3561.835676448855
 20
11558.36048959261
 30
0.0
  0
SEQEND
  8
DIK
  0
POLYLINE
  8
DIK
 66
     1
 10
0.0
 20
0.0
 30
0.0
 70
     1
  0
VERTEX
  8
DIK
 10
-3661.835676448855
 20
11658.36048959261
 30
0.0
  0
VERTEX
  8
DIK
 10
-3561.835676448855
 20
11658.36048959261
 30
0.0
  0
VERTEX
  8
DIK
 10
-3561.835676448855
 20
11558.36048959261
 30
0.0
  0
VERTEX
  8
DIK
 10
-3661.835676448855
 20
11558.36048959261
 30
0.0
  0
SEQEND
  8
DIK
  0
ARC
  8
DIK
 10
-3661.835676448855
 20
11608.36048959261
 30
0.0
 40
17.5
 50
90.0
 51
270.0
  0
ARC
  8
DIK
 10
-3611.835676448855
 20
11558.36048959261
 30
0.0
 40
17.5
 50
179.999999999988
 51
0.000000000012
  0
LINE
  8
DIK
 10
-3461.835676448855
 20
11558.36048959261
 30
0.0
 11
-3461.835676448855
 21
11658.36048959261
 31
0.0
  0
LINE
  8
DIK
 10
-3561.835676448855
 20
11558.36048959261
 30
0.0
 11
-3461.835676448855
 21
11558.36048959261
 31
0.0
  0
ARC
  8
DIK
 10
-3461.835676448855
 20
11608.36048959261
 30
0.0
 40
17.5
 50
270.0
 51
90.0
  0
POLYLINE
  8
DIK
 66
     1
 10
0.0
 20
0.0
 30
0.0
 70
     1
  0
VERTEX
  8
DIK
 10
-3661.835676448855
 20
11800.86048959261
 30
0.0
  0
VERTEX
  8
DIK
 10
-3561.835676448855
 20
11800.86048959261
 30
0.0
  0
VERTEX
  8
DIK
 10
-3561.835676448855
 20
11765.86048959261
 30
0.0
  0
VERTEX
  8
DIK
 10
-3661.835676448855
 20
11765.86048959261
 30
0.0
  0
SEQEND
  8
DIK
  0
LINE
  8
DIK
 10
-3561.835676448855
 20
11898.36048959261
 30
0.0
 11
-3590.835676448855
 21
11898.36048959261
 31
0.0
  0
LINE
  8
DIK
 10
-3561.835676448855
 20
11948.36048959261
 30
0.0
 11
-3590.835676448855
 21
11948.36048959261
 31
0.0
  0
LINE
  8
DIK
 10
-3561.835676448855
 20
12368.36048959261
 30
0.0
 11
-3590.835676448855
 21
12368.36048959261
 31
0.0
  0
LINE
  8
DIK
 10
-3315.184485577883
 20
12612.11846165013
 30
0.0
 11
-3456.605841815192
 21
12753.53981788744
 31
0.0
  0
LINE
  8
DIK
 10
-3344.882970387718
 20
12582.41997684029
 30
0.0
 11
-3486.304326625026
 21
12723.8413330776
 31
0.0
  0
LINE
  8
DIK
 10
-3590.835676448855
 20
12758.36048959261
 30
0.0
 11
-3590.835676448856
 21
13758.36048959261
 31
0.0
  0
LINE
  8
DIK
 10
-3632.835676448856
 20
12758.36048959261
 30
0.0
 11
-3632.835676448856
 21
13758.36048959261
 31
0.0
  0
ARC
  8
DIK
 10
-3611.835676448855
 20
12758.36048959261
 30
0.0
 40
17.5
 50
0.0
 51
180.0
  0
LINE
  8
DIK
 10
-3661.835676448855
 20
12758.36048959261
 30
0.0
 11
-3561.835676448855
 21
12758.36048959261
 31
0.0
  0
POLYLINE
  8
DIK
 66
     1
 10
0.0
 20
0.0
 30
0.0
 70
     1
  0
VERTEX
  8
DIK
 10
-3661.835676448855
 20
12515.86048959261
 30
0.0
  0
VERTEX
  8
DIK
 10
-3561.835676448855
 20
12515.86048959261
 30
0.0
  0
VERTEX
  8
DIK
 10
-3561.835676448855
 20
12550.86048959261
 30
0.0
  0
VERTEX
  8
DIK
 10
-3661.835676448855
 20
12550.86048959261
 30
0.0
  0
SEQEND
  8
DIK
  0
LINE
  8
DIK
 10
-3561.835676448855
 20
12418.36048959261
 30
0.0
 11
-3590.835676448855
 21
12418.36048959261
 31
0.0
  0
LINE
  8
DIK
 10
-3461.835676448855
 20
12658.36048959261
 30
0.0
 11
-3661.835676448855
 21
12658.36048959261
 31
0.0
  0
POLYLINE
  8
DIK
 66
     1
 10
0.0
 20
0.0
 30
0.0
 70
     1
  0
VERTEX
  8
DIK
 10
-3661.835676448855
 20
12758.36048959261
 30
0.0
  0
VERTEX
  8
DIK
 10
-3561.835676448855
 20
12758.36048959261
 30
0.0
  0
VERTEX
  8
DIK
 10
-3561.835676448855
 20
12658.36048959261
 30
0.0
  0
VERTEX
  8
DIK
 10
-3661.835676448855
 20
12658.36048959261
 30
0.0
  0
SEQEND
  8
DIK
  0
ARC
  8
DIK
 10
-3661.835676448855
 20
12708.36048959261
 30
0.0
 40
17.5
 50
90.0
 51
270.0
  0
LINE
  8
DIK
 10
-3632.835676448856
 20
12658.36048959261
 30
0.0
 11
-3632.835676448856
 21
12550.86048959261
 31
0.0
  0
LINE
  8
DIK
 10
-3590.835676448855
 20
12658.36048959261
 30
0.0
 11
-3590.835676448855
 21
12550.86048959261
 31
0.0
  0
LINE
  8
DIK
 10
-3661.835676448855
 20
12658.36048959261
 30
0.0
 11
-3661.835676448855
 21
12758.36048959261
 31
0.0
  0
LINE
  8
DIK
 10
-3486.304326625027
 20
12723.8413330776
 30
0.0
 11
-3456.605841815191
 21
12753.53981788744
 31
0.0
  0
LINE
  8
DIK
 10
-3461.835676448855
 20
12748.30998325378
 30
0.0
 11
-3461.835676448855
 21
12758.36048959261
 31
0.0
  0
LINE
  8
DIK
 10
-3461.835676448855
 20
12758.36048959261
 30
0.0
 11
-3561.835676448855
 21
12758.36048959261
 31
0.0
  0
LINE
  8
DIK
 10
-3561.835676448855
 20
12758.36048959261
 30
0.0
 11
-3561.835676448855
 21
12658.36048959261
 31
0.0
  0
LINE
  8
DIK
 10
-3461.835676448855
 20
12658.36048959261
 30
0.0
 11
-3461.835676448855
 21
12699.37268290143
 31
0.0
  0
ARC
  8
DIK
 10
-3461.835676448855
 20
12708.36048959261
 30
0.0
 40
17.5
 50
270.0
 51
293.705472997916
  0
LINE
  8
DIK
 10
-3561.835676448856
 20
13758.36048959261
 30
0.0
 11
-3661.835676448855
 21
13758.36048959261
 31
0.0
  0
POLYLINE
  8
DIK
 66
     1
 10
0.0
 20
0.0
 30
0.0
 70
     1
  0
VERTEX
  8
DIK
 10
-3294.678388923472
 20
12491.20320206723
 30
0.0
  0
VERTEX
  8
DIK
 10
-3365.389067042128
 20
12561.91388018588
 30
0.0
  0
VERTEX
  8
DIK
 10
-3294.678388923472
 20
12632.62455830454
 30
0.0
  0
VERTEX
  8
DIK
 10
-3223.967710804819
 20
12561.91388018588
 30
0.0
  0
SEQEND
  8
DIK
  0
LINE
  8
DIK
 10
-2461.835676448855
 20
11658.36048959261
 30
0.0
 11
-2461.835676448856
 21
11758.36048959261
 31
0.0
  0
LINE
  8
DIK
 10
-2561.835676448855
 20
11558.36048959261
 30
0.0
 11
-2561.835676448855
 21
11758.36048959261
 31
0.0
  0
LINE
  8
DIK
 10
-2461.835676448855
 20
11558.36048959261
 30
0.0
 11
-2561.835676448855
 21
11558.36048959261
 31
0.0
  0
LINE
  8
DIK
 10
-2561.835676448855
 20
11658.36048959261
 30
0.0
 11
-2461.835676448855
 21
11658.36048959261
 31
0.0
  0
ARC
  8
DIK
 10
-2511.835676448856
 20
11658.36048959261
 30
0.0
 40
17.5
 50
0.0
 51
180.0
  0
LINE
  8
DIK
 10
-2461.835676448855
 20
11658.36048959261
 30
0.0
 11
-2461.835676448855
 21
11558.36048959261
 31
0.0
  0
LINE
  8
DIK
 10
-2520.82348314004
 20
11758.36048959261
 30
0.0
 11
-2561.835676448855
 21
11758.36048959261
 31
0.0
  0
LINE
  8
DIK
 10
-2466.65634815403
 20
11763.59032422627
 30
0.0
 11
-2608.077704391338
 21
11905.01168046358
 31
0.0
  0
LINE
  8
DIK
 10
-2496.354832963865
 20
11733.89183941643
 30
0.0
 11
-2637.776189201175
 21
11875.31319565374
 31
0.0
  0
POLYLINE
  8
DIK
 66
     1
 10
0.0
 20
0.0
 30
0.0
 70
     1
  0
VERTEX
  8
DIK
 10
-2658.282285855583
 20
11854.80709899934
 30
0.0
  0
VERTEX
  8
DIK
 10
-2728.992963974238
 20
11925.51777711799
 30
0.0
  0
VERTEX
  8
DIK
 10
-2658.282285855583
 20
11996.22845523665
 30
0.0
  0
VERTEX
  8
DIK
 10
-2587.571607736929
 20
11925.51777711799
 30
0.0
  0
SEQEND
  8
DIK
  0
LINE
  8
DIK
 10
-2461.835676448856
 20
11758.36048959261
 30
0.0
 11
-2471.88618278769
 21
11758.36048959261
 31
0.0
  0
LINE
  8
DIK
 10
-2496.354832963866
 20
11733.89183941643
 30
0.0
 11
-2466.656348154029
 21
11763.59032422627
 31
0.0
  0
ARC
  8
DIK
 10
-3661.835676448856
 20
13858.36048959261
 30
0.0
 40
1500.0
 50
90.0
 51
180.0
  0
ARC
  8
DIK
 10
-3561.835676448855
 20
13858.36048959261
 30
0.0
 40
1500.0
 50
0.0
 51
90.0
  0
LINE
  8
DIK
 10
-3661.835676448855
 20
13858.36048959261
 30
0.0
 11
-3561.835676448855
 21
13858.36048959261
 31
0.0
  0
ARC
  8
DIK
 10
-3611.835676448855
 20
13858.36048959261
 30
0.0
 40
17.5
 50
0.000000000006
 51
179.999999999994
  0
LINE
  8
DIK
 10
2249.628394758721
 20
8464.639446811721
 30
0.0
 11
2249.628394758721
 21
7749.639446811722
 31
0.0
  0
LINE
  8
DIK
 10
2207.628394758721
 20
8464.639446811721
 30
0.0
 11
2207.628394758721
 21
7749.639446811722
 31
0.0
  0
LINE
  8
DIK
 10
3131.977203887748
 20
7894.802830991511
 30
0.0
 11
2566.291778938513
 21
8460.488255940751
 31
0.0
  0
LINE
  8
DIK
 10
2278.628394758721
 20
8282.875378099793
 30
0.0
 11
2954.364326046793
 21
7607.139446811722
 31
0.0
  0
LINE
  8
DIK
 10
2278.628394758721
 20
8707.139446811721
 30
0.0
 11
2278.628394758721
 21
7507.139446811723
 31
0.0
  0
LINE
  8
DIK
 10
93.218277614214
 20
7897.139446811718
 30
0.0
 11
93.218277614217
 21
8317.139446811721
 31
0.0
  0
POLYLINE
  8
DIK
 66
     1
 10
0.0
 20
0.0
 30
0.0
  0
VERTEX
  8
DIK
 10
243.218277614214
 20
7847.139446811721
 30
0.0
  0
VERTEX
  8
DIK
 10
243.218277614214
 20
7807.13944681172
 30
0.0
  0
VERTEX
  8
DIK
 10
-56.781722385786
 20
7807.13944681172
 30
0.0
  0
VERTEX
  8
DIK
 10
-56.781722385786
 20
8407.139446811719
 30
0.0
  0
SEQEND
  8
DIK
  0
INSERT
  8
DUN
  2
*X34
 10
-5055.146069728134
 20
24170.6501399675
 30
0.0
 50
270.0
1001
ACAD
1000
HATCH
1002
{
1070
    16
1000
AR-CONC
1040
1.0
1040
0.0
1002
}
  0
INSERT
  8
DUN
  2
*X35
 10
0.0
 20
0.0
 30
0.0
1001
ACAD
1000
HATCH
1002
{
1070
    16
1000
AR-CONC
1040
1.0
1040
0.0
1002
}
  0
LINE
  8
DIK
 10
3270.570133000312
 20
7856.61906480744
 30
0.0
 11
2528.108012754436
 21
8599.081185053313
 31
0.0
  0
LINE
  8
DIK
 10
2598.81869087309
 20
8669.791863171967
 30
0.0
 11
3341.280811118966
 21
7927.329742926091
 31
0.0
  0
LINE
  8
DIK
 10
2616.496360402758
 20
8510.692837404993
 30
0.0
 11
3182.181785351993
 21
7945.007412455757
 31
0.0
  0
LINE
  8
DIK
 10
3161.675688697584
 20
7924.501315801347
 30
0.0
 11
2595.990263748348
 21
8490.186740750585
 31
0.0
  0
LINE
  8
DIK
 10
2278.628394758721
 20
8495.007412455757
 30
0.0
 11
3166.496360402756
 21
7607.139446811722
 31
0.0
  0
LINE
  8
DIK
 10
2378.628394758721
 20
8607.139446811721
 30
0.0
 11
3278.628394758721
 21
7707.139446811723
 31
0.0
  0
POLYLINE
  8
DIK
 66
     1
 10
0.0
 20
0.0
 30
0.0
  0
VERTEX
  8
DIK
 10
3307.628394758721
 20
6207.13944681172
 30
0.0
  0
VERTEX
  8
DIK
 10
3028.628394758721
 20
6207.13944681172
 30
0.0
  0
SEQEND
  8
DIK
  0
POLYLINE
  8
DIK
 66
     1
 10
0.0
 20
0.0
 30
0.0
  0
VERTEX
  8
DIK
 10
3028.628394758721
 20
6207.13944681172
 30
0.0
  0
VERTEX
  8
DIK
 10
3028.628394758721
 20
5907.13944681172
 30
0.0
  0
VERTEX
  8
DIK
 10
3628.628394758721
 20
5907.13944681172
 30
0.0
  0
VERTEX
  8
DIK
 10
3628.628394758721
 20
6207.13944681172
 30
0.0
  0
VERTEX
  8
DIK
 10
3349.62839475872
 20
6207.13944681172
 30
0.0
  0
SEQEND
  8
DIK
  0
POLYLINE
  8
DIK
 66
     1
 10
0.0
 20
0.0
 30
0.0
  0
VERTEX
  8
DIK
 10
3028.628394758721
 20
7607.139446811722
 30
0.0
  0
VERTEX
  8
DIK
 10
3028.628394758721
 20
7407.139446811719
 30
0.0
  0
VERTEX
  8
DIK
 10
3307.62839475872
 20
7407.139446811719
 30
0.0
  0
SEQEND
  8
DIK
  0
POLYLINE
  8
DIK
 66
     1
 10
0.0
 20
0.0
 30
0.0
 70
     1
  0
VERTEX
  8
DIK
 10
3182.181785351993
 20
7803.586056218447
 30
0.0
  0
VERTEX
  8
DIK
 10
3111.471107233338
 20
7874.296734337101
 30
0.0
  0
VERTEX
  8
DIK
 10
3182.181785351993
 20
7945.007412455757
 30
0.0
  0
VERTEX
  8
DIK
 10
3252.892463470647
 20
7874.296734337101
 30
0.0
  0
SEQEND
  8
DIK
  0
LINE
  8
DIK
 10
2278.628394758721
 20
7607.139446811722
 30
0.0
 11
3378.628394758721
 21
7607.139446811722
 31
0.0
  0
LINE
  8
DIK
 10
2207.628394758721
 20
7897.139446811721
 30
0.0
 11
43.218277614217
 21
7897.139446811719
 31
0.0
  0
LINE
  8
DIK
 10
2207.628394758721
 20
7847.139446811721
 30
0.0
 11
43.218277614217
 21
7847.139446811719
 31
0.0
  0
LINE
  8
DIK
 10
43.218277614217
 20
7897.139446811719
 30
0.0
 11
43.218277614217
 21
7847.139446811719
 31
0.0
  0
POLYLINE
  8
DIK
 66
     1
 10
0.0
 20
0.0
 30
0.0
  0
VERTEX
  8
DIK
 10
2207.628394758721
 20
7707.13944681172
 30
0.0
  0
VERTEX
  8
DIK
 10
1928.628394758721
 20
7707.13944681172
 30
0.0
  0
SEQEND
  8
DIK
  0
POLYLINE
  8
DIK
 66
     1
 10
0.0
 20
0.0
 30
0.0
  0
VERTEX
  8
DIK
 10
1928.628394758721
 20
7707.13944681172
 30
0.0
  0
VERTEX
  8
DIK
 10
1928.628394758721
 20
7407.139446811719
 30
0.0
  0
VERTEX
  8
DIK
 10
2528.628394758721
 20
7407.139446811719
 30
0.0
  0
VERTEX
  8
DIK
 10
2528.628394758721
 20
7607.139446811722
 30
0.0
  0
SEQEND
  8
DIK
  0
LINE
  8
DIK
 10
2278.628394758721
 20
8070.743343743831
 30
0.0
 11
2742.232291690829
 21
7607.139446811722
 31
0.0
  0
POLYLINE
  8
DIK
 66
     1
 10
0.0
 20
0.0
 30
0.0
 70
     1
  0
VERTEX
  8
DIK
 10
2178.628394758721
 20
7749.639446811722
 30
0.0
  0
VERTEX
  8
DIK
 10
2278.628394758721
 20
7749.639446811722
 30
0.0
  0
VERTEX
  8
DIK
 10
2278.628394758721
 20
7714.639446811723
 30
0.0
  0
VERTEX
  8
DIK
 10
2178.628394758721
 20
7714.639446811723
 30
0.0
  0
SEQEND
  8
DIK
  0
ARC
  8
DIK
 10
2228.628394758721
 20
7507.139446811723
 30
0.0
 40
17.5
 50
179.999999999988
 51
0.000000000012
  0
POLYLINE
  8
DIK
 66
     1
 10
0.0
 20
0.0
 30
0.0
 70
     1
  0
VERTEX
  8
DIK
 10
2178.628394758721
 20
7507.139446811723
 30
0.0
  0
VERTEX
  8
DIK
 10
2178.628394758721
 20
7607.139446811722
 30
0.0
  0
VERTEX
  8
DIK
 10
2278.628394758721
 20
7607.139446811722
 30
0.0
  0
VERTEX
  8
DIK
 10
2278.628394758721
 20
7507.139446811723
 30
0.0
  0
SEQEND
  8
DIK
  0
POLYLINE
  8
DIK
 66
     1
 10
0.0
 20
0.0
 30
0.0
 70
     1
  0
VERTEX
  8
DIK
 10
2178.628394758721
 20
7607.139446811724
 30
0.0
  0
VERTEX
  8
DIK
 10
2278.628394758721
 20
7607.139446811724
 30
0.0
  0
VERTEX
  8
DIK
 10
2278.628394758721
 20
7507.139446811724
 30
0.0
  0
VERTEX
  8
DIK
 10
2178.628394758721
 20
7507.139446811724
 30
0.0
  0
SEQEND
  8
DIK
  0
ARC
  8
DIK
 10
2178.628394758721
 20
7557.139446811724
 30
0.0
 40
17.5
 50
90.0
 51
270.0
  0
LINE
  8
DIK
 10
2207.628394758721
 20
7714.639446811723
 30
0.0
 11
2207.628394758721
 21
7607.139446811724
 31
0.0
  0
LINE
  8
DIK
 10
2278.628394758721
 20
7858.611309387868
 30
0.0
 11
2530.100257334865
 21
7607.139446811722
 31
0.0
  0
ARC
  8
DIK
 10
2378.628394758721
 20
7557.139446811723
 30
0.0
 40
17.5
 50
270.0
 51
90.0
  0
POLYLINE
  8
DIK
 66
     1
 10
0.0
 20
0.0
 30
0.0
  0
VERTEX
  8
DIK
 10
2278.628394758721
 20
7707.13944681172
 30
0.0
  0
VERTEX
  8
DIK
 10
2249.628394758721
 20
7707.13944681172
 30
0.0
  0
SEQEND
  8
DIK
  0
LINE
  8
DIK
 10
2378.628394758721
 20
7507.139446811723
 30
0.0
 11
2378.628394758721
 21
7607.139446811722
 31
0.0
  0
LINE
  8
DIK
 10
2278.628394758721
 20
7507.139446811723
 30
0.0
 11
2378.628394758721
 21
7507.139446811723
 31
0.0
  0
LINE
  8
DIK
 10
2278.628394758721
 20
7707.139446811723
 30
0.0
 11
2278.628394758721
 21
7607.139446811722
 31
0.0
  0
LINE
  8
DIK
 10
2249.628394758721
 20
7714.639446811723
 30
0.0
 11
2249.628394758721
 21
7607.139446811724
 31
0.0
  0
LINE
  8
DIK
 10
2278.628394758721
 20
7646.479275031905
 30
0.0
 11
2317.968222978902
 21
7607.139446811722
 31
0.0
  0
LINE
  8
DIK
 10
2278.628394758721
 20
7897.139446811721
 30
0.0
 11
2249.628394758721
 21
7897.139446811721
 31
0.0
  0
LINE
  8
DIK
 10
2278.628394758721
 20
7847.139446811722
 30
0.0
 11
2249.628394758721
 21
7847.139446811722
 31
0.0
  0
LINE
  8
DIK
 10
3307.628394758721
 20
6107.139446811722
 30
0.0
 11
3307.628394758721
 21
7507.139446811723
 31
0.0
  0
LINE
  8
DIK
 10
3349.628394758721
 20
6107.139446811722
 30
0.0
 11
3349.62839475872
 21
7507.139446811723
 31
0.0
  0
LINE
  8
DIK
 10
3278.628394758721
 20
6107.139446811722
 30
0.0
 11
3378.628394758721
 21
6107.139446811722
 31
0.0
  0
LINE
  8
DIK
 10
3378.628394758721
 20
6007.139446811722
 30
0.0
 11
3278.628394758721
 21
6007.139446811722
 31
0.0
  0
LINE
  8
DIK
 10
3278.628394758721
 20
6007.139446811722
 30
0.0
 11
3278.628394758721
 21
6107.139446811722
 31
0.0
  0
LINE
  8
DIK
 10
3378.628394758721
 20
6107.139446811722
 30
0.0
 11
3378.628394758721
 21
6007.139446811722
 31
0.0
  0
ARC
  8
DIK
 10
3328.628394758721
 20
6007.139446811722
 30
0.0
 40
17.5
 50
180.0
 51
0.0
  0
POLYLINE
  8
DIK
 66
     1
 10
0.0
 20
0.0
 30
0.0
  0
VERTEX
  8
DIK
 10
3349.62839475872
 20
7407.139446811719
 30
0.0
  0
VERTEX
  8
DIK
 10
3628.628394758721
 20
7407.139446811719
 30
0.0
  0
VERTEX
  8
DIK
 10
3628.628394758721
 20
7707.13944681172
 30
0.0
  0
VERTEX
  8
DIK
 10
3368.577888419886
 20
7707.13944681172
 30
0.0
  0
SEQEND
  8
DIK
  0
LINE
  8
DIK
 10
3344.109238243711
 20
7682.670796635545
 30
0.0
 11
3202.687882006401
 21
7824.092152872855
 31
0.0
  0
LINE
  8
DIK
 10
3373.807723053547
 20
7712.369281445381
 30
0.0
 11
3232.386366816238
 21
7853.790637682692
 31
0.0
  0
POLYLINE
  8
DIK
 66
     1
 10
0.0
 20
0.0
 30
0.0
  0
VERTEX
  8
DIK
 10
3319.640588067536
 20
7707.13944681172
 30
0.0
  0
VERTEX
  8
DIK
 10
3278.628394758721
 20
7707.13944681172
 30
0.0
  0
SEQEND
  8
DIK
  0
LINE
  8
DIK
 10
3319.640588067536
 20
7707.13944681172
 30
0.0
 11
3278.628394758721
 21
7707.139446811723
 31
0.0
  0
LINE
  8
DIK
 10
3278.628394758721
 20
7607.139446811722
 30
0.0
 11
3378.628394758721
 21
7607.139446811722
 31
0.0
  0
LINE
  8
DIK
 10
3378.628394758721
 20
7507.139446811723
 30
0.0
 11
3278.628394758721
 21
7507.139446811723
 31
0.0
  0
LINE
  8
DIK
 10
3278.628394758721
 20
7507.139446811723
 30
0.0
 11
3278.628394758721
 21
7707.139446811723
 31
0.0
  0
LINE
  8
DIK
 10
3378.62839475872
 20
7707.13944681172
 30
0.0
 11
3368.577888419886
 21
7707.13944681172
 31
0.0
  0
LINE
  8
DIK
 10
3344.10923824371
 20
7682.670796635545
 30
0.0
 11
3373.807723053547
 21
7712.369281445381
 31
0.0
  0
LINE
  8
DIK
 10
3378.628394758721
 20
7607.139446811722
 30
0.0
 11
3378.628394758721
 21
7507.139446811723
 31
0.0
  0
ARC
  8
DIK
 10
3328.628394758721
 20
7607.139446811722
 30
0.0
 40
17.5
 50
0.0
 51
180.0
  0
LINE
  8
DIK
 10
3378.628394758721
 20
7607.139446811722
 30
0.0
 11
3378.62839475872
 21
7707.13944681172
 31
0.0
  0
LINE
  8
DIK
 10
3341.280811118967
 20
7927.329742926093
 30
0.0
 11
3270.570133000312
 21
7856.619064807437
 31
0.0
  0
ARC
  8
DIK
 10
3288.247802529973
 20
7980.362751515087
 30
0.0
 40
17.5
 50
314.999999999994
 51
135.000000000006
  0
LINE
  8
DIK
 10
2207.628394758721
 20
8367.139446811719
 30
0.0
 11
43.218277614217
 21
8367.139446811718
 31
0.0
  0
LINE
  8
DIK
 10
2207.628394758721
 20
8317.139446811721
 30
0.0
 11
43.218277614217
 21
8317.139446811719
 31
0.0
  0
LINE
  8
DIK
 10
-961.835676448855
 20
12421.10218938955
 30
0.0
 11
-961.835676448855
 21
10058.36048959261
 31
0.0
  0
LINE
  8
STREEPLIJN
 10
-961.835676448855
 20
10058.36048959261
 30
0.0
 11
-961.835676448855
 21
8558.360489592613
 31
0.0
  0
POLYLINE
  8
DIK
 66
     1
 10
0.0
 20
0.0
 30
0.0
  0
VERTEX
  8
DIK
 10
-56.781722385786
 20
8407.139446811719
 30
0.0
  0
VERTEX
  8
DIK
 10
243.218277614214
 20
8407.139446811719
 30
0.0
  0
VERTEX
  8
DIK
 10
243.218277614214
 20
8367.139446811719
 30
0.0
  0
SEQEND
  8
DIK
  0
LINE
  8
DIK
 10
43.218277614217
 20
8317.139446811721
 30
0.0
 11
43.218277614217
 21
8367.139446811719
 31
0.0
  0
POLYLINE
  8
DIK
 66
     1
 10
0.0
 20
0.0
 30
0.0
 70
     1
  0
VERTEX
  8
DIK
 10
1928.628394758721
 20
9907.139446811722
 30
0.0
  0
VERTEX
  8
DIK
 10
1928.628394758721
 20
9607.139446811721
 30
0.0
  0
VERTEX
  8
DIK
 10
2528.628394758721
 20
9607.139446811721
 30
0.0
  0
VERTEX
  8
DIK
 10
2528.628394758721
 20
9907.139446811722
 30
0.0
  0
SEQEND
  8
DIK
  0
POLYLINE
  8
DIK
 66
     1
 10
0.0
 20
0.0
 30
0.0
  0
VERTEX
  8
DIK
 10
2207.628394758721
 20
8807.139446811724
 30
0.0
  0
VERTEX
  8
DIK
 10
1928.628394758722
 20
8807.139446811724
 30
0.0
  0
VERTEX
  8
DIK
 10
1928.628394758722
 20
8507.139446811725
 30
0.0
  0
VERTEX
  8
DIK
 10
2207.628394758721
 20
8507.139446811725
 30
0.0
  0
SEQEND
  8
DIK
  0
LINE
  8
DIK
 10
2207.62839475872
 20
9215.139446811722
 30
0.0
 11
2207.62839475872
 21
9707.139446811723
 31
0.0
  0
LINE
  8
DIK
 10
2249.628394758721
 20
9215.139446811722
 30
0.0
 11
2249.628394758721
 21
9707.139446811723
 31
0.0
  0
LINE
  8
DIK
 10
2528.108012754437
 20
8599.081185053313
 30
0.0
 11
2598.818690873092
 21
8669.791863171971
 31
0.0
  0
POLYLINE
  8
DIK
 66
     1
 10
0.0
 20
0.0
 30
0.0
 70
     1
  0
VERTEX
  8
DIK
 10
2545.785682284104
 20
8439.982159286341
 30
0.0
  0
VERTEX
  8
DIK
 10
2475.075004165449
 20
8510.692837404995
 30
0.0
  0
VERTEX
  8
DIK
 10
2545.785682284104
 20
8581.403515523652
 30
0.0
  0
VERTEX
  8
DIK
 10
2616.496360402758
 20
8510.692837404995
 30
0.0
  0
SEQEND
  8
DIK
  0
LINE
  8
DIK
 10
2207.628394758721
 20
8707.139446811721
 30
0.0
 11
2207.628394758721
 21
9199.139446811722
 31
0.0
  0
LINE
  8
DIK
 10
2249.628394758721
 20
8707.139446811721
 30
0.0
 11
2249.628394758721
 21
9199.139446811722
 31
0.0
  0
POLYLINE
  8
DIK
 66
     1
 10
0.0
 20
0.0
 30
0.0
  0
VERTEX
  8
DIK
 10
2528.628394758723
 20
8598.560803049025
 30
0.0
  0
VERTEX
  8
DIK
 10
2528.628394758722
 20
8807.139446811724
 30
0.0
  0
VERTEX
  8
DIK
 10
2249.628394758721
 20
8807.139446811724
 30
0.0
  0
SEQEND
  8
DIK
  0
LINE
  8
DIK
 10
2178.628394758721
 20
8707.139446811721
 30
0.0
 11
2278.628394758721
 21
8707.139446811721
 31
0.0
  0
POLYLINE
  8
DIK
 66
     1
 10
0.0
 20
0.0
 30
0.0
 70
     1
  0
VERTEX
  8
DIK
 10
2178.628394758721
 20
8707.139446811721
 30
0.0
  0
VERTEX
  8
DIK
 10
2278.628394758721
 20
8707.139446811721
 30
0.0
  0
VERTEX
  8
DIK
 10
2278.628394758721
 20
8607.139446811721
 30
0.0
  0
VERTEX
  8
DIK
 10
2178.628394758721
 20
8607.139446811721
 30
0.0
  0
SEQEND
  8
DIK
  0
LINE
  8
DIK
 10
2378.628394758721
 20
8607.139446811721
 30
0.0
 11
2178.628394758721
 21
8607.139446811721
 31
0.0
  0
ARC
  8
DIK
 10
2228.628394758721
 20
8707.139446811721
 30
0.0
 40
17.5
 50
0.0
 51
180.0
  0
POLYLINE
  8
DIK
 66
     1
 10
0.0
 20
0.0
 30
0.0
 70
     1
  0
VERTEX
  8
DIK
 10
2178.628394758721
 20
8464.639446811721
 30
0.0
  0
VERTEX
  8
DIK
 10
2278.628394758721
 20
8464.639446811721
 30
0.0
  0
VERTEX
  8
DIK
 10
2278.628394758721
 20
8499.639446811722
 30
0.0
  0
VERTEX
  8
DIK
 10
2178.628394758721
 20
8499.639446811722
 30
0.0
  0
SEQEND
  8
DIK
  0
LINE
  8
DIK
 10
2178.628394758721
 20
8607.139446811721
 30
0.0
 11
2178.628394758721
 21
8707.139446811721
 31
0.0
  0
ARC
  8
DIK
 10
2178.628394758721
 20
8657.139446811722
 30
0.0
 40
17.5
 50
90.0
 51
270.0
  0
LINE
  8
DIK
 10
2207.628394758721
 20
8607.139446811721
 30
0.0
 11
2207.628394758721
 21
8499.639446811722
 31
0.0
  0
LINE
  8
DIK
 10
2278.628394758721
 20
8367.139446811721
 30
0.0
 11
2249.628394758721
 21
8367.139446811721
 31
0.0
  0
LINE
  8
DIK
 10
2278.628394758721
 20
8317.139446811721
 30
0.0
 11
2249.628394758721
 21
8317.139446811721
 31
0.0
  0
LINE
  8
DIK
 10
2525.279585629693
 20
8560.897418869242
 30
0.0
 11
2383.858229392385
 21
8702.318775106551
 31
0.0
  0
LINE
  8
DIK
 10
2495.581100819859
 20
8531.198934059405
 30
0.0
 11
2354.15974458255
 21
8672.620290296714
 31
0.0
  0
POLYLINE
  8
DIK
 66
     1
 10
0.0
 20
0.0
 30
0.0
  0
VERTEX
  8
DIK
 10
2249.628394758721
 20
8507.139446811725
 30
0.0
  0
VERTEX
  8
DIK
 10
2278.628394758721
 20
8507.139446811725
 30
0.0
  0
SEQEND
  8
DIK
  0
LINE
  8
DIK
 10
2378.628394758721
 20
8697.088940472886
 30
0.0
 11
2378.628394758721
 21
8707.139446811721
 31
0.0
  0
LINE
  8
DIK
 10
2378.628394758721
 20
8607.139446811721
 30
0.0
 11
2378.628394758721
 21
8648.151640120543
 31
0.0
  0
LINE
  8
DIK
 10
2354.159744582549
 20
8672.620290296714
 30
0.0
 11
2383.858229392386
 21
8702.318775106551
 31
0.0
  0
ARC
  8
DIK
 10
2378.628394758721
 20
8657.139446811722
 30
0.0
 40
17.5
 50
270.0
 51
293.705472997916
  0
LINE
  8
DIK
 10
2278.628394758721
 20
8707.139446811721
 30
0.0
 11
2278.628394758721
 21
8607.139446811721
 31
0.0
  0
LINE
  8
DIK
 10
2378.628394758721
 20
8707.139446811721
 30
0.0
 11
2278.628394758721
 21
8707.139446811721
 31
0.0
  0
LINE
  8
DIK
 10
2249.628394758721
 20
8607.139446811721
 30
0.0
 11
2249.628394758721
 21
8499.639446811722
 31
0.0
  0
POLYLINE
  8
DIK
 66
     1
 10
0.0
 20
0.0
 30
0.0
  0
VERTEX
  8
DIK
 10
2528.628394758722
 20
8564.246227998271
 30
0.0
  0
VERTEX
  8
DIK
 10
2528.628394758722
 20
8598.560803049029
 30
0.0
  0
SEQEND
  8
DIK
  0
LINE
  8
DIK
 10
2199.62839475872
 20
9215.139446811722
 30
0.0
 11
2257.628394758721
 21
9215.139446811722
 31
0.0
  0
LINE
  8
DIK
 10
2199.62839475872
 20
9199.139446811722
 30
0.0
 11
2257.628394758721
 21
9199.139446811722
 31
0.0
  0
LINE
  8
DIK
 10
2199.628394758721
 20
9199.139446811722
 30
0.0
 11
2199.62839475872
 21
9215.13944681172
 31
0.0
  0
LINE
  8
DIK
 10
2257.628394758721
 20
9199.139446811722
 30
0.0
 11
2257.62839475872
 21
9215.13944681172
 31
0.0
  0
ARC
  8
DIK
 10
2652.390135207675
 20
8616.220418837384
 30
0.0
 40
17.5
 50
314.999999999994
 51
135.000000000006
  0
ARC
  8
DIK
 10
2228.628394758721
 20
9807.139446811724
 30
0.0
 40
17.5
 50
0.000000000006
 51
179.999999999994
  0
LINE
  8
DIK
 10
2178.628394758721
 20
9807.139446811724
 30
0.0
 11
2278.628394758721
 21
9807.139446811724
 31
0.0
  0
LINE
  8
DIK
 10
2278.628394758721
 20
9707.139446811723
 30
0.0
 11
2178.628394758721
 21
9707.139446811723
 31
0.0
  0
LINE
  8
DIK
 10
2178.628394758721
 20
9707.139446811723
 30
0.0
 11
2178.628394758721
 21
9807.139446811724
 31
0.0
  0
LINE
  8
DIK
 10
2278.628394758721
 20
9807.139446811724
 30
0.0
 11
2278.628394758721
 21
9707.139446811723
 31
0.0
  0
LINE
  8
STREEPLIJN
 10
-5161.835676448856
 20
15358.36048959261
 30
0.0
 11
-2061.835676448849
 21
15358.36048959262
 31
0.0
  0
ENDBLK
  8
0
  0
BLOCK
  8
0
  2
*X34
 70
    65
 10
0.0
 20
0.0
 30
0.0
  3
*X
  0
LINE
  8
0
 62
     0
 10
15927.67466792467
 20
4998.364347342348
 30
0.0
 11
15939.32766125242
 21
5012.251844005175
 31
0.0
  0
LINE
  8
0
 62
     0
 10
15941.86220814453
 20
4998.364347342348
 30
0.0
 11
15939.32058127112
 21
5012.143493649947
 31
0.0
  0
LINE
  8
0
 62
     0
 10
16025.8581436559
 20
5056.845299006559
 30
0.0
 11
16043.64285078067
 21
5063.672208445397
 31
0.0
  0
LINE
  8
0
 62
     0
 10
16239.27462915316
 20
5138.768212272615
 30
0.0
 11
16257.05933627794
 21
5145.595121711452
 31
0.0
  0
LINE
  8
0
 62
     0
 10
16025.85011203798
 20
5056.837368184133
 30
0.0
 11
16038.48464464371
 21
5048.315268335239
 31
0.0
  0
LINE
  8
0
 62
     0
 10
16239.26653165449
 20
5138.760136119722
 30
0.0
 11
16251.90106426023
 21
5130.238036270829
 31
0.0
  0
LINE
  8
0
 62
     0
 10
16038.48885695864
 20
5048.322199525956
 30
0.0
 11
16043.63904067698
 21
5063.671196485604
 31
0.0
  0
LINE
  8
0
 62
     0
 10
16251.90534772876
 20
5130.245057242013
 30
0.0
 11
16257.05553144711
 21
5145.594054201661
 31
0.0
  0
LINE
  8
0
 62
     0
 10
15858.67976786629
 20
5018.691868387864
 30
0.0
 11
15858.67976786629
 21
5018.691868387864
 31
0.0
  0
LINE
  8
0
 62
     0
 10
15993.69263931706
 20
5122.290888376568
 30
0.0
 11
15993.69263931706
 21
5122.290888376568
 31
0.0
  0
LINE
  8
0
 62
     0
 10
15861.76837111689
 20
5103.246907261018
 30
0.0
 11
15861.76837111689
 21
5103.246907261018
 31
0.0
  0
LINE
  8
0
 62
     0
 10
15990.60403606647
 20
5037.735849503417
 30
0.0
 11
15990.60403606647
 21
5037.735849503417
 31
0.0
  0
LINE
  8
0
 62
     0
 10
16124.10556940397
 20
5140.175178969859
 30
0.0
 11
16124.10556940397
 21
5140.175178969859
 31
0.0
  0
LINE
  8
0
 62
     0
 10
16121.01696615338
 20
5055.620140096704
 30
0.0
 11
16121.01696615338
 21
5055.620140096704
 31
0.0
  0
LINE
  8
0
 62
     0
 10
16249.31402288174
 20
5071.880863958829
 30
0.0
 11
16249.31402288174
 21
5071.880863958829
 31
0.0
  0
LINE
  8
0
 62
     0
 10
15909.97757324421
 20
5110.247062979855
 30
0.0
 11
15909.97757324421
 21
5110.247062979855
 31
0.0
  0
LINE
  8
0
 62
     0
 10
15973.56388942842
 20
5118.618360317888
 30
0.0
 11
15973.56388942842
 21
5118.618360317888
 31
0.0
  0
LINE
  8
0
 62
     0
 10
16069.76180143779
 20
5131.283055696615
 30
0.0
 11
16069.76180143779
 21
5131.283055696615
 31
0.0
  0
LINE
  8
0
 62
     0
 10
16360.58157581287
 20
5260.953804701587
 30
0.0
 11
16360.58157581287
 21
5260.953804701587
 31
0.0
  0
LINE
  8
0
 62
     0
 10
15787.00519057488
 20
5276.824640388547
 30
0.0
 11
15787.00519057488
 21
5276.824640388547
 31
0.0
  0
LINE
  8
0
 62
     0
 10
15843.1579107339
 20
5010.066488161736
 30
0.0
 11
15843.1579107339
 21
5010.066488161736
 31
0.0
  0
LINE
  8
0
 62
     0
 10
15906.74422691811
 20
5018.437785499769
 30
0.0
 11
15906.74422691811
 21
5018.437785499769
 31
0.0
  0
LINE
  8
0
 62
     0
 10
16002.94213892749
 20
5031.102480878495
 30
0.0
 11
16002.94213892749
 21
5031.102480878495
 31
0.0
  0
LINE
  8
0
 62
     0
 10
16163.35593460805
 20
5052.221357727316
 30
0.0
 11
16163.35593460805
 21
5052.221357727316
 31
0.0
  0
LINE
  8
0
 62
     0
 10
16226.94225079226
 20
5060.59265506535
 30
0.0
 11
16226.94225079226
 21
5060.59265506535
 31
0.0
  0
LINE
  8
0
 62
     0
 10
16323.14016280164
 20
5073.257350444076
 30
0.0
 11
16323.14016280164
 21
5073.257350444076
 31
0.0
  0
LINE
  8
0
 62
     0
 10
16109.08223751946
 20
5105.828284027206
 30
0.0
 11
16109.08223751946
 21
5105.828284027206
 31
0.0
  0
LINE
  8
0
 62
     0
 10
16162.63759432858
 20
5071.709758897184
 30
0.0
 11
16162.63759432858
 21
5071.709758897184
 31
0.0
  0
LINE
  8
0
 62
     0
 10
16244.67283268633
 20
5100.099540034535
 30
0.0
 11
16244.67283268633
 21
5100.099540034535
 31
0.0
  0
LINE
  8
0
 62
     0
 10
16298.22818949545
 20
5065.981014904512
 30
0.0
 11
16298.22818949545
 21
5065.981014904512
 31
0.0
  0
LINE
  8
0
 62
     0
 10
15973.49164235259
 20
5111.557028019881
 30
0.0
 11
15973.49164235259
 21
5111.557028019881
 31
0.0
  0
LINE
  8
0
 62
     0
 10
16027.04699916171
 20
5077.438502889858
 30
0.0
 11
16027.04699916171
 21
5077.438502889858
 31
0.0
  0
LINE
  8
0
 62
     0
 10
15891.45640399484
 20
5083.167246882531
 30
0.0
 11
15891.45640399484
 21
5083.167246882531
 31
0.0
  0
LINE
  8
0
 62
     0
 10
15773.7704791079
 20
5293.735695458747
 30
0.0
 11
15773.7704791079
 21
5293.735695458747
 31
0.0
  0
LINE
  8
0
 62
     0
 10
16069.28008302944
 20
5022.951033163899
 30
0.0
 11
16069.28008302944
 21
5022.951033163899
 31
0.0
  0
LINE
  8
0
 62
     0
 10
16217.40926441546
 20
5048.377524197232
 30
0.0
 11
16217.40926441546
 21
5048.377524197232
 31
0.0
  0
LINE
  8
0
 62
     0
 10
15783.50859563434
 20
5123.650477990334
 30
0.0
 11
15783.50859563434
 21
5123.650477990334
 31
0.0
  0
ENDBLK
  8
0
  0
BLOCK
  8
0
  2
*X35
 70
    65
 10
0.0
 20
0.0
 30
0.0
  3
*X
  0
LINE
  8
0
 62
     0
 10
3109.636446611995
 20
7434.853516199383
 30
0.0
 11
3121.881550576524
 21
7449.4466628408
 31
0.0
  0
LINE
  8
0
 62
     0
 10
3291.821115607999
 20
7418.914430660481
 30
0.0
 11
3304.066219572528
 21
7433.507577301896
 31
0.0
  0
LINE
  8
0
 62
     0
 10
3438.762363182342
 20
7594.032190357479
 30
0.0
 11
3451.00746714687
 21
7608.625336998896
 31
0.0
  0
LINE
  8
0
 62
     0
 10
3477.499880796388
 20
7407.139446811719
 30
0.0
 11
3486.250888568532
 21
7417.568491762993
 31
0.0
  0
LINE
  8
0
 62
     0
 10
3620.947032178346
 20
7578.093104818575
 30
0.0
 11
3628.628394758721
 21
7587.247396269755
 31
0.0
  0
LINE
  8
0
 62
     0
 10
3028.628394758721
 20
5939.961963391319
 30
0.0
 11
3039.459583957805
 21
5952.870072031394
 31
0.0
  0
LINE
  8
0
 62
     0
 10
3174.155727567619
 20
6113.394685086976
 30
0.0
 11
3186.400831532148
 21
6127.987831728393
 31
0.0
  0
LINE
  8
0
 62
     0
 10
3209.399148989281
 20
5922.337839851075
 30
0.0
 11
3221.644252953809
 21
5936.930986492492
 31
0.0
  0
LINE
  8
0
 62
     0
 10
3364.466109230928
 20
6107.139446811722
 30
0.0
 11
3368.585500528152
 21
6112.04874618949
 31
0.0
  0
LINE
  8
0
 62
     0
 10
3392.205332788471
 20
5907.139446811719
 30
0.0
 11
3403.828921949813
 21
5920.991900953588
 31
0.0
  0
LINE
  8
0
 62
     0
 10
3538.525065559627
 20
6081.51651400917
 30
0.0
 11
3550.770169524156
 21
6096.109660650586
 31
0.0
  0
LINE
  8
0
 62
     0
 10
2380.89777062798
 20
7498.609858354996
 30
0.0
 11
2393.142874592508
 21
7513.203004996412
 31
0.0
  0
LINE
  8
0
 62
     0
 10
2016.528432635972
 20
7530.488029432803
 30
0.0
 11
2028.773536600501
 21
7545.08117607422
 31
0.0
  0
LINE
  8
0
 62
     0
 10
2163.469680210315
 20
7705.605789129802
 30
0.0
 11
2164.756571805565
 21
7707.13944681172
 31
0.0
  0
LINE
  8
0
 62
     0
 10
2498.56315866836
 20
8804.129603928499
 30
0.0
 11
2501.088716721577
 21
8807.139446811724
 31
0.0
  0
LINE
  8
0
 62
     0
 10
1987.25257310201
 20
8660.890015309307
 30
0.0
 11
1999.497677066538
 21
8675.483161950724
 31
0.0
  0
LINE
  8
0
 62
     0
 10
2504.530720556058
 20
9743.474744569104
 30
0.0
 11
2516.775824520586
 21
9758.06789121052
 31
0.0
  0
LINE
  8
0
 62
     0
 10
2322.346051560054
 20
9759.413830108009
 30
0.0
 11
2334.591155524582
 21
9774.006976749426
 31
0.0
  0
LINE
  8
0
 62
     0
 10
1999.013522905393
 20
9607.139446811721
 30
0.0
 11
2005.465238954236
 21
9614.828302591329
 31
0.0
  0
LINE
  8
0
 62
     0
 10
2140.16138256405
 20
9775.352915646911
 30
0.0
 11
2152.406486528578
 21
9789.946062288327
 31
0.0
  0
LINE
  8
0
 62
     0
 10
1957.976713568047
 20
9791.292001185814
 30
0.0
 11
1970.221817532575
 21
9805.885147827231
 31
0.0
  0
LINE
  8
0
 62
     0
 10
1987.268906884018
 20
8660.881370788622
 30
0.0
 11
2002.450914082936
 21
8659.553117269148
 31
0.0
  0
LINE
  8
0
 62
     0
 10
2498.578340069407
 20
8804.120886969725
 30
0.0
 11
2513.760347268325
 21
8802.792633450252
 31
0.0
  0
LINE
  8
0
 62
     0
 10
1957.996037417035
 20
9791.282185848011
 30
0.0
 11
1973.178044615953
 21
9789.953932328536
 31
0.0
  0
LINE
  8
0
 62
     0
 10
2140.180123804054
 20
9775.343143614321
 30
0.0
 11
2155.362131002972
 21
9774.014890094846
 31
0.0
  0
LINE
  8
0
 62
     0
 10
2322.364210191072
 20
9759.404101380628
 30
0.0
 11
2337.54621738999
 21
9758.075847861153
 31
0.0
  0
LINE
  8
0
 62
     0
 10
2504.54829657809
 20
9743.465059146936
 30
0.0
 11
2519.730303777008
 21
9742.136805627463
 31
0.0
  0
LINE
  8
0
 62
     0
 10
2163.483036762353
 20
7705.598156377725
 30
0.0
 11
2178.665043961272
 21
7704.26990285825
 31
0.0
  0
LINE
  8
0
 62
     0
 10
3438.771641471482
 20
7594.024860741883
 30
0.0
 11
3453.9536486704
 21
7592.69660722241
 31
0.0
  0
LINE
  8
0
 62
     0
 10
3620.9557278585
 20
7578.085818508192
 30
0.0
 11
3628.62839475872
 21
7577.414547135412
 31
0.0
  0
LINE
  8
0
 62
     0
 10
2016.541776351002
 20
7530.480555729236
 30
0.0
 11
2031.72378354992
 21
7529.152302209763
 31
0.0
  0
LINE
  8
0
 62
     0
 10
2380.909949125038
 20
7498.602471261852
 30
0.0
 11
2396.091956323957
 21
7497.274217742377
 31
0.0
  0
LINE
  8
0
 62
     0
 10
3109.646294673112
 20
7434.846302327085
 30
0.0
 11
3124.82830187203
 21
7433.518048807611
 31
0.0
  0
LINE
  8
0
 62
     0
 10
3291.830381060131
 20
7418.907260093395
 30
0.0
 11
3307.012388259049
 21
7417.57900657392
 31
0.0
  0
LINE
  8
0
 62
     0
 10
3174.161990115763
 20
6113.388844385518
 30
0.0
 11
3189.343997314681
 21
6112.060590866044
 31
0.0
  0
LINE
  8
0
 62
     0
 10
3538.530162889801
 20
6081.510759918134
 30
0.0
 11
3553.712170088719
 21
6080.18250639866
 31
0.0
  0
LINE
  8
0
 62
     0
 10
3028.628394758721
 20
5938.148089002736
 30
0.0
 11
3042.40273690333
 21
5936.942990217556
 31
0.0
  0
LINE
  8
0
 62
     0
 10
3209.40481609143
 20
5922.332201503338
 30
0.0
 11
3224.586823290348
 21
5921.003947983864
 31
0.0
  0
LINE
  8
0
 62
     0
 10
3042.446171195346
 20
5936.925290833195
 30
0.0
 11
3039.509393135998
 21
5952.846705174582
 31
0.0
  0
LINE
  8
0
 62
     0
 10
2337.619436951912
 20
9758.064732766154
 30
0.0
 11
2334.682658892564
 21
9773.986147107541
 31
0.0
  0
LINE
  8
0
 62
     0
 10
2513.826120512771
 20
8802.779872282915
 30
0.0
 11
2513.021976951791
 21
8807.139446811728
 31
0.0
  0
LINE
  8
0
 62
     0
 10
3224.630009573477
 20
5920.985006556838
 30
0.0
 11
3221.693231514129
 21
5936.906420898226
 31
0.0
  0
LINE
  8
0
 62
     0
 10
3189.388672861305
 20
6112.041978653486
 30
0.0
 11
3186.451894801957
 21
6127.963392994873
 31
0.0
  0
LINE
  8
0
 62
     0
 10
2519.803275330043
 20
9742.124448489798
 30
0.0
 11
2516.866497270696
 21
9758.045862831185
 31
0.0
  0
LINE
  8
0
 62
     0
 10
3406.427466383249
 20
5907.139446811719
 30
0.0
 11
3403.87706989226
 21
5920.96613662187
 31
0.0
  0
LINE
  8
0
 62
     0
 10
3124.883154254235
 20
7433.500499053667
 30
0.0
 11
3121.946376194887
 21
7449.421913395054
 31
0.0
  0
LINE
  8
0
 62
     0
 10
3369.536547066947
 20
6107.139446811722
 30
0.0
 11
3368.635733180088
 21
6112.023108718518
 31
0.0
  0
LINE
  8
0
 62
     0
 10
3553.756349617567
 20
6080.161410100775
 30
0.0
 11
3550.819571558219
 21
6096.082824442162
 31
0.0
  0
LINE
  8
0
 62
     0
 10
3307.066992632365
 20
7417.560214777311
 30
0.0
 11
3304.130214573017
 21
7433.481629118698
 31
0.0
  0
LINE
  8
0
 62
     0
 10
3488.232730856068
 20
7407.139446811719
 30
0.0
 11
3486.314052951148
 21
7417.541344842342
 31
0.0
  0
LINE
  8
0
 62
     0
 10
3454.009494298324
 20
7592.676902597602
 30
0.0
 11
3451.072716238976
 21
7608.59831693899
 31
0.0
  0
LINE
  8
0
 62
     0
 10
2155.43559857378
 20
9774.005017042512
 30
0.0
 11
2152.498820514432
 21
9789.926431383898
 31
0.0
  0
LINE
  8
0
 62
     0
 10
2396.14780074171
 20
7497.261636159092
 30
0.0
 11
2393.211022682363
 21
7513.183050500479
 31
0.0
  0
LINE
  8
0
 62
     0
 10
2006.971140341503
 20
9607.139446811721
 30
0.0
 11
2005.556318848474
 21
9614.809743563606
 31
0.0
  0
LINE
  8
0
 62
     0
 10
1973.25176019565
 20
9789.945301318867
 30
0.0
 11
1970.314982136302
 21
9805.866715660254
 31
0.0
  0
LINE
  8
0
 62
     0
 10
2002.515942090549
 20
8659.543753015334
 30
0.0
 11
1999.579164031201
 21
8675.465167356721
 31
0.0
  0
LINE
  8
0
 62
     0
 10
2178.722625651408
 20
7704.258892532095
 30
0.0
 11
2178.191294173829
 21
7707.139446811718
 31
0.0
  0
LINE
  8
0
 62
     0
 10
2031.780123985448
 20
7529.142204711804
 30
0.0
 11
2028.8433459261
 21
7545.063619053192
 31
0.0
  0
LINE
  8
0
 62
     0
 10
3123.288222483376
 20
7525.281751350901
 30
0.0
 11
3143.071900322903
 21
7545.900595065857
 31
0.0
  0
LINE
  8
0
 62
     0
 10
3394.367263375507
 20
7483.239423418174
 30
0.0
 11
3414.150941215034
 21
7503.85826713313
 31
0.0
  0
LINE
  8
0
 62
     0
 10
3028.628394758721
 20
6128.36610108068
 30
0.0
 11
3040.367393519804
 21
6140.600660437548
 31
0.0
  0
LINE
  8
0
 62
     0
 10
3562.741797464538
 20
6035.897160857137
 30
0.0
 11
3582.525475304065
 21
6056.516004572094
 31
0.0
  0
LINE
  8
0
 62
     0
 10
2075.67593438239
 20
7407.139446811721
 30
0.0
 11
2092.430643572189
 21
7424.60145428456
 31
0.0
  0
LINE
  8
0
 62
     0
 10
2038.972058914857
 20
7693.451063081809
 30
0.0
 11
2052.105994920198
 21
7707.13944681172
 31
0.0
  0
LINE
  8
0
 62
     0
 10
2446.430513427893
 20
8767.240217265181
 30
0.0
 11
2466.21419126742
 21
8787.859060980137
 31
0.0
  0
LINE
  8
0
 62
     0
 10
1937.947338461439
 20
8561.856420618429
 30
0.0
 11
1957.731016300966
 21
8582.475264333385
 31
0.0
  0
LINE
  8
0
 62
     0
 10
2345.405792974474
 20
9635.645574801808
 30
0.0
 11
2365.189470814001
 21
9656.264418516762
 31
0.0
  0
LINE
  8
0
 62
     0
 10
2074.326752082345
 20
9677.687902734533
 30
0.0
 11
2094.110429921872
 21
9698.306746449489
 31
0.0
  0
LINE
  8
0
 62
     0
 10
2469.022835749351
 20
8763.717378625058
 30
0.0
 11
2466.21659841465
 21
8787.839697274419
 31
0.0
  0
LINE
  8
0
 62
     0
 10
2367.998291700129
 20
9632.120850002072
 30
0.0
 11
2365.192054365429
 21
9656.243168651432
 31
0.0
  0
LINE
  8
0
 62
     0
 10
3043.175550379658
 20
6116.46469659173
 30
0.0
 11
3040.369313044958
 21
6140.587015241091
 31
0.0
  0
LINE
  8
0
 62
     0
 10
3145.880392780267
 20
7521.761547651131
 30
0.0
 11
3143.074155445566
 21
7545.883866300493
 31
0.0
  0
LINE
  8
0
 62
     0
 10
3585.333715344946
 20
6032.380160787153
 30
0.0
 11
3582.527478010245
 21
6056.502479436514
 31
0.0
  0
LINE
  8
0
 62
     0
 10
3416.95947526291
 20
7479.719279748842
 30
0.0
 11
3414.15323792821
 21
7503.841598398203
 31
0.0
  0
LINE
  8
0
 62
     0
 10
2096.919209217485
 20
9674.16311790436
 30
0.0
 11
2094.112971882785
 21
9698.285436553721
 31
0.0
  0
LINE
  8
0
 62
     0
 10
2197.943753266707
 20
8805.759646527347
 30
0.0
 11
2197.783236065656
 21
8807.139446811724
 31
0.0
  0
LINE
  8
0
 62
     0
 10
2094.462191656637
 20
7407.139446811721
 30
0.0
 11
2092.432673531396
 21
7424.585114117308
 31
0.0
  0
LINE
  8
0
 62
     0
 10
2061.56406284969
 20
7689.930619260285
 30
0.0
 11
2059.562097157121
 21
7707.13944681172
 31
0.0
  0
LINE
  8
0
 62
     0
 10
1960.539518800469
 20
8558.334090637298
 30
0.0
 11
1957.733281465768
 21
8582.456409286658
 31
0.0
  0
LINE
  8
0
 62
     0
 10
1937.961188024127
 20
8561.834169824612
 30
0.0
 11
1960.551111324993
 21
8558.330605174004
 31
0.0
  0
LINE
  8
0
 62
     0
 10
2189.033885486872
 20
8807.139446811724
 30
0.0
 11
2197.955717138927
 21
8805.7557230346
 31
0.0
  0
LINE
  8
0
 62
     0
 10
2446.444873448452
 20
8767.216511877904
 30
0.0
 11
2469.034796749318
 21
8763.712947227295
 31
0.0
  0
LINE
  8
0
 62
     0
 10
2074.342372448689
 20
9677.662968688913
 30
0.0
 11
2096.932295749555
 21
9674.159404038306
 31
0.0
  0
LINE
  8
0
 62
     0
 10
2345.42145205908
 20
9635.62019288161
 30
0.0
 11
2368.011375359946
 21
9632.116628231001
 31
0.0
  0
LINE
  8
0
 62
     0
 10
2038.984609413499
 20
7693.430488820908
 30
0.0
 11
2061.574532714365
 21
7689.926924170299
 31
0.0
  0
LINE
  8
0
 62
     0
 10
3394.380007465454
 20
7483.216609784386
 30
0.0
 11
3416.969930766319
 21
7479.713045133778
 31
0.0
  0
LINE
  8
0
 62
     0
 10
3123.300927855063
 20
7525.259385591691
 30
0.0
 11
3145.890851155929
 21
7521.755820941083
 31
0.0
  0
LINE
  8
0
 62
     0
 10
3028.628394758721
 20
6118.716639231764
 30
0.0
 11
3043.184140527825
 21
6116.459128408878
 31
0.0
  0
LINE
  8
0
 62
     0
 10
3562.752376447741
 20
6035.877141444879
 30
0.0
 11
3585.342299748607
 21
6032.37357679427
 31
0.0
  0
LINE
  8
0
 62
     0
 10
1980.817981307055
 20
7528.245395080195
 30
0.0
 11
1998.602688431827
 21
7535.072304519033
 31
0.0
  0
LINE
  8
0
 62
     0
 10
2194.234466804314
 20
7610.168308346251
 30
0.0
 11
2207.62839475872
 21
7615.309755575803
 31
0.0
  0
LINE
  8
0
 62
     0
 10
2132.432861142438
 20
7425.979876563431
 30
0.0
 11
2150.217568267209
 21
7432.806786002269
 31
0.0
  0
LINE
  8
0
 62
     0
 10
2501.377527440765
 20
7407.139446811719
 30
0.0
 11
2515.248933599854
 21
7412.464180751563
 31
0.0
  0
LINE
  8
0
 62
     0
 10
3075.912077304985
 20
7467.217579328074
 30
0.0
 11
3093.696784429757
 21
7474.044488766912
 31
0.0
  0
LINE
  8
0
 62
     0
 10
3502.745048299506
 20
7631.063405860186
 30
0.0
 11
3520.529755424278
 21
7637.890315299024
 31
0.0
  0
LINE
  8
0
 62
     0
 10
3440.943442637629
 20
7446.874974077368
 30
0.0
 11
3458.728149762401
 21
7453.701883516207
 31
0.0
  0
LINE
  8
0
 62
     0
 10
3159.947082839873
 20
6055.290433080878
 30
0.0
 11
3177.731789964645
 21
6062.117342519717
 31
0.0
  0
LINE
  8
0
 62
     0
 10
3373.363568337133
 20
6137.213346346935
 30
0.0
 11
3391.148275461905
 21
6144.040255785772
 31
0.0
  0
LINE
  8
0
 62
     0
 10
3311.561962675256
 20
5953.024914564115
 30
0.0
 11
3329.346669800028
 21
5959.851824002953
 31
0.0
  0
LINE
  8
0
 62
     0
 10
3524.978448172517
 20
6034.94782783017
 30
0.0
 11
3542.763155297289
 21
6041.774737269008
 31
0.0
  0
LINE
  8
0
 62
     0
 10
2138.211129781056
 20
8551.453072511048
 30
0.0
 11
2155.995836905828
 21
8558.279981949885
 31
0.0
  0
LINE
  8
0
 62
     0
 10
1986.596249945673
 20
8653.718591027809
 30
0.0
 11
2004.380957070445
 21
8660.545500466648
 31
0.0
  0
LINE
  8
0
 62
     0
 10
2200.012735442934
 20
8735.641504293864
 30
0.0
 11
2207.628394758722
 21
8738.564882008279
 31
0.0
  0
LINE
  8
0
 62
     0
 10
2509.020763752319
 20
9656.583663207955
 30
0.0
 11
2526.80547087709
 21
9663.410572646794
 31
0.0
  0
LINE
  8
0
 62
     0
 10
2143.989398419675
 20
9676.926268458664
 30
0.0
 11
2161.774105544446
 21
9683.7531778975
 31
0.0
  0
LINE
  8
0
 62
     0
 10
2357.405883916936
 20
9758.849181724718
 30
0.0
 11
2375.190591041707
 21
9765.676091163555
 31
0.0
  0
LINE
  8
0
 62
     0
 10
1992.374518584292
 20
9779.191786975427
 30
0.0
 11
2010.159225709064
 21
9786.018696414267
 31
0.0
  0
LINE
  8
0
 62
     0
 10
2205.791004081552
 20
9861.114700241483
 30
0.0
 11
2223.575711206324
 21
9867.94160968032
 31
0.0
  0
LINE
  8
0
 62
     0
 10
3440.959175293152
 20
7446.85655232608
 30
0.0
 11
3453.593707898891
 21
7438.334452477185
 31
0.0
  0
LINE
  8
0
 62
     0
 10
1986.617290952139
 20
8653.696500315701
 30
0.0
 11
1999.251823557878
 21
8645.174400466805
 31
0.0
  0
LINE
  8
0
 62
     0
 10
2138.231682221005
 20
8551.431302128969
 30
0.0
 11
2150.866214826744
 21
8542.909202280075
 31
0.0
  0
LINE
  8
0
 62
     0
 10
3502.7612036408
 20
7631.0445184484
 30
0.0
 11
3515.395736246539
 21
7622.522418599506
 31
0.0
  0
LINE
  8
0
 62
     0
 10
2200.033710568652
 20
8735.619268251289
 30
0.0
 11
2207.628394758721
 21
8730.49658908236
 31
0.0
  0
LINE
  8
0
 62
     0
 10
1992.398650152641
 20
9779.166727300754
 30
0.0
 11
2005.03318275838
 21
9770.644627451861
 31
0.0
  0
LINE
  8
0
 62
     0
 10
2144.013041421507
 20
9676.901529114026
 30
0.0
 11
2156.647574027246
 21
9668.379429265129
 31
0.0
  0
LINE
  8
0
 62
     0
 10
2205.815069769153
 20
9861.089495236344
 30
0.0
 11
2218.449602374892
 21
9852.567395387449
 31
0.0
  0
LINE
  8
0
 62
     0
 10
2357.42946103802
 20
9758.824297049613
 30
0.0
 11
2370.063993643759
 21
9750.302197200717
 31
0.0
  0
LINE
  8
0
 62
     0
 10
2509.043852306886
 20
9656.559098862881
 30
0.0
 11
2521.678384912625
 21
9648.036999013987
 31
0.0
  0
LINE
  8
0
 62
     0
 10
3075.928364407773
 20
7467.19898257722
 30
0.0
 11
3088.562897013511
 21
7458.676882728326
 31
0.0
  0
LINE
  8
0
 62
     0
 10
2050.458161786187
 20
7707.13944681172
 30
0.0
 11
2055.272492705022
 21
7703.892139604067
 31
0.0
  0
LINE
  8
0
 62
     0
 10
2194.252351368149
 20
7610.149041266231
 30
0.0
 11
2198.714258637457
 21
7607.139446811722
 31
0.0
  0
LINE
  8
0
 62
     0
 10
2346.97035548873
 20
7507.139446811723
 30
0.0
 11
2358.501275242753
 21
7499.361743230608
 31
0.0
  0
LINE
  8
0
 62
     0
 10
1980.835931751635
 20
7528.226273330642
 30
0.0
 11
1993.470464357374
 21
7519.704173481748
 31
0.0
  0
LINE
  8
0
 62
     0
 10
2132.450323020501
 20
7425.961075143912
 30
0.0
 11
2145.08485562624
 21
7417.438975295018
 31
0.0
  0
LINE
  8
0
 62
     0
 10
3373.375787745002
 20
6137.198359218704
 30
0.0
 11
3386.010320350741
 21
6128.676259369809
 31
0.0
  0
LINE
  8
0
 62
     0
 10
3524.990179013868
 20
6034.933161031973
 30
0.0
 11
3537.624711619607
 21
6026.41106118308
 31
0.0
  0
LINE
  8
0
 62
     0
 10
3159.959368128488
 20
6055.275591283113
 30
0.0
 11
3172.593900734228
 21
6046.75349143422
 31
0.0
  0
LINE
  8
0
 62
     0
 10
3311.573759397355
 20
5953.010393096383
 30
0.0
 11
3324.208292003094
 21
5944.488293247489
 31
0.0
  0
LINE
  8
0
 62
     0
 10
2513.492502849482
 20
7407.139446811719
 30
0.0
 11
2515.27286852371
 21
7412.445437590933
 31
0.0
  0
LINE
  8
0
 62
     0
 10
3088.569952495604
 20
7458.677050263676
 30
0.0
 11
3093.720136213949
 21
7474.026047223324
 31
0.0
  0
LINE
  8
0
 62
     0
 10
3453.60072941572
 20
7438.334802180008
 30
0.0
 11
3458.750913134064
 21
7453.683799139658
 31
0.0
  0
LINE
  8
0
 62
     0
 10
3515.402934035853
 20
7622.522765695791
 30
0.0
 11
3520.553117754198
 21
7637.871762655438
 31
0.0
  0
LINE
  8
0
 62
     0
 10
3172.599583224771
 20
6046.753951769809
 30
0.0
 11
3177.749766943116
 21
6062.102948729457
 31
0.0
  0
LINE
  8
0
 62
     0
 10
3324.213869374761
 20
5944.488845970084
 30
0.0
 11
3329.364053093106
 21
5959.837842929733
 31
0.0
  0
LINE
  8
0
 62
     0
 10
3386.016073994895
 20
6128.676809485868
 30
0.0
 11
3391.16625771324
 21
6144.025806445516
 31
0.0
  0
LINE
  8
0
 62
     0
 10
3537.630360144885
 20
6026.411703686141
 30
0.0
 11
3542.78054386323
 21
6041.76070064579
 31
0.0
  0
LINE
  8
0
 62
     0
 10
2358.508398655375
 20
7499.361546431009
 30
0.0
 11
2361.11818586225
 21
7507.139446811723
 31
0.0
  0
LINE
  8
0
 62
     0
 10
2145.091907885251
 20
7417.438688714952
 30
0.0
 11
2150.242091603596
 21
7432.787685674601
 31
0.0
  0
LINE
  8
0
 62
     0
 10
1993.47762173526
 20
7519.703794514676
 30
0.0
 11
1998.627805453605
 21
7535.052791474325
 31
0.0
  0
LINE
  8
0
 62
     0
 10
2055.279826355395
 20
7703.891758030459
 30
0.0
 11
2056.369551887784
 21
7707.13944681172
 31
0.0
  0
LINE
  8
0
 62
     0
 10
2150.874358685941
 20
8542.908717893311
 30
0.0
 11
2156.024542404285
 21
8558.25771485296
 31
0.0
  0
LINE
  8
0
 62
     0
 10
2521.687586406745
 20
9648.036498988002
 30
0.0
 11
2526.83777012509
 21
9663.38549594765
 31
0.0
  0
LINE
  8
0
 62
     0
 10
1999.26007253595
 20
8645.173823693033
 30
0.0
 11
2004.410256254295
 21
8660.522820652683
 31
0.0
  0
LINE
  8
0
 62
     0
 10
2370.073300256755
 20
9750.301604787729
 30
0.0
 11
2375.2234839751
 21
9765.650601747378
 31
0.0
  0
LINE
  8
0
 62
     0
 10
2156.65680948663
 20
9668.37874707167
 30
0.0
 11
2161.806993204975
 21
9683.727744031317
 31
0.0
  0
LINE
  8
0
 62
     0
 10
2218.459014106765
 20
9852.566710587451
 30
0.0
 11
2223.609197825109
 21
9867.9157075471
 31
0.0
  0
LINE
  8
0
 62
     0
 10
2005.042523336641
 20
9770.643852871396
 30
0.0
 11
2010.192707054985
 21
9785.992849831044
 31
0.0
  0
LINE
  8
0
 62
     0
 10
2215.702551377532
 20
7453.123282072833
 30
0.0
 11
2215.702551377532
 21
7453.123282072833
 31
0.0
  0
LINE
  8
0
 62
     0
 10
2085.289621290616
 20
7435.238991479543
 30
0.0
 11
2085.289621290616
 21
7435.238991479543
 31
0.0
  0
LINE
  8
0
 62
     0
 10
1953.365353090445
 20
7416.195010363993
 30
0.0
 11
1953.365353090445
 21
7416.195010363993
 31
0.0
  0
LINE
  8
0
 62
     0
 10
2088.378224541207
 20
7519.794030352697
 30
0.0
 11
2088.378224541207
 21
7519.794030352697
 31
0.0
  0
LINE
  8
0
 62
     0
 10
1956.453956341037
 20
7500.750049237147
 30
0.0
 11
1956.453956341037
 21
7500.750049237147
 31
0.0
  0
LINE
  8
0
 62
     0
 10
2091.4668277918
 20
7604.349069225849
 30
0.0
 11
2091.4668277918
 21
7604.349069225849
 31
0.0
  0
LINE
  8
0
 62
     0
 10
1959.542559591628
 20
7585.3050881103
 30
0.0
 11
1959.542559591628
 21
7585.3050881103
 31
0.0
  0
LINE
  8
0
 62
     0
 10
2094.55543104239
 20
7688.904108099003
 30
0.0
 11
2094.55543104239
 21
7688.904108099003
 31
0.0
  0
LINE
  8
0
 62
     0
 10
1962.631162842221
 20
7669.860126983452
 30
0.0
 11
1962.631162842221
 21
7669.860126983452
 31
0.0
  0
LINE
  8
0
 62
     0
 10
2516.075718563755
 20
8587.643492401497
 30
0.0
 11
2516.075718563755
 21
8587.643492401497
 31
0.0
  0
LINE
  8
0
 62
     0
 10
2519.164321814346
 20
8672.19853127465
 30
0.0
 11
2519.164321814346
 21
8672.19853127465
 31
0.0
  0
LINE
  8
0
 62
     0
 10
2522.252925064937
 20
8756.753570147806
 30
0.0
 11
2522.252925064937
 21
8756.753570147806
 31
0.0
  0
LINE
  8
0
 62
     0
 10
2255.854393635225
 20
8552.338787423824
 30
0.0
 11
2255.854393635225
 21
8552.338787423824
 31
0.0
  0
LINE
  8
0
 62
     0
 10
2125.441463548309
 20
8534.454496830534
 30
0.0
 11
2125.441463548309
 21
8534.454496830534
 31
0.0
  0
LINE
  8
0
 62
     0
 10
2390.328656864767
 20
8737.709589032252
 30
0.0
 11
2390.328656864767
 21
8737.709589032252
 31
0.0
  0
LINE
  8
0
 62
     0
 10
1993.517195348138
 20
8515.410515714982
 30
0.0
 11
1993.517195348138
 21
8515.410515714982
 31
0.0
  0
LINE
  8
0
 62
     0
 10
2128.530066798901
 20
8619.009535703687
 30
0.0
 11
2128.530066798901
 21
8619.009535703687
 31
0.0
  0
LINE
  8
0
 62
     0
 10
2262.031600136408
 20
8721.448865170129
 30
0.0
 11
2262.031600136408
 21
8721.448865170129
 31
0.0
  0
LINE
  8
0
 62
     0
 10
1996.60579859873
 20
8599.965554588136
 30
0.0
 11
1996.60579859873
 21
8599.965554588136
 31
0.0
  0
LINE
  8
0
 62
     0
 10
2131.618670049492
 20
8703.564574576841
 30
0.0
 11
2131.618670049492
 21
8703.564574576841
 31
0.0
  0
LINE
  8
0
 62
     0
 10
2265.120203387
 20
8806.003904043285
 30
0.0
 11
2265.120203387
 21
8806.003904043285
 31
0.0
  0
LINE
  8
0
 62
     0
 10
1999.694401849323
 20
8684.520593461289
 30
0.0
 11
1999.694401849323
 21
8684.520593461289
 31
0.0
  0
LINE
  8
0
 62
     0
 10
2134.707273300085
 20
8788.119613449993
 30
0.0
 11
2134.707273300085
 21
8788.119613449993
 31
0.0
  0
LINE
  8
0
 62
     0
 10
2002.783005099914
 20
8769.075632334443
 30
0.0
 11
2002.783005099914
 21
8769.075632334443
 31
0.0
  0
LINE
  8
0
 62
     0
 10
2424.303292621277
 20
9667.815016636938
 30
0.0
 11
2424.303292621277
 21
9667.815016636938
 31
0.0
  0
LINE
  8
0
 62
     0
 10
2296.006235892917
 20
9651.554292774815
 30
0.0
 11
2296.006235892917
 21
9651.554292774815
 31
0.0
  0
LINE
  8
0
 62
     0
 10
2427.391895871869
 20
9752.370055510091
 30
0.0
 11
2427.391895871869
 21
9752.370055510091
 31
0.0
  0
LINE
  8
0
 62
     0
 10
2165.593305806003
 20
9633.670002181524
 30
0.0
 11
2165.593305806003
 21
9633.670002181524
 31
0.0
  0
LINE
  8
0
 62
     0
 10
2299.094839143509
 20
9736.109331647968
 30
0.0
 11
2299.094839143509
 21
9736.109331647968
 31
0.0
  0
LINE
  8
0
 62
     0
 10
2430.480499122461
 20
9836.925094383243
 30
0.0
 11
2430.480499122461
 21
9836.925094383243
 31
0.0
  0
LINE
  8
0
 62
     0
 10
2033.669037605832
 20
9614.626021065973
 30
0.0
 11
2033.669037605832
 21
9614.626021065973
 31
0.0
  0
LINE
  8
0
 62
     0
 10
2168.681909056595
 20
9718.225041054678
 30
0.0
 11
2168.681909056595
 21
9718.225041054678
 31
0.0
  0
LINE
  8
0
 62
     0
 10
2302.183442394102
 20
9820.664370521122
 30
0.0
 11
2302.183442394102
 21
9820.664370521122
 31
0.0
  0
LINE
  8
0
 62
     0
 10
2036.757640856424
 20
9699.181059939128
 30
0.0
 11
2036.757640856424
 21
9699.181059939128
 31
0.0
  0
LINE
  8
0
 62
     0
 10
2171.770512307187
 20
9802.780079927831
 30
0.0
 11
2171.770512307187
 21
9802.780079927831
 31
0.0
  0
LINE
  8
0
 62
     0
 10
2305.272045644694
 20
9905.219409394273
 30
0.0
 11
2305.272045644694
 21
9905.219409394273
 31
0.0
  0
LINE
  8
0
 62
     0
 10
2039.846244107015
 20
9783.73609881228
 30
0.0
 11
2039.846244107015
 21
9783.73609881228
 31
0.0
  0
LINE
  8
0
 62
     0
 10
2174.859115557777
 20
9887.335118800983
 30
0.0
 11
2174.859115557777
 21
9887.335118800983
 31
0.0
  0
LINE
  8
0
 62
     0
 10
2042.934847357606
 20
9868.291137685433
 30
0.0
 11
2042.934847357606
 21
9868.291137685433
 31
0.0
  0
LINE
  8
0
 62
     0
 10
2343.999608105891
 20
7469.384005934956
 30
0.0
 11
2343.999608105891
 21
7469.384005934956
 31
0.0
  0
LINE
  8
0
 62
     0
 10
2479.012479556653
 20
7572.98302592366
 30
0.0
 11
2479.012479556653
 21
7572.98302592366
 31
0.0
  0
LINE
  8
0
 62
     0
 10
2475.92387630606
 20
7488.427987050507
 30
0.0
 11
2475.92387630606
 21
7488.427987050507
 31
0.0
  0
LINE
  8
0
 62
     0
 10
3125.26811813678
 20
7575.761997076884
 30
0.0
 11
3125.26811813678
 21
7575.761997076884
 31
0.0
  0
LINE
  8
0
 62
     0
 10
3122.179514886189
 20
7491.20695820373
 30
0.0
 11
3122.179514886189
 21
7491.20695820373
 31
0.0
  0
LINE
  8
0
 62
     0
 10
3257.192386336952
 20
7594.805978192433
 30
0.0
 11
3257.192386336952
 21
7594.805978192433
 31
0.0
  0
LINE
  8
0
 62
     0
 10
3390.69391967446
 20
7697.245307658875
 30
0.0
 11
3390.69391967446
 21
7697.245307658875
 31
0.0
  0
LINE
  8
0
 62
     0
 10
3254.10378308636
 20
7510.25093931928
 30
0.0
 11
3254.10378308636
 21
7510.25093931928
 31
0.0
  0
LINE
  8
0
 62
     0
 10
3387.605316423868
 20
7612.690268785724
 30
0.0
 11
3387.605316423868
 21
7612.690268785724
 31
0.0
  0
LINE
  8
0
 62
     0
 10
3251.015179835768
 20
7425.695900446127
 30
0.0
 11
3251.015179835768
 21
7425.695900446127
 31
0.0
  0
LINE
  8
0
 62
     0
 10
3384.516713173276
 20
7528.135229912571
 30
0.0
 11
3384.516713173276
 21
7528.135229912571
 31
0.0
  0
LINE
  8
0
 62
     0
 10
3515.902373152227
 20
7628.950992647847
 30
0.0
 11
3515.902373152227
 21
7628.950992647847
 31
0.0
  0
LINE
  8
0
 62
     0
 10
3381.428109922684
 20
7443.580191039417
 30
0.0
 11
3381.428109922684
 21
7443.580191039417
 31
0.0
  0
LINE
  8
0
 62
     0
 10
3512.813769901635
 20
7544.395953774693
 30
0.0
 11
3512.813769901635
 21
7544.395953774693
 31
0.0
  0
LINE
  8
0
 62
     0
 10
3509.725166651043
 20
7459.84091490154
 30
0.0
 11
3509.725166651043
 21
7459.84091490154
 31
0.0
  0
LINE
  8
0
 62
     0
 10
3072.76186287672
 20
6138.32633623328
 30
0.0
 11
3072.76186287672
 21
6138.32633623328
 31
0.0
  0
LINE
  8
0
 62
     0
 10
3069.673259626128
 20
6053.771297360126
 30
0.0
 11
3069.673259626128
 21
6053.771297360126
 31
0.0
  0
LINE
  8
0
 62
     0
 10
3204.686131076891
 20
6157.370317348831
 30
0.0
 11
3204.686131076891
 21
6157.370317348831
 31
0.0
  0
LINE
  8
0
 62
     0
 10
3066.584656375537
 20
5969.216258486974
 30
0.0
 11
3066.584656375537
 21
5969.216258486974
 31
0.0
  0
LINE
  8
0
 62
     0
 10
3201.5975278263
 20
6072.815278475677
 30
0.0
 11
3201.5975278263
 21
6072.815278475677
 31
0.0
  0
LINE
  8
0
 62
     0
 10
3198.508924575707
 20
5988.260239602525
 30
0.0
 11
3198.508924575707
 21
5988.260239602525
 31
0.0
  0
LINE
  8
0
 62
     0
 10
3463.396117892166
 20
6191.515331804244
 30
0.0
 11
3463.396117892166
 21
6191.515331804244
 31
0.0
  0
LINE
  8
0
 62
     0
 10
3460.307514641575
 20
6106.96029293109
 30
0.0
 11
3460.307514641575
 21
6106.96029293109
 31
0.0
  0
LINE
  8
0
 62
     0
 10
3325.833251412031
 20
5921.589491322661
 30
0.0
 11
3325.833251412031
 21
5921.589491322661
 31
0.0
  0
LINE
  8
0
 62
     0
 10
3457.218911390981
 20
6022.405254057938
 30
0.0
 11
3457.218911390981
 21
6022.405254057938
 31
0.0
  0
LINE
  8
0
 62
     0
 10
3592.231782841744
 20
6126.004274046642
 30
0.0
 11
3592.231782841744
 21
6126.004274046642
 31
0.0
  0
LINE
  8
0
 62
     0
 10
3454.130308140391
 20
5937.850215184784
 30
0.0
 11
3454.130308140391
 21
5937.850215184784
 31
0.0
  0
LINE
  8
0
 62
     0
 10
3589.143179591153
 20
6041.449235173488
 30
0.0
 11
3589.143179591153
 21
6041.449235173488
 31
0.0
  0
LINE
  8
0
 62
     0
 10
3586.054576340561
 20
5956.894196300336
 30
0.0
 11
3586.054576340561
 21
5956.894196300336
 31
0.0
  0
LINE
  8
0
 62
     0
 10
2171.393339437751
 20
8510.393298843792
 30
0.0
 11
2171.393339437751
 21
8510.393298843792
 31
0.0
  0
LINE
  8
0
 62
     0
 10
2267.591251447129
 20
8523.057994222522
 30
0.0
 11
2267.591251447129
 21
8523.057994222522
 31
0.0
  0
LINE
  8
0
 62
     0
 10
2014.212890083289
 20
8581.08369947506
 30
0.0
 11
2014.212890083289
 21
8581.08369947506
 31
0.0
  0
LINE
  8
0
 62
     0
 10
2174.626685763849
 20
8602.202576323881
 30
0.0
 11
2174.626685763849
 21
8602.202576323881
 31
0.0
  0
LINE
  8
0
 62
     0
 10
2494.824709637996
 20
8644.357445889459
 30
0.0
 11
2494.824709637996
 21
8644.357445889459
 31
0.0
  0
LINE
  8
0
 62
     0
 10
1984.834640584216
 20
8668.599578914452
 30
0.0
 11
1984.834640584216
 21
8668.599578914452
 31
0.0
  0
LINE
  8
0
 62
     0
 10
2081.032552593594
 20
8681.26427429318
 30
0.0
 11
2081.032552593594
 21
8681.26427429318
 31
0.0
  0
LINE
  8
0
 62
     0
 10
2305.032664458364
 20
8710.754448480031
 30
0.0
 11
2305.032664458364
 21
8710.754448480031
 31
0.0
  0
LINE
  8
0
 62
     0
 10
2401.230576467741
 20
8723.419143858759
 30
0.0
 11
2401.230576467741
 21
8723.419143858759
 31
0.0
  0
LINE
  8
0
 62
     0
 10
1988.067986910312
 20
8760.408856394539
 30
0.0
 11
1988.067986910312
 21
8760.408856394539
 31
0.0
  0
LINE
  8
0
 62
     0
 10
2051.654303094522
 20
8768.780153732572
 30
0.0
 11
2051.654303094522
 21
8768.780153732572
 31
0.0
  0
LINE
  8
0
 62
     0
 10
2147.852215103899
 20
8781.4448491113
 30
0.0
 11
2147.852215103899
 21
8781.4448491113
 31
0.0
  0
LINE
  8
0
 62
     0
 10
2308.26601078446
 20
8802.563725960119
 30
0.0
 11
2308.26601078446
 21
8802.563725960119
 31
0.0
  0
LINE
  8
0
 62
     0
 10
2269.246925628918
 20
9619.879160192034
 30
0.0
 11
2269.246925628918
 21
9619.879160192034
 31
0.0
  0
LINE
  8
0
 62
     0
 10
2332.833241813127
 20
9628.250457530066
 30
0.0
 11
2332.833241813127
 21
9628.250457530066
 31
0.0
  0
LINE
  8
0
 62
     0
 10
2429.031153822505
 20
9640.915152908794
 30
0.0
 11
2429.031153822505
 21
9640.915152908794
 31
0.0
  0
LINE
  8
0
 62
     0
 10
2015.868564265077
 20
9677.904865444574
 30
0.0
 11
2015.868564265077
 21
9677.904865444574
 31
0.0
  0
LINE
  8
0
 62
     0
 10
2079.454880449286
 20
9686.276162782606
 30
0.0
 11
2079.454880449286
 21
9686.276162782606
 31
0.0
  0
LINE
  8
0
 62
     0
 10
2175.652792458664
 20
9698.940858161334
 30
0.0
 11
2175.652792458664
 21
9698.940858161334
 31
0.0
  0
LINE
  8
0
 62
     0
 10
2336.066588139224
 20
9720.059735010154
 30
0.0
 11
2336.066588139224
 21
9720.059735010154
 31
0.0
  0
LINE
  8
0
 62
     0
 10
2399.652904323434
 20
9728.431032348188
 30
0.0
 11
2399.652904323434
 21
9728.431032348188
 31
0.0
  0
LINE
  8
0
 62
     0
 10
2495.850816332811
 20
9741.095727726916
 30
0.0
 11
2495.850816332811
 21
9741.095727726916
 31
0.0
  0
LINE
  8
0
 62
     0
 10
2082.688226775383
 20
9778.085440262694
 30
0.0
 11
2082.688226775383
 21
9778.085440262694
 31
0.0
  0
LINE
  8
0
 62
     0
 10
2146.274542959591
 20
9786.456737600728
 30
0.0
 11
2146.274542959591
 21
9786.456737600728
 31
0.0
  0
LINE
  8
0
 62
     0
 10
2402.88625064953
 20
9820.240309828273
 30
0.0
 11
2402.88625064953
 21
9820.240309828273
 31
0.0
  0
LINE
  8
0
 62
     0
 10
2466.472566833739
 20
9828.611607166306
 30
0.0
 11
2466.472566833739
 21
9828.611607166306
 31
0.0
  0
LINE
  8
0
 62
     0
 10
1989.094093605127
 20
9857.147138231994
 30
0.0
 11
1989.094093605127
 21
9857.147138231994
 31
0.0
  0
LINE
  8
0
 62
     0
 10
2149.507889285687
 20
9878.266015080814
 30
0.0
 11
2149.507889285687
 21
9878.266015080814
 31
0.0
  0
LINE
  8
0
 62
     0
 10
2213.094205469896
 20
9886.637312418848
 30
0.0
 11
2213.094205469896
 21
9886.637312418848
 31
0.0
  0
LINE
  8
0
 62
     0
 10
2309.292117479274
 20
9899.302007797574
 30
0.0
 11
2309.292117479274
 21
9899.302007797574
 31
0.0
  0
LINE
  8
0
 62
     0
 10
1986.412312728525
 20
7663.587690425026
 30
0.0
 11
1986.412312728525
 21
7663.587690425026
 31
0.0
  0
LINE
  8
0
 62
     0
 10
2146.826108409085
 20
7684.706567273846
 30
0.0
 11
2146.826108409085
 21
7684.706567273846
 31
0.0
  0
LINE
  8
0
 62
     0
 10
2080.00644589878
 20
7584.525992455726
 30
0.0
 11
2080.00644589878
 21
7584.525992455726
 31
0.0
  0
LINE
  8
0
 62
     0
 10
2143.592762082989
 20
7592.897289793761
 30
0.0
 11
2143.592762082989
 21
7592.897289793761
 31
0.0
  0
LINE
  8
0
 62
     0
 10
2013.186783388475
 20
7484.345417637606
 30
0.0
 11
2013.186783388475
 21
7484.345417637606
 31
0.0
  0
LINE
  8
0
 62
     0
 10
2076.773099572684
 20
7492.71671497564
 30
0.0
 11
2076.773099572684
 21
7492.71671497564
 31
0.0
  0
LINE
  8
0
 62
     0
 10
2172.971011582061
 20
7505.381410354367
 30
0.0
 11
2172.971011582061
 21
7505.381410354367
 31
0.0
  0
LINE
  8
0
 62
     0
 10
3453.76310707865
 20
7674.000888616689
 30
0.0
 11
3453.76310707865
 21
7674.000888616689
 31
0.0
  0
LINE
  8
0
 62
     0
 10
3614.17690275921
 20
7695.119765465508
 30
0.0
 11
3614.17690275921
 21
7695.119765465508
 31
0.0
  0
LINE
  8
0
 62
     0
 10
2396.971123446831
 20
7534.871584541219
 30
0.0
 11
2396.971123446831
 21
7534.871584541219
 31
0.0
  0
LINE
  8
0
 62
     0
 10
2493.169035456209
 20
7547.536279919946
 30
0.0
 11
2493.169035456209
 21
7547.536279919946
 31
0.0
  0
LINE
  8
0
 62
     0
 10
2266.565144752316
 20
7426.319712385068
 30
0.0
 11
2266.565144752316
 21
7426.319712385068
 31
0.0
  0
LINE
  8
0
 62
     0
 10
2330.151460936525
 20
7434.691009723103
 30
0.0
 11
2330.151460936525
 21
7434.691009723103
 31
0.0
  0
LINE
  8
0
 62
     0
 10
2426.349372945903
 20
7447.355705101828
 30
0.0
 11
2426.349372945903
 21
7447.355705101828
 31
0.0
  0
LINE
  8
0
 62
     0
 10
3386.943444568345
 20
7573.820313798568
 30
0.0
 11
3386.943444568345
 21
7573.820313798568
 31
0.0
  0
LINE
  8
0
 62
     0
 10
3547.357240248905
 20
7594.939190647388
 30
0.0
 11
3547.357240248905
 21
7594.939190647388
 31
0.0
  0
LINE
  8
0
 62
     0
 10
3610.943556433114
 20
7603.310487985422
 30
0.0
 11
3610.943556433114
 21
7603.310487985422
 31
0.0
  0
LINE
  8
0
 62
     0
 10
3066.745420694198
 20
7531.665444232989
 30
0.0
 11
3066.745420694198
 21
7531.665444232989
 31
0.0
  0
LINE
  8
0
 62
     0
 10
3227.159216374757
 20
7552.784321081809
 30
0.0
 11
3227.159216374757
 21
7552.784321081809
 31
0.0
  0
LINE
  8
0
 62
     0
 10
3160.339553864451
 20
7452.603746263688
 30
0.0
 11
3160.339553864451
 21
7452.603746263688
 31
0.0
  0
LINE
  8
0
 62
     0
 10
3223.92587004866
 20
7460.975043601721
 30
0.0
 11
3223.92587004866
 21
7460.975043601721
 31
0.0
  0
LINE
  8
0
 62
     0
 10
3480.537577738598
 20
7494.758615829267
 30
0.0
 11
3480.537577738598
 21
7494.758615829267
 31
0.0
  0
LINE
  8
0
 62
     0
 10
3544.123893922807
 20
7503.129913167302
 30
0.0
 11
3544.123893922807
 21
7503.129913167302
 31
0.0
  0
LINE
  8
0
 62
     0
 10
3573.50214342188
 20
7415.614033727909
 30
0.0
 11
3573.50214342188
 21
7415.614033727909
 31
0.0
  0
LINE
  8
0
 62
     0
 10
3185.458350342612
 20
6176.540307506756
 30
0.0
 11
3185.458350342612
 21
6176.540307506756
 31
0.0
  0
LINE
  8
0
 62
     0
 10
3249.044666526822
 20
6184.911604844789
 30
0.0
 11
3249.044666526822
 21
6184.911604844789
 31
0.0
  0
LINE
  8
0
 62
     0
 10
3118.638687832307
 20
6076.359732688636
 30
0.0
 11
3118.638687832307
 21
6076.359732688636
 31
0.0
  0
LINE
  8
0
 62
     0
 10
3182.225004016516
 20
6084.73103002667
 30
0.0
 11
3182.225004016516
 21
6084.73103002667
 31
0.0
  0
LINE
  8
0
 62
     0
 10
3278.422916025894
 20
6097.395725405396
 30
0.0
 11
3278.422916025894
 21
6097.395725405396
 31
0.0
  0
LINE
  8
0
 62
     0
 10
3438.836711706454
 20
6118.514602254216
 30
0.0
 11
3438.836711706454
 21
6118.514602254216
 31
0.0
  0
LINE
  8
0
 62
     0
 10
3502.423027890663
 20
6126.88589959225
 30
0.0
 11
3502.423027890663
 21
6126.88589959225
 31
0.0
  0
LINE
  8
0
 62
     0
 10
3598.620939900041
 20
6139.550594970977
 30
0.0
 11
3598.620939900041
 21
6139.550594970977
 31
0.0
  0
LINE
  8
0
 62
     0
 10
3051.819025322
 20
5976.179157870517
 30
0.0
 11
3051.819025322
 21
5976.179157870517
 31
0.0
  0
LINE
  8
0
 62
     0
 10
3115.405341506209
 20
5984.55045520855
 30
0.0
 11
3115.405341506209
 21
5984.55045520855
 31
0.0
  0
LINE
  8
0
 62
     0
 10
3211.603253515587
 20
5997.215150587277
 30
0.0
 11
3211.603253515587
 21
5997.215150587277
 31
0.0
  0
LINE
  8
0
 62
     0
 10
3435.603365380357
 20
6026.70532477413
 30
0.0
 11
3435.603365380357
 21
6026.70532477413
 31
0.0
  0
LINE
  8
0
 62
     0
 10
3531.801277389734
 20
6039.370020152857
 30
0.0
 11
3531.801277389734
 21
6039.370020152857
 31
0.0
  0
LINE
  8
0
 62
     0
 10
3305.197386685843
 20
5918.153452617977
 30
0.0
 11
3305.197386685843
 21
5918.153452617977
 31
0.0
  0
LINE
  8
0
 62
     0
 10
3368.783702870052
 20
5926.524749956009
 30
0.0
 11
3368.783702870052
 21
5926.524749956009
 31
0.0
  0
LINE
  8
0
 62
     0
 10
3464.98161487943
 20
5939.189445334737
 30
0.0
 11
3464.98161487943
 21
5939.189445334737
 31
0.0
  0
LINE
  8
0
 62
     0
 10
3625.39541055999
 20
5960.308322183557
 30
0.0
 11
3625.39541055999
 21
5960.308322183557
 31
0.0
  0
LINE
  8
0
 62
     0
 10
3385.579249968381
 20
7485.302230524973
 30
0.0
 11
3385.579249968381
 21
7485.302230524973
 31
0.0
  0
LINE
  8
0
 62
     0
 10
3439.134606777499
 20
7451.18370539495
 30
0.0
 11
3439.134606777499
 21
7451.18370539495
 31
0.0
  0
LINE
  8
0
 62
     0
 10
3521.169845135254
 20
7479.5734865323
 30
0.0
 11
3521.169845135254
 21
7479.5734865323
 31
0.0
  0
LINE
  8
0
 62
     0
 10
3574.725201944372
 20
7445.454961402276
 30
0.0
 11
3574.725201944372
 21
7445.454961402276
 31
0.0
  0
LINE
  8
0
 62
     0
 10
1940.846808137979
 20
8567.002287705571
 30
0.0
 11
1940.846808137979
 21
8567.002287705571
 31
0.0
  0
LINE
  8
0
 62
     0
 10
3435.041263112377
 20
7615.095436577919
 30
0.0
 11
3435.041263112377
 21
7615.095436577919
 31
0.0
  0
LINE
  8
0
 62
     0
 10
2022.882046495729
 20
8595.392068842921
 30
0.0
 11
2022.882046495729
 21
8595.392068842921
 31
0.0
  0
LINE
  8
0
 62
     0
 10
2076.437403304848
 20
8561.273543712898
 30
0.0
 11
2076.437403304848
 21
8561.273543712898
 31
0.0
  0
LINE
  8
0
 62
     0
 10
3570.631858279248
 20
7609.366692585248
 30
0.0
 11
3570.631858279248
 21
7609.366692585248
 31
0.0
  0
LINE
  8
0
 62
     0
 10
1936.753464472854
 20
8730.914018888544
 30
0.0
 11
1936.753464472854
 21
8730.914018888544
 31
0.0
  0
LINE
  8
0
 62
     0
 10
2158.472641662604
 20
8589.663324850246
 30
0.0
 11
2158.472641662604
 21
8589.663324850246
 31
0.0
  0
LINE
  8
0
 62
     0
 10
2072.344059639722
 20
8725.185274895872
 30
0.0
 11
2072.344059639722
 21
8725.185274895872
 31
0.0
  0
LINE
  8
0
 62
     0
 10
2429.653831996343
 20
8578.205836864901
 30
0.0
 11
2429.653831996343
 21
8578.205836864901
 31
0.0
  0
LINE
  8
0
 62
     0
 10
2343.525249973467
 20
8713.727786910522
 30
0.0
 11
2343.525249973467
 21
8713.727786910522
 31
0.0
  0
LINE
  8
0
 62
     0
 10
2479.115845140339
 20
8707.999042917849
 30
0.0
 11
2479.115845140339
 21
8707.999042917849
 31
0.0
  0
LINE
  8
0
 62
     0
 10
1934.055556334038
 20
9619.804686096786
 30
0.0
 11
1934.055556334038
 21
9619.804686096786
 31
0.0
  0
LINE
  8
0
 62
     0
 10
2016.090794691791
 20
9648.194467234135
 30
0.0
 11
2016.090794691791
 21
9648.194467234135
 31
0.0
  0
LINE
  8
0
 62
     0
 10
2069.64615150091
 20
9614.075942104115
 30
0.0
 11
2069.64615150091
 21
9614.075942104115
 31
0.0
  0
LINE
  8
0
 62
     0
 10
1929.962212668913
 20
9783.716417279759
 30
0.0
 11
1929.962212668913
 21
9783.716417279759
 31
0.0
  0
LINE
  8
0
 62
     0
 10
2151.681389858663
 20
9642.465723241462
 30
0.0
 11
2151.681389858663
 21
9642.465723241462
 31
0.0
  0
LINE
  8
0
 62
     0
 10
2205.236746667781
 20
9608.347198111438
 30
0.0
 11
2205.236746667781
 21
9608.347198111438
 31
0.0
  0
LINE
  8
0
 62
     0
 10
2065.552807835784
 20
9777.987673287087
 30
0.0
 11
2065.552807835784
 21
9777.987673287087
 31
0.0
  0
LINE
  8
0
 62
     0
 10
2287.271985025533
 20
9636.736979248791
 30
0.0
 11
2287.271985025533
 21
9636.736979248791
 31
0.0
  0
LINE
  8
0
 62
     0
 10
2034.050689758207
 20
9878.708727700086
 30
0.0
 11
2034.050689758207
 21
9878.708727700086
 31
0.0
  0
LINE
  8
0
 62
     0
 10
2422.862580192403
 20
9631.008235256118
 30
0.0
 11
2422.862580192403
 21
9631.008235256118
 31
0.0
  0
LINE
  8
0
 62
     0
 10
2116.085928115961
 20
9907.098508837437
 30
0.0
 11
2116.085928115961
 21
9907.098508837437
 31
0.0
  0
LINE
  8
0
 62
     0
 10
2169.641284925079
 20
9872.979983707415
 30
0.0
 11
2169.641284925079
 21
9872.979983707415
 31
0.0
  0
LINE
  8
0
 62
     0
 10
2336.733998169528
 20
9766.530185301739
 30
0.0
 11
2336.733998169528
 21
9766.530185301739
 31
0.0
  0
LINE
  8
0
 62
     0
 10
2251.67652328283
 20
9901.369764844764
 30
0.0
 11
2251.67652328283
 21
9901.369764844764
 31
0.0
  0
LINE
  8
0
 62
     0
 10
2305.231880091948
 20
9867.25123971474
 30
0.0
 11
2305.231880091948
 21
9867.25123971474
 31
0.0
  0
LINE
  8
0
 62
     0
 10
2472.324593336397
 20
9760.80144130907
 30
0.0
 11
2472.324593336397
 21
9760.80144130907
 31
0.0
  0
LINE
  8
0
 62
     0
 10
2387.267118449703
 20
9895.641020852089
 30
0.0
 11
2387.267118449703
 21
9895.641020852089
 31
0.0
  0
LINE
  8
0
 62
     0
 10
2440.822475258821
 20
9861.522495722066
 30
0.0
 11
2440.822475258821
 21
9861.522495722066
 31
0.0
  0
LINE
  8
0
 62
     0
 10
2522.857713616576
 20
9889.912276859416
 30
0.0
 11
2522.857713616576
 21
9889.912276859416
 31
0.0
  0
LINE
  8
0
 62
     0
 10
3249.988654801511
 20
7491.030974517644
 30
0.0
 11
3249.988654801511
 21
7491.030974517644
 31
0.0
  0
LINE
  8
0
 62
     0
 10
3303.544011610629
 20
7456.912449387621
 30
0.0
 11
3303.544011610629
 21
7456.912449387621
 31
0.0
  0
LINE
  8
0
 62
     0
 10
3114.398059634641
 20
7496.759718510318
 30
0.0
 11
3114.398059634641
 21
7496.759718510318
 31
0.0
  0
LINE
  8
0
 62
     0
 10
3167.953416443759
 20
7462.641193380295
 30
0.0
 11
3167.953416443759
 21
7462.641193380295
 31
0.0
  0
LINE
  8
0
 62
     0
 10
3032.362821276886
 20
7468.36993737297
 30
0.0
 11
3032.362821276886
 21
7468.36993737297
 31
0.0
  0
LINE
  8
0
 62
     0
 10
2436.445083800283
 20
7525.403438473685
 30
0.0
 11
2436.445083800283
 21
7525.403438473685
 31
0.0
  0
LINE
  8
0
 62
     0
 10
2490.000440609402
 20
7491.284913343662
 30
0.0
 11
2490.000440609402
 21
7491.284913343662
 31
0.0
  0
LINE
  8
0
 62
     0
 10
2079.135311443662
 20
7672.382876504656
 30
0.0
 11
2079.135311443662
 21
7672.382876504656
 31
0.0
  0
LINE
  8
0
 62
     0
 10
2354.409845442529
 20
7497.013657336336
 30
0.0
 11
2354.409845442529
 21
7497.013657336336
 31
0.0
  0
LINE
  8
0
 62
     0
 10
1943.544716276791
 20
7678.11162049733
 30
0.0
 11
1943.544716276791
 21
7678.11162049733
 31
0.0
  0
LINE
  8
0
 62
     0
 10
2165.26389346654
 20
7536.860926459032
 30
0.0
 11
2165.26389346654
 21
7536.860926459032
 31
0.0
  0
LINE
  8
0
 62
     0
 10
2029.67329829967
 20
7542.589670451707
 30
0.0
 11
2029.67329829967
 21
7542.589670451707
 31
0.0
  0
LINE
  8
0
 62
     0
 10
2083.228655108788
 20
7508.471145321683
 30
0.0
 11
2083.228655108788
 21
7508.471145321683
 31
0.0
  0
LINE
  8
0
 62
     0
 10
1947.638059941916
 20
7514.199889314356
 30
0.0
 11
1947.638059941916
 21
7514.199889314356
 31
0.0
  0
LINE
  8
0
 62
     0
 10
2114.730773186365
 20
7407.750090908683
 30
0.0
 11
2114.730773186365
 21
7407.750090908683
 31
0.0
  0
LINE
  8
0
 62
     0
 10
1979.140178019493
 20
7413.478834901357
 30
0.0
 11
1979.140178019493
 21
7413.478834901357
 31
0.0
  0
LINE
  8
0
 62
     0
 10
3563.556558681896
 20
6162.13830254511
 30
0.0
 11
3563.556558681896
 21
6162.13830254511
 31
0.0
  0
LINE
  8
0
 62
     0
 10
3617.111915491014
 20
6128.019777415087
 30
0.0
 11
3617.111915491014
 21
6128.019777415087
 31
0.0
  0
LINE
  8
0
 62
     0
 10
3427.965963515023
 20
6167.867046537786
 30
0.0
 11
3427.965963515023
 21
6167.867046537786
 31
0.0
  0
LINE
  8
0
 62
     0
 10
3481.521320324141
 20
6133.748521407762
 30
0.0
 11
3481.521320324141
 21
6133.748521407762
 31
0.0
  0
LINE
  8
0
 62
     0
 10
3292.375368348152
 20
6173.595790530459
 30
0.0
 11
3292.375368348152
 21
6173.595790530459
 31
0.0
  0
LINE
  8
0
 62
     0
 10
3513.023438401719
 20
6033.027466994761
 30
0.0
 11
3513.023438401719
 21
6033.027466994761
 31
0.0
  0
LINE
  8
0
 62
     0
 10
3156.784773181282
 20
6179.32453452313
 30
0.0
 11
3156.784773181282
 21
6179.32453452313
 31
0.0
  0
LINE
  8
0
 62
     0
 10
3210.3401299904
 20
6145.206009393107
 30
0.0
 11
3210.3401299904
 21
6145.206009393107
 31
0.0
  0
LINE
  8
0
 62
     0
 10
3074.749534823528
 20
6150.93475338578
 30
0.0
 11
3074.749534823528
 21
6150.93475338578
 31
0.0
  0
LINE
  8
0
 62
     0
 10
3241.842248067977
 20
6044.484954980108
 30
0.0
 11
3241.842248067977
 21
6044.484954980108
 31
0.0
  0
LINE
  8
0
 62
     0
 10
3106.251652901105
 20
6050.213698972782
 30
0.0
 11
3106.251652901105
 21
6050.213698972782
 31
0.0
  0
LINE
  8
0
 62
     0
 10
3327.970830090855
 20
5908.963004934485
 30
0.0
 11
3327.970830090855
 21
5908.963004934485
 31
0.0
  0
LINE
  8
0
 62
     0
 10
3192.380234923984
 20
5914.691748927158
 30
0.0
 11
3192.380234923984
 21
5914.691748927158
 31
0.0
  0
LINE
  8
0
 62
     0
 10
3056.789639757111
 20
5920.420492919833
 30
0.0
 11
3056.789639757111
 21
5920.420492919833
 31
0.0
  0
LINE
  8
0
 62
     0
 10
2020.972386043606
 20
8548.464410397615
 30
0.0
 11
2020.972386043606
 21
8548.464410397615
 31
0.0
  0
LINE
  8
0
 62
     0
 10
3106.005747970981
 20
7554.214516014632
 30
0.0
 11
3106.005747970981
 21
7554.214516014632
 31
0.0
  0
LINE
  8
0
 62
     0
 10
3203.010801729763
 20
7465.325761218224
 30
0.0
 11
3203.010801729763
 21
7465.325761218224
 31
0.0
  0
LINE
  8
0
 62
     0
 10
2011.234269517166
 20
8718.549627866028
 30
0.0
 11
2011.234269517166
 21
8718.549627866028
 31
0.0
  0
LINE
  8
0
 62
     0
 10
2072.096513670842
 20
8662.779656227355
 30
0.0
 11
2072.096513670842
 21
8662.779656227355
 31
0.0
  0
LINE
  8
0
 62
     0
 10
2169.101567429623
 20
8573.890901430948
 30
0.0
 11
2169.101567429623
 21
8573.890901430948
 31
0.0
  0
LINE
  8
0
 62
     0
 10
3351.139983115781
 20
7490.752252251557
 30
0.0
 11
3351.139983115781
 21
7490.752252251557
 31
0.0
  0
LINE
  8
0
 62
     0
 10
3254.134929356999
 20
7579.641007047965
 30
0.0
 11
3254.134929356999
 21
7579.641007047965
 31
0.0
  0
LINE
  8
0
 62
     0
 10
2159.363450903184
 20
8743.976118899361
 30
0.0
 11
2159.363450903184
 21
8743.976118899361
 31
0.0
  0
LINE
  8
0
 62
     0
 10
3402.264110743017
 20
7605.067498081298
 30
0.0
 11
3402.264110743017
 21
7605.067498081298
 31
0.0
  0
LINE
  8
0
 62
     0
 10
3499.269164501799
 20
7516.17874328489
 30
0.0
 11
3499.269164501799
 21
7516.17874328489
 31
0.0
  0
LINE
  8
0
 62
     0
 10
2307.492632289202
 20
8769.402609932695
 30
0.0
 11
2307.492632289202
 21
8769.402609932695
 31
0.0
  0
LINE
  8
0
 62
     0
 10
2368.354876442878
 20
8713.632638294022
 30
0.0
 11
2368.354876442878
 21
8713.632638294022
 31
0.0
  0
LINE
  8
0
 62
     0
 10
3489.53104797536
 20
7686.263960753303
 30
0.0
 11
3489.53104797536
 21
7686.263960753303
 31
0.0
  0
LINE
  8
0
 62
     0
 10
3550.393292129037
 20
7630.493989114631
 30
0.0
 11
3550.393292129037
 21
7630.493989114631
 31
0.0
  0
LINE
  8
0
 62
     0
 10
2465.35993020166
 20
8624.743883497613
 30
0.0
 11
2465.35993020166
 21
8624.743883497613
 31
0.0
  0
LINE
  8
0
 62
     0
 10
2455.62181367522
 20
8794.829100966028
 30
0.0
 11
2455.62181367522
 21
8794.829100966028
 31
0.0
  0
LINE
  8
0
 62
     0
 10
2516.484057828896
 20
8739.059129327356
 30
0.0
 11
2516.484057828896
 21
8739.059129327356
 31
0.0
  0
LINE
  8
0
 62
     0
 10
2013.480546068656
 20
9683.462560950571
 30
0.0
 11
2013.480546068656
 21
9683.462560950571
 31
0.0
  0
LINE
  8
0
 62
     0
 10
2074.342790222332
 20
9627.692589311898
 30
0.0
 11
2074.342790222332
 21
9627.692589311898
 31
0.0
  0
LINE
  8
0
 62
     0
 10
2023.967421445591
 20
9835.014987843671
 30
0.0
 11
2023.967421445591
 21
9835.014987843671
 31
0.0
  0
LINE
  8
0
 62
     0
 10
2161.609727454673
 20
9708.889051983902
 30
0.0
 11
2161.609727454673
 21
9708.889051983902
 31
0.0
  0
LINE
  8
0
 62
     0
 10
2172.09660283161
 20
9860.441478877003
 30
0.0
 11
2172.09660283161
 21
9860.441478877003
 31
0.0
  0
LINE
  8
0
 62
     0
 10
2309.738908840691
 20
9734.315543017237
 30
0.0
 11
2309.738908840691
 21
9734.315543017237
 31
0.0
  0
LINE
  8
0
 62
     0
 10
2370.601152994368
 20
9678.545571378563
 30
0.0
 11
2370.601152994368
 21
9678.545571378563
 31
0.0
  0
LINE
  8
0
 62
     0
 10
2320.225784217628
 20
9885.867969910336
 30
0.0
 11
2320.225784217628
 21
9885.867969910336
 31
0.0
  0
LINE
  8
0
 62
     0
 10
2457.86809022671
 20
9759.742034050569
 30
0.0
 11
2457.86809022671
 21
9759.742034050569
 31
0.0
  0
LINE
  8
0
 62
     0
 10
2518.730334380386
 20
9703.972062411898
 30
0.0
 11
2518.730334380386
 21
9703.972062411898
 31
0.0
  0
LINE
  8
0
 62
     0
 10
3054.881620343746
 20
7439.89927018489
 30
0.0
 11
3054.881620343746
 21
7439.89927018489
 31
0.0
  0
LINE
  8
0
 62
     0
 10
2452.626778273232
 20
7508.278523519972
 30
0.0
 11
2452.626778273232
 21
7508.278523519972
 31
0.0
  0
LINE
  8
0
 62
     0
 10
2513.489022426908
 20
7452.508551881299
 30
0.0
 11
2513.489022426908
 21
7452.508551881299
 31
0.0
  0
LINE
  8
0
 62
     0
 10
2069.850237119352
 20
7697.866723142814
 30
0.0
 11
2069.850237119352
 21
7697.866723142814
 31
0.0
  0
LINE
  8
0
 62
     0
 10
2166.855290878133
 20
7608.977968346406
 30
0.0
 11
2166.855290878133
 21
7608.977968346406
 31
0.0
  0
LINE
  8
0
 62
     0
 10
2304.497596887216
 20
7482.852032486638
 30
0.0
 11
2304.497596887216
 21
7482.852032486638
 31
0.0
  0
LINE
  8
0
 62
     0
 10
2365.359841040891
 20
7427.082060847965
 30
0.0
 11
2365.359841040891
 21
7427.082060847965
 31
0.0
  0
LINE
  8
0
 62
     0
 10
2018.726109492115
 20
7583.551477313073
 30
0.0
 11
2018.726109492115
 21
7583.551477313073
 31
0.0
  0
LINE
  8
0
 62
     0
 10
2156.368415501197
 20
7457.425541453305
 30
0.0
 11
2156.368415501197
 21
7457.425541453305
 31
0.0
  0
LINE
  8
0
 62
     0
 10
2008.23923411518
 20
7431.999050419972
 30
0.0
 11
2008.23923411518
 21
7431.999050419972
 31
0.0
  0
LINE
  8
0
 62
     0
 10
3485.787253722877
 20
6078.075738945732
 30
0.0
 11
3485.787253722877
 21
6078.075738945732
 31
0.0
  0
LINE
  8
0
 62
     0
 10
3546.649497876553
 20
6022.30576730706
 30
0.0
 11
3546.649497876553
 21
6022.30576730706
 31
0.0
  0
LINE
  8
0
 62
     0
 10
3200.015766327776
 20
6178.775183772168
 30
0.0
 11
3200.015766327776
 21
6178.775183772168
 31
0.0
  0
LINE
  8
0
 62
     0
 10
3398.520316490535
 20
5996.879276273728
 30
0.0
 11
3398.520316490535
 21
5996.879276273728
 31
0.0
  0
LINE
  8
0
 62
     0
 10
3495.525370249316
 20
5907.99052147732
 30
0.0
 11
3495.525370249316
 21
5907.99052147732
 31
0.0
  0
LINE
  8
0
 62
     0
 10
3051.886584941758
 20
6153.348692738835
 30
0.0
 11
3051.886584941758
 21
6153.348692738835
 31
0.0
  0
LINE
  8
0
 62
     0
 10
3189.52889095084
 20
6027.222756879067
 30
0.0
 11
3189.52889095084
 21
6027.222756879067
 31
0.0
  0
LINE
  8
0
 62
     0
 10
3250.391135104516
 20
5971.452785240395
 30
0.0
 11
3250.391135104516
 21
5971.452785240395
 31
0.0
  0
LINE
  8
0
 62
     0
 10
3041.399709564823
 20
6001.796265845734
 30
0.0
 11
3041.399709564823
 21
6001.796265845734
 31
0.0
  0
LINE
  8
0
 62
     0
 10
3102.261953718498
 20
5946.026294207062
 30
0.0
 11
3102.261953718498
 21
5946.026294207062
 31
0.0
  0
ENDBLK
  8
0
  0
BLOCK
  8
0
  2
*D36
 70
    65
 10
0.0
 20
0.0
 30
0.0
  3
*D
  0
LINE
  8
0
  6
BYBLOCK
 10
-5747.245793593362
 20
12159.84856262259
 30
0.0
 11
-5747.245793593362
 21
12150.08668474307
 31
0.0
  0
LINE
  8
0
  6
BYBLOCK
 10
-7747.245793593362
 20
12168.61044050211
 30
0.0
 11
-7747.245793593362
 21
12150.08668474307
 31
0.0
  0
LINE
  8
0
  6
BYBLOCK
 10
-5787.245793593362
 20
12151.08668474307
 30
0.0
 11
-7707.245793593362
 21
12151.08668474307
 31
0.0
  0
SOLID
  8
0
  6
BYBLOCK
 10
-5787.245793593362
 20
12157.75335140973
 30
0.0
 11
-5787.245793593362
 21
12144.4200180764
 31
0.0
 12
-5747.245793593362
 22
12151.08668474307
 32
0.0
 13
-5747.245793593362
 23
12151.08668474307
 33
0.0
  0
SOLID
  8
0
  6
BYBLOCK
 10
-7707.245793593362
 20
12157.75335140973
 30
0.0
 11
-7707.245793593362
 21
12144.4200180764
 31
0.0
 12
-7747.245793593362
 22
12151.08668474307
 32
0.0
 13
-7747.245793593362
 23
12151.08668474307
 33
0.0
  0
TEXT
  8
0
  6
BYBLOCK
 10
-6804.388650736219
 20
12166.08668474306
 30
0.0
 40
30.0
  1
2000
  7
ROMANS
 72
     1
 11
-6747.245793593362
 21
12181.08668474306
 31
0.0
 73
     2
  0
POINT
  8
DEFPOINTS
  6
BYBLOCK
 62
     0
 10
-5747.245793593362
 20
12159.84856262259
 30
0.0
  0
POINT
  8
DEFPOINTS
  6
BYBLOCK
 62
     0
 10
-7747.245793593362
 20
12168.61044050211
 30
0.0
  0
POINT
  8
DEFPOINTS
  6
BYBLOCK
 62
     0
 10
-7747.245793593362
 20
12151.08668474307
 30
0.0
  0
ENDBLK
  8
0
  0
BLOCK
  8
0
  2
*D37
 70
    65
 10
0.0
 20
0.0
 30
0.0
  3
*D
  0
LINE
  8
0
  6
BYBLOCK
 10
33943.79587683613
 20
25277.46030326454
 30
0.0
 11
33955.571234692
 21
25277.46030326454
 31
0.0
  0
LINE
  8
0
  6
BYBLOCK
 10
33943.79587683613
 20
28427.46030326454
 30
0.0
 11
33955.571234692
 21
28427.46030326454
 31
0.0
  0
LINE
  8
0
  6
BYBLOCK
 10
33954.571234692
 20
25377.46030326454
 30
0.0
 11
33954.571234692
 21
28327.46030326454
 31
0.0
  0
SOLID
  8
0
  6
BYBLOCK
 10
33937.90456802534
 20
25377.46030326454
 30
0.0
 11
33971.23790135867
 21
25377.46030326454
 31
0.0
 12
33954.571234692
 22
25277.46030326454
 32
0.0
 13
33954.571234692
 23
25277.46030326454
 33
0.0
  0
SOLID
  8
0
  6
BYBLOCK
 10
33937.90456802534
 20
28327.46030326454
 30
0.0
 11
33971.23790135867
 21
28327.46030326454
 31
0.0
 12
33954.571234692
 22
28427.46030326454
 32
0.0
 13
33954.571234692
 23
28427.46030326454
 33
0.0
  0
TEXT
  8
0
  6
BYBLOCK
 10
33914.571234692
 20
26700.07935088359
 30
0.0
 40
80.0
  1
3150
 50
90.0
  7
ROMANS
 72
     1
 11
33874.571234692
 21
26852.46030326454
 31
0.0
 73
     2
  0
POINT
  8
DEFPOINTS
  6
BYBLOCK
 62
     0
 10
33943.79587683613
 20
25277.46030326454
 30
0.0
  0
POINT
  8
DEFPOINTS
  6
BYBLOCK
 62
     0
 10
33943.79587683613
 20
28427.46030326454
 30
0.0
  0
POINT
  8
DEFPOINTS
  6
BYBLOCK
 62
     0
 10
33954.571234692
 20
28427.46030326454
 30
0.0
  0
ENDBLK
  8
0
  0
BLOCK
  8
0
  2
*D38
 70
    65
 10
0.0
 20
0.0
 30
0.0
  3
*D
  0
LINE
  8
0
  6
BYBLOCK
 10
34143.79587683612
 20
24302.46030326455
 30
0.0
 11
34163.50587560217
 21
24302.46030326455
 31
0.0
  0
LINE
  8
0
  6
BYBLOCK
 10
34143.79587683612
 20
29402.46030326454
 30
0.0
 11
34163.50587560217
 21
29402.46030326454
 31
0.0
  0
LINE
  8
0
  6
BYBLOCK
 10
34162.50587560217
 20
24402.46030326455
 30
0.0
 11
34162.50587560217
 21
29302.46030326454
 31
0.0
  0
SOLID
  8
0
  6
BYBLOCK
 10
34145.83920893551
 20
24402.46030326455
 30
0.0
 11
34179.17254226884
 21
24402.46030326455
 31
0.0
 12
34162.50587560217
 22
24302.46030326455
 32
0.0
 13
34162.50587560217
 23
24302.46030326455
 33
0.0
  0
SOLID
  8
0
  6
BYBLOCK
 10
34145.83920893551
 20
29302.46030326454
 30
0.0
 11
34179.17254226884
 21
29302.46030326454
 31
0.0
 12
34162.50587560217
 22
29402.46030326454
 32
0.0
 13
34162.50587560217
 23
29402.46030326454
 33
0.0
  0
TEXT
  8
0
  6
BYBLOCK
 10
34122.50587560217
 20
26700.07935088359
 30
0.0
 40
80.0
  1
5100
 50
90.0
  7
ROMANS
 72
     1
 11
34082.50587560217
 21
26852.46030326454
 31
0.0
 73
     2
  0
POINT
  8
DEFPOINTS
  6
BYBLOCK
 62
     0
 10
34143.79587683612
 20
24302.46030326455
 30
0.0
  0
POINT
  8
DEFPOINTS
  6
BYBLOCK
 62
     0
 10
34143.79587683612
 20
29402.46030326454
 30
0.0
  0
POINT
  8
DEFPOINTS
  6
BYBLOCK
 62
     0
 10
34162.50587560217
 20
29402.46030326454
 30
0.0
  0
ENDBLK
  8
0
  0
BLOCK
  8
0
  2
*D39
 70
    65
 10
0.0
 20
0.0
 30
0.0
  3
*D
  0
LINE
  8
0
  6
BYBLOCK
 10
25663.79587683611
 20
24302.46030326455
 30
0.0
 11
25663.79587683611
 21
23556.24434561409
 31
0.0
  0
LINE
  8
0
  6
BYBLOCK
 10
33643.79587683612
 20
24302.46030326455
 30
0.0
 11
33643.79587683612
 21
23556.24434561409
 31
0.0
  0
LINE
  8
0
  6
BYBLOCK
 10
25763.79587683612
 20
23557.24434561409
 30
0.0
 11
33543.79587683612
 21
23557.24434561409
 31
0.0
  0
SOLID
  8
0
  6
BYBLOCK
 10
25763.79587683612
 20
23573.91101228075
 30
0.0
 11
25763.79587683612
 21
23540.57767894742
 31
0.0
 12
25663.79587683611
 22
23557.24434561409
 32
0.0
 13
25663.79587683611
 23
23557.24434561409
 33
0.0
  0
SOLID
  8
0
  6
BYBLOCK
 10
33543.79587683612
 20
23573.91101228075
 30
0.0
 11
33543.79587683612
 21
23540.57767894742
 31
0.0
 12
33643.79587683612
 22
23557.24434561409
 32
0.0
 13
33643.79587683612
 23
23557.24434561409
 33
0.0
  0
TEXT
  8
0
  6
BYBLOCK
 10
29501.41492445516
 20
23597.24434561409
 30
0.0
 40
80.0
  1
7980
  7
ROMANS
 72
     1
 11
29653.79587683612
 21
23637.24434561409
 31
0.0
 73
     2
  0
POINT
  8
DEFPOINTS
  6
BYBLOCK
 62
     0
 10
25663.79587683611
 20
24302.46030326455
 30
0.0
  0
POINT
  8
DEFPOINTS
  6
BYBLOCK
 62
     0
 10
33643.79587683612
 20
24302.46030326455
 30
0.0
  0
POINT
  8
DEFPOINTS
  6
BYBLOCK
 62
     0
 10
33643.79587683612
 20
23557.24434561409
 30
0.0
  0
ENDBLK
  8
0
  0
BLOCK
  8
0
  2
*X40
 70
    65
 10
0.0
 20
0.0
 30
0.0
  3
*X
  0
LINE
  8
0
 62
     0
 10
37006.14629365369
 20
32156.80798827635
 30
0.0
 11
38002.50114769351
 21
33153.16284231617
 31
0.0
  0
LINE
  8
0
 62
     0
 10
37006.14629365369
 20
32336.41311069773
 30
0.0
 11
37822.89602527213
 21
33153.16284231617
 31
0.0
  0
LINE
  8
0
 62
     0
 10
37006.14629365369
 20
32516.01823311912
 30
0.0
 11
37643.29090285075
 21
33153.16284231617
 31
0.0
  0
LINE
  8
0
 62
     0
 10
37006.14629365369
 20
32695.6233555405
 30
0.0
 11
37463.68578042936
 21
33153.16284231617
 31
0.0
  0
LINE
  8
0
 62
     0
 10
37006.14629365369
 20
32875.22847796188
 30
0.0
 11
37284.08065800798
 21
33153.16284231617
 31
0.0
  0
LINE
  8
0
 62
     0
 10
37006.14629365369
 20
33054.83360038326
 30
0.0
 11
37104.4755355866
 21
33153.16284231617
 31
0.0
  0
LINE
  8
0
 62
     0
 10
37182.10627011491
 20
32153.16284231619
 30
0.0
 11
38006.14629365369
 21
32977.20286585497
 31
0.0
  0
LINE
  8
0
 62
     0
 10
37361.7113925363
 20
32153.16284231619
 30
0.0
 11
38006.14629365369
 21
32797.59774343359
 31
0.0
  0
LINE
  8
0
 62
     0
 10
37541.31651495768
 20
32153.16284231619
 30
0.0
 11
38006.14629365369
 21
32617.99262101221
 31
0.0
  0
LINE
  8
0
 62
     0
 10
37720.92163737906
 20
32153.16284231619
 30
0.0
 11
38006.14629365369
 21
32438.38749859082
 31
0.0
  0
LINE
  8
0
 62
     0
 10
37900.52675980045
 20
32153.16284231619
 30
0.0
 11
38006.14629365369
 21
32258.78237616944
 31
0.0
  0
ENDBLK
  8
0
  0
BLOCK
  8
0
  2
*X41
 70
    65
 10
0.0
 20
0.0
 30
0.0
  3
*X
  0
LINE
  8
0
 62
     0
 10
40219.98396615576
 20
28904.86125360863
 30
0.0
 11
42026.05458689188
 21
30710.93187434474
 31
0.0
  0
LINE
  8
0
 62
     0
 10
44361.80332574638
 20
33046.68061319925
 30
0.0
 11
46125.99983352228
 21
34810.87712097515
 31
0.0
  0
LINE
  8
0
 62
     0
 10
42126.05458689187
 20
30810.93187434474
 30
0.0
 11
42817.54975376235
 21
31502.42704121522
 31
0.0
  0
LINE
  8
0
 62
     0
 10
43022.55104073423
 20
31707.4283281871
 30
0.0
 11
43310.01631151693
 21
31994.89359896979
 31
0.0
  0
LINE
  8
0
 62
     0
 10
43515.06327273568
 20
32199.94056018855
 30
0.0
 11
44226.05458689187
 21
32910.93187434474
 31
0.0
  0
LINE
  8
0
 62
     0
 10
40149.99512114075
 20
29014.477531015
 30
0.0
 11
42026.05458689188
 21
30890.53699676612
 31
0.0
  0
LINE
  8
0
 62
     0
 10
44182.198203325
 20
33046.68061319925
 30
0.0
 11
46029.55835157351
 21
34894.04076144776
 31
0.0
  0
LINE
  8
0
 62
     0
 10
42126.05458689187
 20
30990.53699676612
 30
0.0
 11
42701.76727372226
 21
31566.24968359651
 31
0.0
  0
LINE
  8
0
 62
     0
 10
43451.55677517788
 20
32316.03918505213
 30
0.0
 11
44082.198203325
 21
32946.68061319925
 31
0.0
  0
LINE
  8
0
 62
     0
 10
40092.9605650717
 20
29137.04809736733
 30
0.0
 11
42026.05458689188
 21
31070.14211918751
 31
0.0
  0
LINE
  8
0
 62
     0
 10
44002.59308090361
 20
33046.68061319925
 30
0.0
 11
45921.32942470044
 21
34965.41695699608
 31
0.0
  0
LINE
  8
0
 62
     0
 10
42126.05458689187
 20
31170.14211918751
 30
0.0
 11
42417.51197430478
 21
31461.59950660042
 31
0.0
  0
LINE
  8
0
 62
     0
 10
43555.76702792897
 20
32599.85456022461
 30
0.0
 11
43902.59308090362
 21
32946.68061319925
 31
0.0
  0
LINE
  8
0
 62
     0
 10
40051.00421921739
 20
29274.69687393441
 30
0.0
 11
42026.05458689188
 21
31249.74724160889
 31
0.0
  0
LINE
  8
0
 62
     0
 10
43822.98795848223
 20
33046.68061319925
 30
0.0
 11
45800.31258035395
 21
35024.00523507097
 31
0.0
  0
LINE
  8
0
 62
     0
 10
42126.05458689187
 20
31349.74724160889
 30
0.0
 11
42417.54051559776
 21
31641.23317031477
 31
0.0
  0
LINE
  8
0
 62
     0
 10
43376.19043774485
 20
32599.88309246186
 30
0.0
 11
43722.98795848223
 21
32946.68061319925
 31
0.0
  0
LINE
  8
0
 62
     0
 10
40028.18239916973
 20
29431.48017630814
 30
0.0
 11
42026.05458689188
 21
31429.35236403027
 31
0.0
  0
LINE
  8
0
 62
     0
 10
43643.38283606085
 20
33046.68061319925
 30
0.0
 11
45664.53110088604
 21
35067.82887802444
 31
0.0
  0
LINE
  8
0
 62
     0
 10
42126.05458689187
 20
31529.35236403027
 30
0.0
 11
42417.56905689071
 21
31820.86683402912
 31
0.0
  0
LINE
  8
0
 62
     0
 10
43196.61384756073
 20
32599.91162469912
 30
0.0
 11
43543.38283606085
 21
32946.68061319925
 31
0.0
  0
LINE
  8
0
 62
     0
 10
42631.25083854933
 20
32034.54861568773
 30
0.0
 11
42983.0790001149
 21
32386.3767772533
 31
0.0
  0
LINE
  8
0
 62
     0
 10
40026.05458689187
 20
29608.95748645166
 30
0.0
 11
42026.05458689188
 21
31608.95748645166
 31
0.0
  0
LINE
  8
0
 62
     0
 10
43463.77771363947
 20
33046.68061319925
 30
0.0
 11
45510.22876961867
 21
35093.13166917845
 31
0.0
  0
LINE
  8
0
 62
     0
 10
42126.05458689187
 20
31708.95748645166
 30
0.0
 11
42417.59759818368
 21
32000.50049774346
 31
0.0
  0
LINE
  8
0
 62
     0
 10
43017.0372573766
 20
32599.94015693638
 30
0.0
 11
43363.77771363947
 21
32946.68061319925
 31
0.0
  0
LINE
  8
0
 62
     0
 10
42504.2675538988
 20
32087.17045345859
 30
0.0
 11
42930.4905952433
 21
32513.39349480308
 31
0.0
  0
LINE
  8
0
 62
     0
 10
40026.05458689187
 20
29788.56260887304
 30
0.0
 11
42026.05458689188
 21
31788.56260887305
 31
0.0
  0
LINE
  8
0
 62
     0
 10
43284.17259121809
 20
33046.68061319925
 30
0.0
 11
45334.17259121809
 21
35096.68061319925
 31
0.0
  0
LINE
  8
0
 62
     0
 10
42126.05458689187
 20
31888.56260887304
 30
0.0
 11
42891.58745604361
 21
32654.09547802478
 31
0.0
  0
LINE
  8
0
 62
     0
 10
43135.00596876963
 20
32897.51399075079
 30
0.0
 11
43184.17259121808
 21
32946.68061319925
 31
0.0
  0
LINE
  8
0
 62
     0
 10
42891.58745604361
 20
32654.09547802478
 30
0.0
 11
43084.17259121809
 21
32846.68061319926
 31
0.0
  0
LINE
  8
0
 62
     0
 10
40026.05458689187
 20
29968.16773129442
 30
0.0
 11
42026.05458689188
 21
31968.16773129443
 31
0.0
  0
LINE
  8
0
 62
     0
 10
43104.5674687967
 20
33046.68061319925
 30
0.0
 11
45154.56746879671
 21
35096.68061319925
 31
0.0
  0
LINE
  8
0
 62
     0
 10
42126.05458689187
 20
32068.16773129442
 30
0.0
 11
42891.14575106805
 21
32833.2588954706
 31
0.0
  0
LINE
  8
0
 62
     0
 10
42975.5674687967
 20
32917.68061319925
 30
0.0
 11
43004.5674687967
 21
32946.68061319925
 31
0.0
  0
LINE
  8
0
 62
     0
 10
42891.14575106805
 20
32833.2588954706
 30
0.0
 11
42933.5674687967
 21
32875.68061319925
 31
0.0
  0
LINE
  8
0
 62
     0
 10
40026.05458689187
 20
30147.77285371581
 30
0.0
 11
42008.62153441342
 21
32130.33980123735
 31
0.0
  0
LINE
  8
0
 62
     0
 10
42924.96234637532
 20
33046.68061319925
 30
0.0
 11
44974.96234637532
 21
35096.68061319925
 31
0.0
  0
LINE
  8
0
 62
     0
 10
42126.05458689187
 20
32247.77285371581
 30
0.0
 11
42753.96234637532
 21
32875.68061319925
 31
0.0
  0
LINE
  8
0
 62
     0
 10
42795.96234637532
 20
32917.68061319925
 30
0.0
 11
42824.96234637532
 21
32946.68061319925
 31
0.0
  0
LINE
  8
0
 62
     0
 10
40026.05458689187
 20
30327.37797613719
 30
0.0
 11
42026.05458689188
 21
32327.37797613719
 31
0.0
  0
LINE
  8
0
 62
     0
 10
42745.35722395394
 20
33046.68061319925
 30
0.0
 11
44795.35722395394
 21
35096.68061319925
 31
0.0
  0
LINE
  8
0
 62
     0
 10
42126.05458689187
 20
32427.37797613719
 30
0.0
 11
42574.35722395394
 21
32875.68061319925
 31
0.0
  0
LINE
  8
0
 62
     0
 10
42616.35722395393
 20
32917.68061319925
 30
0.0
 11
42645.35722395393
 21
32946.68061319925
 31
0.0
  0
LINE
  8
0
 62
     0
 10
40026.05458689187
 20
30506.98309855857
 30
0.0
 11
42026.05458689188
 21
32506.98309855857
 31
0.0
  0
LINE
  8
0
 62
     0
 10
42565.75210153256
 20
33046.68061319925
 30
0.0
 11
44615.75210153256
 21
35096.68061319925
 31
0.0
  0
LINE
  8
0
 62
     0
 10
42126.05458689187
 20
32606.98309855857
 30
0.0
 11
42394.75210153255
 21
32875.68061319925
 31
0.0
  0
LINE
  8
0
 62
     0
 10
42436.75210153255
 20
32917.68061319925
 30
0.0
 11
42465.75210153255
 21
32946.68061319925
 31
0.0
  0
LINE
  8
0
 62
     0
 10
40026.05458689187
 20
30686.58822097996
 30
0.0
 11
42026.05458689188
 21
32686.58822097996
 31
0.0
  0
LINE
  8
0
 62
     0
 10
42386.14697911118
 20
33046.68061319925
 30
0.0
 11
44436.14697911117
 21
35096.68061319925
 31
0.0
  0
LINE
  8
0
 62
     0
 10
42126.05458689187
 20
32786.58822097995
 30
0.0
 11
42186.14697911118
 21
32846.68061319926
 31
0.0
  0
LINE
  8
0
 62
     0
 10
42257.14697911117
 20
32917.68061319925
 30
0.0
 11
42286.14697911117
 21
32946.68061319925
 31
0.0
  0
LINE
  8
0
 62
     0
 10
40026.05458689187
 20
30866.19334340134
 30
0.0
 11
42026.05458689188
 21
32866.19334340134
 31
0.0
  0
LINE
  8
0
 62
     0
 10
42206.54185668979
 20
33046.68061319925
 30
0.0
 11
44256.54185668979
 21
35096.68061319925
 31
0.0
  0
LINE
  8
0
 62
     0
 10
40026.05458689187
 20
31045.79846582272
 30
0.0
 11
42026.05458689188
 21
33045.79846582273
 31
0.0
  0
LINE
  8
0
 62
     0
 10
42026.93673426841
 20
33046.68061319925
 30
0.0
 11
44076.93673426841
 21
35096.68061319925
 31
0.0
  0
LINE
  8
0
 62
     0
 10
40026.05458689187
 20
31225.40358824411
 30
0.0
 11
43897.33161184702
 21
35096.68061319925
 31
0.0
  0
LINE
  8
0
 62
     0
 10
40026.05458689187
 20
31405.00871066549
 30
0.0
 11
43717.72648942564
 21
35096.68061319925
 31
0.0
  0
LINE
  8
0
 62
     0
 10
40026.05458689187
 20
31584.61383308687
 30
0.0
 11
43538.12136700426
 21
35096.68061319925
 31
0.0
  0
LINE
  8
0
 62
     0
 10
40026.05458689188
 20
31764.21895550826
 30
0.0
 11
43358.51624458287
 21
35096.68061319925
 31
0.0
  0
LINE
  8
0
 62
     0
 10
40026.05458689188
 20
31943.82407792964
 30
0.0
 11
43178.91112216149
 21
35096.68061319925
 31
0.0
  0
LINE
  8
0
 62
     0
 10
40026.05458689188
 20
32123.42920035102
 30
0.0
 11
42999.30599974011
 21
35096.68061319925
 31
0.0
  0
LINE
  8
0
 62
     0
 10
40026.05458689188
 20
32303.03432277241
 30
0.0
 11
42819.70087731873
 21
35096.68061319925
 31
0.0
  0
LINE
  8
0
 62
     0
 10
40026.05458689188
 20
32482.63944519379
 30
0.0
 11
42640.09575489734
 21
35096.68061319925
 31
0.0
  0
LINE
  8
0
 62
     0
 10
40026.05458689188
 20
32662.24456761517
 30
0.0
 11
42460.49063247596
 21
35096.68061319925
 31
0.0
  0
LINE
  8
0
 62
     0
 10
40026.05458689188
 20
32841.84969003656
 30
0.0
 11
42280.88551005457
 21
35096.68061319925
 31
0.0
  0
LINE
  8
0
 62
     0
 10
40026.05458689188
 20
33021.45481245794
 30
0.0
 11
42101.28038763319
 21
35096.68061319925
 31
0.0
  0
LINE
  8
0
 62
     0
 10
40026.05458689188
 20
33201.05993487932
 30
0.0
 11
41921.67526521181
 21
35096.68061319925
 31
0.0
  0
LINE
  8
0
 62
     0
 10
40026.05458689188
 20
33380.66505730071
 30
0.0
 11
41742.07014279042
 21
35096.68061319925
 31
0.0
  0
LINE
  8
0
 62
     0
 10
40026.05458689188
 20
33560.27017972209
 30
0.0
 11
41562.46502036904
 21
35096.68061319925
 31
0.0
  0
LINE
  8
0
 62
     0
 10
40026.05458689188
 20
33739.87530214347
 30
0.0
 11
41382.85989794766
 21
35096.68061319925
 31
0.0
  0
LINE
  8
0
 62
     0
 10
40026.05458689188
 20
33919.48042456486
 30
0.0
 11
41203.25477552627
 21
35096.68061319925
 31
0.0
  0
LINE
  8
0
 62
     0
 10
40026.05748572495
 20
34099.08844581931
 30
0.0
 11
41023.64675427183
 21
35096.67771436618
 31
0.0
  0
LINE
  8
0
 62
     0
 10
40046.83176327122
 20
34299.46784578697
 30
0.0
 11
40823.26735430417
 21
35075.90343681991
 31
0.0
  0
LINE
  8
0
 62
     0
 10
40154.19457981852
 20
34586.43578475564
 30
0.0
 11
40536.29941533549
 21
34968.54062027261
 31
0.0
  0
LINE
  8
0
 62
     0
 10
40301.83696296885
 20
28807.10912800033
 30
0.0
 11
42041.40844816777
 21
30546.68061319925
 31
0.0
  0
LINE
  8
0
 62
     0
 10
44426.05458689188
 20
32931.32675192336
 30
0.0
 11
46210.98825487035
 21
34716.26041990184
 31
0.0
  0
LINE
  8
0
 62
     0
 10
44297.05458689188
 20
32802.32675192336
 30
0.0
 11
44326.05458689187
 21
32831.32675192336
 31
0.0
  0
LINE
  8
0
 62
     0
 10
42226.05458689187
 20
30731.32675192335
 30
0.0
 11
42907.33804659085
 21
31412.61021162233
 31
0.0
  0
LINE
  8
0
 62
     0
 10
43604.85156556418
 20
32110.12373059566
 30
0.0
 11
44255.05458689189
 21
32760.32675192336
 31
0.0
  0
LINE
  8
0
 62
     0
 10
43108.15637498264
 20
31613.42854001413
 30
0.0
 11
43404.03323717239
 21
31909.30540220388
 31
0.0
  0
LINE
  8
0
 62
     0
 10
40395.15173373785
 20
28720.81877634796
 30
0.0
 11
42221.01357058915
 21
30546.68061319925
 31
0.0
  0
LINE
  8
0
 62
     0
 10
44426.05458689188
 20
32751.72162950198
 30
0.0
 11
46284.28244723403
 21
34609.94948984414
 31
0.0
  0
LINE
  8
0
 62
     0
 10
42321.01357058914
 20
30646.68061319925
 30
0.0
 11
42997.12633941935
 21
31322.79338202945
 31
0.0
  0
LINE
  8
0
 62
     0
 10
44297.05458689188
 20
32622.72162950198
 30
0.0
 11
44326.05458689187
 21
32651.72162950197
 31
0.0
  0
LINE
  8
0
 62
     0
 10
43250.80289324993
 20
31576.46993586003
 30
0.0
 11
43440.99352321691
 21
31766.66056582701
 31
0.0
  0
LINE
  8
0
 62
     0
 10
43694.63985839267
 20
32020.30690100277
 30
0.0
 11
44255.05458689189
 21
32580.72162950198
 31
0.0
  0
LINE
  8
0
 62
     0
 10
40500.10373224123
 20
28646.16565242995
 30
0.0
 11
42400.61869301053
 21
30546.68061319925
 31
0.0
  0
LINE
  8
0
 62
     0
 10
44426.05458689188
 20
32572.11650708059
 30
0.0
 11
46345.00103265335
 21
34491.06295284206
 31
0.0
  0
LINE
  8
0
 62
     0
 10
44297.05458689188
 20
32443.11650708059
 30
0.0
 11
44326.05458689187
 21
32472.11650708059
 31
0.0
  0
LINE
  8
0
 62
     0
 10
42500.61869301053
 20
30646.68061319925
 30
0.0
 11
42943.16690319677
 21
31089.22882338548
 31
0.0
  0
LINE
  8
0
 62
     0
 10
43927.79819041013
 20
32073.86011059885
 30
0.0
 11
44255.05458689189
 21
32401.1165070806
 31
0.0
  0
LINE
  8
0
 62
     0
 10
40617.49304227772
 20
28583.94984004506
 30
0.0
 11
42580.22381543192
 21
30546.68061319925
 31
0.0
  0
LINE
  8
0
 62
     0
 10
44426.05458689188
 20
32392.51138465921
 30
0.0
 11
46391.35728993148
 21
34357.81408769881
 31
0.0
  0
LINE
  8
0
 62
     0
 10
42680.22381543191
 20
30646.68061319925
 30
0.0
 11
43005.05217683856
 21
30971.50897460589
 31
0.0
  0
LINE
  8
0
 62
     0
 10
44297.05458689188
 20
32263.51138465921
 30
0.0
 11
44326.05458689187
 21
32292.51138465921
 31
0.0
  0
LINE
  8
0
 62
     0
 10
43005.05217683856
 20
30971.5089746059
 30
0.0
 11
43047.04550521091
 21
31013.50230297824
 31
0.0
  0
LINE
  8
0
 62
     0
 10
44161.82239500241
 20
32128.27919276974
 30
0.0
 11
44255.05458689189
 21
32221.51138465922
 31
0.0
  0
LINE
  8
0
 62
     0
 10
44004.0259148372
 20
31970.48271260454
 30
0.0
 11
44046.0325896457
 21
32012.48938741304
 31
0.0
  0
LINE
  8
0
 62
     0
 10
44046.0325896457
 20
32012.48938741304
 30
0.0
 11
44161.82239500241
 21
32128.27919276974
 31
0.0
  0
LINE
  8
0
 62
     0
 10
40748.9804071638
 20
28535.83208250975
 30
0.0
 11
42759.8289378533
 21
30546.68061319925
 31
0.0
  0
LINE
  8
0
 62
     0
 10
44426.05458689188
 20
32212.90626223783
 30
0.0
 11
46419.97049726378
 21
34206.82217260973
 31
0.0
  0
LINE
  8
0
 62
     0
 10
42859.82893785329
 20
30646.68061319925
 30
0.0
 11
43184.62876702892
 21
30971.48044237488
 31
0.0
  0
LINE
  8
0
 62
     0
 10
44297.05458689188
 20
32083.90626223783
 30
0.0
 11
44326.05458689187
 21
32112.90626223783
 31
0.0
  0
LINE
  8
0
 62
     0
 10
43184.62876702893
 20
30971.48044237488
 30
0.0
 11
43226.62209540127
 21
31013.47377074722
 31
0.0
  0
LINE
  8
0
 62
     0
 10
44046.0040483465
 20
31832.85572369245
 30
0.0
 11
44255.05458689189
 21
32041.90626223784
 31
0.0
  0
LINE
  8
0
 62
     0
 10
43456.3746439593
 20
31243.22631930525
 30
0.0
 11
43774.10040040411
 21
31560.95207575006
 31
0.0
  0
LINE
  8
0
 62
     0
 10
44003.99737353799
 20
31790.84904888394
 30
0.0
 11
44046.00404834649
 21
31832.85572369245
 31
0.0
  0
LINE
  8
0
 62
     0
 10
40897.70506492779
 20
28504.95161785236
 30
0.0
 11
42939.43406027469
 21
30546.68061319925
 31
0.0
  0
LINE
  8
0
 62
     0
 10
44426.05458689188
 20
32033.30113981645
 30
0.0
 11
46426.05458689187
 21
34033.30113981644
 31
0.0
  0
LINE
  8
0
 62
     0
 10
43039.43406027468
 20
30646.68061319925
 30
0.0
 11
43364.20535721929
 21
30971.45191014386
 31
0.0
  0
LINE
  8
0
 62
     0
 10
44297.05458689188
 20
31904.30113981644
 30
0.0
 11
44326.05458689187
 21
31933.30113981645
 31
0.0
  0
LINE
  8
0
 62
     0
 10
43364.20535721929
 20
30971.45191014386
 30
0.0
 11
43406.19868559164
 21
31013.44523851621
 31
0.0
  0
LINE
  8
0
 62
     0
 10
44239.43406027468
 20
31846.68061319926
 30
0.0
 11
44255.05458689188
 21
31862.30113981645
 31
0.0
  0
LINE
  8
0
 62
     0
 10
43508.96304883089
 20
31116.20960175546
 30
0.0
 11
43901.08368505464
 21
31508.33023797921
 31
0.0
  0
LINE
  8
0
 62
     0
 10
44045.97550704729
 20
31653.22205997186
 30
0.0
 11
44226.05458689188
 21
31833.30113981645
 31
0.0
  0
LINE
  8
0
 62
     0
 10
44003.96883223878
 20
31611.21538516335
 30
0.0
 11
44045.97550704728
 21
31653.22205997186
 31
0.0
  0
LINE
  8
0
 62
     0
 10
41069.03918269606
 20
28496.68061319925
 30
0.0
 11
43119.03918269607
 21
30546.68061319925
 31
0.0
  0
LINE
  8
0
 62
     0
 10
44426.05458689188
 20
31853.69601739506
 30
0.0
 11
46426.05458689187
 21
33853.69601739506
 31
0.0
  0
LINE
  8
0
 62
     0
 10
43219.03918269606
 20
30646.68061319925
 30
0.0
 11
43543.78194740966
 21
30971.42337791285
 31
0.0
  0
LINE
  8
0
 62
     0
 10
43585.77527578201
 20
31013.41670628519
 30
0.0
 11
44003.94029093957
 21
31431.58172144276
 31
0.0
  0
LINE
  8
0
 62
     0
 10
44045.94696574807
 20
31473.58839625126
 30
0.0
 11
44319.03918269608
 21
31746.68061319926
 31
0.0
  0
LINE
  8
0
 62
     0
 10
41248.64430511745
 20
28496.68061319925
 30
0.0
 11
43298.64430511745
 21
30546.68061319925
 31
0.0
  0
LINE
  8
0
 62
     0
 10
44426.05458689188
 20
31674.09089497368
 30
0.0
 11
46426.05458689187
 21
33674.09089497368
 31
0.0
  0
LINE
  8
0
 62
     0
 10
43398.64430511744
 20
30646.68061319925
 30
0.0
 11
44326.05458689187
 21
31574.09089497368
 31
0.0
  0
LINE
  8
0
 62
     0
 10
41428.24942753883
 20
28496.68061319925
 30
0.0
 11
43478.24942753883
 21
30546.68061319925
 31
0.0
  0
LINE
  8
0
 62
     0
 10
44426.05458689188
 20
31494.4857725523
 30
0.0
 11
46426.05458689187
 21
33494.48577255229
 31
0.0
  0
LINE
  8
0
 62
     0
 10
43578.24942753883
 20
30646.68061319925
 30
0.0
 11
44326.05458689187
 21
31394.4857725523
 31
0.0
  0
LINE
  8
0
 62
     0
 10
41607.85454996021
 20
28496.68061319925
 30
0.0
 11
43657.85454996021
 21
30546.68061319925
 31
0.0
  0
LINE
  8
0
 62
     0
 10
44426.05458689188
 20
31314.88065013091
 30
0.0
 11
46426.05458689187
 21
33314.88065013091
 31
0.0
  0
LINE
  8
0
 62
     0
 10
43757.85454996021
 20
30646.68061319925
 30
0.0
 11
44326.05458689187
 21
31214.88065013091
 31
0.0
  0
LINE
  8
0
 62
     0
 10
41787.45967238159
 20
28496.68061319925
 30
0.0
 11
43837.4596723816
 21
30546.68061319925
 31
0.0
  0
LINE
  8
0
 62
     0
 10
44426.05458689188
 20
31135.27552770953
 30
0.0
 11
46426.05458689187
 21
33135.27552770953
 31
0.0
  0
LINE
  8
0
 62
     0
 10
43937.45967238159
 20
30646.68061319925
 30
0.0
 11
44326.05458689187
 21
31035.27552770953
 31
0.0
  0
LINE
  8
0
 62
     0
 10
41967.06479480298
 20
28496.68061319925
 30
0.0
 11
44017.06479480298
 21
30546.68061319925
 31
0.0
  0
LINE
  8
0
 62
     0
 10
44426.05458689188
 20
30955.67040528815
 30
0.0
 11
46426.05458689187
 21
32955.67040528814
 31
0.0
  0
LINE
  8
0
 62
     0
 10
44117.06479480297
 20
30646.68061319925
 30
0.0
 11
44326.05458689187
 21
30855.67040528814
 31
0.0
  0
LINE
  8
0
 62
     0
 10
42146.66991722436
 20
28496.68061319925
 30
0.0
 11
44196.66991722436
 21
30546.68061319925
 31
0.0
  0
LINE
  8
0
 62
     0
 10
44426.05458689188
 20
30776.06528286677
 30
0.0
 11
46426.05458689187
 21
32776.06528286676
 31
0.0
  0
LINE
  8
0
 62
     0
 10
42326.27503964574
 20
28496.68061319925
 30
0.0
 11
44376.27503964574
 21
30546.68061319925
 31
0.0
  0
LINE
  8
0
 62
     0
 10
44426.05458689189
 20
30596.46016044539
 30
0.0
 11
46426.05458689187
 21
32596.46016044538
 31
0.0
  0
LINE
  8
0
 62
     0
 10
42505.88016206713
 20
28496.68061319925
 30
0.0
 11
46426.05458689187
 21
32416.85503802399
 31
0.0
  0
LINE
  8
0
 62
     0
 10
42685.48528448851
 20
28496.68061319925
 30
0.0
 11
46426.05458689187
 21
32237.24991560261
 31
0.0
  0
LINE
  8
0
 62
     0
 10
42865.09040690989
 20
28496.68061319925
 30
0.0
 11
46426.05458689187
 21
32057.64479318123
 31
0.0
  0
LINE
  8
0
 62
     0
 10
43044.69552933128
 20
28496.68061319925
 30
0.0
 11
46426.05458689187
 21
31878.03967075984
 31
0.0
  0
LINE
  8
0
 62
     0
 10
43224.30065175266
 20
28496.68061319925
 30
0.0
 11
46426.05458689187
 21
31698.43454833846
 31
0.0
  0
LINE
  8
0
 62
     0
 10
43403.90577417404
 20
28496.68061319925
 30
0.0
 11
46426.05458689187
 21
31518.82942591708
 31
0.0
  0
LINE
  8
0
 62
     0
 10
43583.51089659543
 20
28496.68061319925
 30
0.0
 11
46426.05458689187
 21
31339.22430349569
 31
0.0
  0
LINE
  8
0
 62
     0
 10
43763.11601901681
 20
28496.68061319925
 30
0.0
 11
46426.05458689187
 21
31159.61918107431
 31
0.0
  0
LINE
  8
0
 62
     0
 10
43942.72114143819
 20
28496.68061319925
 30
0.0
 11
46426.05458689187
 21
30980.01405865293
 31
0.0
  0
LINE
  8
0
 62
     0
 10
44122.32626385958
 20
28496.68061319925
 30
0.0
 11
46426.05458689187
 21
30800.40893623154
 31
0.0
  0
LINE
  8
0
 62
     0
 10
44301.93138628096
 20
28496.68061319925
 30
0.0
 11
46426.05458689187
 21
30620.80381381016
 31
0.0
  0
LINE
  8
0
 62
     0
 10
44481.53650870234
 20
28496.68061319925
 30
0.0
 11
46426.05458689187
 21
30441.19869138878
 31
0.0
  0
LINE
  8
0
 62
     0
 10
44661.14163112372
 20
28496.68061319925
 30
0.0
 11
46426.05458689187
 21
30261.5935689674
 31
0.0
  0
LINE
  8
0
 62
     0
 10
44840.74675354511
 20
28496.68061319925
 30
0.0
 11
46426.05458689187
 21
30081.98844654601
 31
0.0
  0
LINE
  8
0
 62
     0
 10
45020.35187596649
 20
28496.68061319925
 30
0.0
 11
46426.05458689187
 21
29902.38332412463
 31
0.0
  0
LINE
  8
0
 62
     0
 10
45199.95699838787
 20
28496.68061319925
 30
0.0
 11
46426.05458689187
 21
29722.77820170325
 31
0.0
  0
LINE
  8
0
 62
     0
 10
45379.56212080926
 20
28496.68061319925
 30
0.0
 11
46426.05458689187
 21
29543.17307928187
 31
0.0
  0
LINE
  8
0
 62
     0
 10
45569.5105404323
 20
28507.02391040092
 30
0.0
 11
46415.71128969021
 21
29353.22465965882
 31
0.0
  0
LINE
  8
0
 62
     0
 10
45819.36783701578
 20
28577.27608456301
 30
0.0
 11
46345.45911552812
 21
29103.36736307535
 31
0.0
  0
ENDBLK
  8
0
  0
ENDSEC
  0
SECTION
  2
ENTITIES
  0
LINE
  8
DIK
 10
45426.05458689187
 20
28496.68061319925
 30
0.0
 11
41026.05458689187
 21
28496.68061319925
 31
0.0
  0
LINE
  8
DIK
 10
41026.05458689188
 20
35096.68061319925
 30
0.0
 11
45426.05458689187
 21
35096.68061319925
 31
0.0
  0
LINE
  8
DIK
 10
46426.05458689187
 20
34096.68061319925
 30
0.0
 11
46426.05458689187
 21
29496.68061319925
 31
0.0
  0
LINE
  8
DIK
 10
40026.05458689187
 20
29496.68061319925
 30
0.0
 11
40026.05458689188
 21
34096.68061319925
 31
0.0
  0
DIMENSION
  8
DUN
  2
*D4
 10
40026.05458689187
 20
32530.18359767496
 30
0.0
 11
41026.05458689187
 21
32630.18359767496
 31
0.0
 12
55121.79479839405
 22
41147.82330531198
 32
0.0
 13
42026.05458689188
 23
32522.76715445098
 33
0.0
 14
40026.05458689187
 24
32522.76715445098
 34
0.0
  0
DIMENSION
  8
DUN
  2
*D5
 10
42619.82520169846
 20
35096.68061319925
 30
0.0
 11
42519.82520169846
 21
34071.68061319926
 31
0.0
 12
55121.79479839405
 22
41147.82330531198
 32
0.0
 13
42607.2459513066
 23
33046.68061319925
 33
0.0
 14
42607.2459513066
 24
35096.68061319925
 34
0.0
 50
90.0
  0
ARC
  8
DIK
 10
41026.05458689188
 20
34096.68061319925
 30
0.0
 40
1000.0
 50
90.0
 51
180.0
  0
ARC
  8
DIK
 10
45426.05458689187
 20
34096.68061319925
 30
0.0
 40
1000.0
 50
0.0
 51
90.0
  0
ARC
  8
DIK
 10
45426.05458689187
 20
29496.68061319925
 30
0.0
 40
1000.0
 50
270.0
 51
0.0
  0
ARC
  8
DIK
 10
41026.05458689187
 20
29496.68061319925
 30
0.0
 40
1000.0
 50
180.0
 51
270.0
  0
DIMENSION
  8
DUN
  2
*D6
 10
46426.05458689187
 20
35845.769554241
 30
0.0
 11
43226.05458689189
 21
35945.769554241
 31
0.0
 12
55121.79479839405
 22
41147.82330531198
 32
0.0
 13
40026.05458689188
 23
34096.68061319925
 33
0.0
 14
46426.05458689187
 24
34096.68061319925
 34
0.0
  0
DIMENSION
  8
DUN
  2
*D7
 10
39688.86262698973
 20
28496.68061319925
 30
0.0
 11
39588.86262698973
 21
31796.68061319925
 31
0.0
 12
55121.79479839405
 22
41147.82330531198
 32
0.0
 13
41026.05458689188
 23
35096.68061319925
 33
0.0
 14
41026.05458689187
 24
28496.68061319925
 34
0.0
 50
90.0
  0
LINE
  8
DIK
 10
44046.05058496225
 20
32125.74858483873
 30
0.0
 11
44326.05458689187
 21
32131.86907606843
 31
0.0
  0
LINE
  8
DIK
 10
44326.05458689187
 20
31461.49215033008
 30
0.0
 11
44045.94248250102
 21
31445.37166768838
 31
0.0
  0
LINE
  8
DIK
 10
43571.83910185508
 20
30971.41892001992
 30
0.0
 11
43561.24304976106
 21
30646.68061319925
 31
0.0
  0
LINE
  8
DIK
 10
42896.46297907228
 20
30976.52622798735
 30
0.0
 11
42890.86612402271
 21
30646.68061319925
 31
0.0
  0
LINE
  8
DIK
 10
42422.51023140383
 20
31450.62960863329
 30
0.0
 11
42126.05458689187
 21
31461.49215033008
 31
0.0
  0
LINE
  8
DIK
 10
42422.61674500369
 20
32121.00652590988
 30
0.0
 11
42126.05458689187
 21
32131.86907606843
 31
0.0
  0
LINE
  8
DIK
 10
42891.72092011968
 20
32599.96006796968
 30
0.0
 11
42890.8661240227
 21
32946.68061319925
 31
0.0
  0
LINE
  8
DIK
 10
43572.09783729389
 20
32599.8519654848
 30
0.0
 11
43561.24304976105
 21
32946.68061319925
 31
0.0
  0
DIMENSION
  8
DUN
  2
*D2
 10
44738.28783394433
 20
30546.68061319925
 30
0.0
 11
44638.28783394433
 21
31796.68061319925
 31
0.0
 12
55121.79479839405
 22
41147.82330531198
 32
0.0
 13
44426.05458689188
 23
33046.68061319925
 33
0.0
 14
44426.05458689188
 24
30546.68061319925
 34
0.0
 50
90.0
  0
LINE
  8
DIK
 10
44426.05458689188
 20
30546.68061319925
 30
0.0
 11
42026.05458689188
 21
30546.68061319925
 31
0.0
  0
LINE
  8
DIK
 10
44426.05458689188
 20
33046.68061319925
 30
0.0
 11
44426.05458689188
 21
30546.68061319925
 31
0.0
  0
LINE
  8
DIK
 10
42026.05458689188
 20
33046.68061319925
 30
0.0
 11
44426.05458689188
 21
33046.68061319925
 31
0.0
  0
LINE
  8
DIK
 10
42026.05458689188
 20
30546.68061319925
 30
0.0
 11
42026.05458689188
 21
33046.68061319925
 31
0.0
  0
DIMENSION
  8
DUN
  2
*D3
 10
44426.05458689188
 20
30223.3336949804
 30
0.0
 11
43226.05458689188
 21
30323.3336949804
 31
0.0
 12
55121.79479839405
 22
41147.82330531198
 32
0.0
 13
42026.05458689188
 23
30546.68061319925
 33
0.0
 14
44426.05458689188
 24
30546.68061319925
 34
0.0
  0
LINE
  8
HARTLIJN
 10
43561.24304976106
 20
30546.68061319925
 30
0.0
 11
43561.24304976106
 21
30646.68061319925
 31
0.0
  0
ARC
  8
DIK
 10
43561.24304976106
 20
30546.68061319925
 30
0.0
 40
17.5
 50
180.0
 51
0.0
  0
ARC
  8
DIK
 10
42890.86612402271
 20
30546.68061319925
 30
0.0
 40
17.5
 50
180.0
 51
0.0
  0
LINE
  8
HARTLIJN
 10
42890.86612402271
 20
30546.68061319925
 30
0.0
 11
42890.86612402271
 21
30646.68061319925
 31
0.0
  0
LINE
  8
HARTLIJN
 10
42890.86612402271
 20
30536.0444108968
 30
0.0
 11
42890.86612402271
 21
30636.0444108968
 31
0.0
  0
LINE
  8
HARTLIJN
 10
43561.24304976106
 20
30536.0444108968
 30
0.0
 11
43561.24304976106
 21
30636.0444108968
 31
0.0
  0
LINE
  8
HARTLIJN
 10
42890.8661240227
 20
33046.68061319925
 30
0.0
 11
42890.8661240227
 21
32946.68061319925
 31
0.0
  0
ARC
  8
DIK
 10
42890.8661240227
 20
33046.68061319925
 30
0.0
 40
17.5
 50
0.0
 51
180.0
  0
ARC
  8
DIK
 10
43561.24304976105
 20
33046.68061319925
 30
0.0
 40
17.5
 50
0.0
 51
180.0
  0
LINE
  8
HARTLIJN
 10
43561.24304976105
 20
33046.68061319925
 30
0.0
 11
43561.24304976105
 21
32946.68061319925
 31
0.0
  0
LINE
  8
HARTLIJN
 10
43561.24304976105
 20
33036.04441089681
 30
0.0
 11
43561.24304976105
 21
32936.04441089681
 31
0.0
  0
LINE
  8
HARTLIJN
 10
42890.8661240227
 20
33036.0444108968
 30
0.0
 11
42890.8661240227
 21
32936.0444108968
 31
0.0
  0
LINE
  8
HARTLIJN
 10
44426.05458689188
 20
32131.86907606843
 30
0.0
 11
44326.05458689187
 21
32131.86907606843
 31
0.0
  0
ARC
  8
DIK
 10
44426.05458689188
 20
32131.86907606843
 30
0.0
 40
17.5
 50
270.0
 51
90.0
  0
LINE
  8
HARTLIJN
 10
44436.69078919432
 20
32131.86907606843
 30
0.0
 11
44336.69078919432
 21
32131.86907606843
 31
0.0
  0
LINE
  8
HARTLIJN
 10
44415.41838458943
 20
31461.49215033008
 30
0.0
 11
44326.05458689188
 21
31461.49215033008
 31
0.0
  0
ARC
  8
DIK
 10
44415.41838458943
 20
31461.49215033008
 30
0.0
 40
17.5
 50
270.0
 51
90.0
  0
LINE
  8
HARTLIJN
 10
44426.05458689188
 20
31461.49215033008
 30
0.0
 11
44326.05458689187
 21
31461.49215033008
 31
0.0
  0
LINE
  8
HARTLIJN
 10
42015.41838458942
 20
31461.49215033008
 30
0.0
 11
42115.41838458943
 21
31461.49215033008
 31
0.0
  0
ARC
  8
DIK
 10
42026.05458689188
 20
31461.49215033008
 30
0.0
 40
17.5
 50
90.0
 51
270.0
  0
LINE
  8
HARTLIJN
 10
42026.05458689188
 20
31461.49215033008
 30
0.0
 11
42126.05458689187
 21
31461.49215033008
 31
0.0
  0
LINE
  8
HARTLIJN
 10
42015.41838458942
 20
32131.86907606843
 30
0.0
 11
42115.41838458943
 21
32131.86907606843
 31
0.0
  0
ARC
  8
DIK
 10
42026.05458689188
 20
32131.86907606843
 30
0.0
 40
17.5
 50
90.0
 51
270.0
  0
LINE
  8
HARTLIJN
 10
42026.05458689188
 20
32131.86907606843
 30
0.0
 11
42126.05458689187
 21
32131.86907606843
 31
0.0
  0
POLYLINE
  8
DIK
 66
     1
 10
0.0
 20
0.0
 30
0.0
 70
     1
  0
VERTEX
  8
DIK
 10
42126.05458689187
 20
30646.68061319925
 30
0.0
  0
VERTEX
  8
DIK
 10
42126.05458689187
 20
30746.68061319925
 30
0.0
  0
VERTEX
  8
DIK
 10
42226.05458689187
 20
30746.68061319925
 30
0.0
  0
VERTEX
  8
DIK
 10
42226.05458689187
 20
30646.68061319925
 30
0.0
  0
SEQEND
  8
DIK
  0
POLYLINE
  8
DIK
 66
     1
 10
0.0
 20
0.0
 30
0.0
 70
     1
  0
VERTEX
  8
DIK
 10
44326.05458689187
 20
30646.68061319925
 30
0.0
  0
VERTEX
  8
DIK
 10
44326.05458689187
 20
30746.68061319925
 30
0.0
  0
VERTEX
  8
DIK
 10
44226.05458689187
 20
30746.68061319925
 30
0.0
  0
VERTEX
  8
DIK
 10
44226.05458689187
 20
30646.68061319925
 30
0.0
  0
SEQEND
  8
DIK
  0
POLYLINE
  8
DIK
 66
     1
 10
0.0
 20
0.0
 30
0.0
 70
     1
  0
VERTEX
  8
DIK
 10
42126.05458689187
 20
32846.68061319925
 30
0.0
  0
VERTEX
  8
DIK
 10
42126.05458689187
 20
32946.68061319925
 30
0.0
  0
VERTEX
  8
DIK
 10
42226.05458689187
 20
32946.68061319925
 30
0.0
  0
VERTEX
  8
DIK
 10
42226.05458689187
 20
32846.68061319925
 30
0.0
  0
SEQEND
  8
DIK
  0
POLYLINE
  8
DIK
 66
     1
 10
0.0
 20
0.0
 30
0.0
 70
     1
  0
VERTEX
  8
DIK
 10
44326.05458689187
 20
32846.68061319925
 30
0.0
  0
VERTEX
  8
DIK
 10
44326.05458689187
 20
32946.68061319925
 30
0.0
  0
VERTEX
  8
DIK
 10
44226.05458689187
 20
32946.68061319925
 30
0.0
  0
VERTEX
  8
DIK
 10
44226.05458689187
 20
32846.68061319925
 30
0.0
  0
SEQEND
  8
DIK
  0
LINE
  8
DIK
 10
42126.05458689187
 20
30646.68061319925
 30
0.0
 11
42126.05458689187
 21
32946.68061319925
 31
0.0
  0
LINE
  8
DIK
 10
42026.05458689188
 20
32946.68061319925
 30
0.0
 11
44426.05458689188
 21
32946.68061319925
 31
0.0
  0
LINE
  8
DIK
 10
44326.05458689187
 20
32946.68061319925
 30
0.0
 11
44326.05458689187
 21
30646.68061319925
 31
0.0
  0
LINE
  8
DIK
 10
44426.05458689188
 20
30646.68061319925
 30
0.0
 11
42026.05458689188
 21
30646.68061319925
 31
0.0
  0
LINE
  8
DIK
 10
43318.47357695738
 20
31994.89225522754
 30
0.0
 11
43567.09704292622
 21
32594.85275997849
 31
0.0
  0
LINE
  8
DIK
 10
43145.15292825446
 20
31994.91979347616
 30
0.0
 11
42896.72012564964
 21
32594.95927357834
 31
0.0
  0
LINE
  8
DIK
 10
43022.57724975463
 20
31872.38305994103
 30
0.0
 11
42422.61674500369
 21
32121.00652590988
 31
0.0
  0
LINE
  8
DIK
 10
43022.549711506
 20
31699.06241123812
 30
0.0
 11
42422.51023140383
 21
31450.62960863329
 31
0.0
  0
LINE
  8
DIK
 10
43145.08644504114
 20
31576.48673273829
 30
0.0
 11
42896.46297907228
 21
30976.52622798735
 31
0.0
  0
LINE
  8
DIK
 10
43318.40709374406
 20
31576.45919448966
 30
0.0
 11
43566.83989634888
 21
30976.41971438748
 31
0.0
  0
LINE
  8
DIK
 10
43440.98277224389
 20
31698.99592802479
 30
0.0
 11
44040.94327699483
 21
31450.37246205594
 31
0.0
  0
LINE
  8
DIK
 10
43441.01031049251
 20
31872.31657672771
 30
0.0
 11
44041.04979059468
 21
32120.74937933253
 31
0.0
  0
LINE
  8
DIK
 10
43724.96407782599
 20
31581.31415413287
 30
0.0
 11
43725.02899774088
 21
31989.90810329399
 31
0.0
  0
LINE
  8
DIK
 10
43725.02899774088
 20
31989.90810329399
 30
0.0
 11
43436.1553508493
 21
32278.87356080965
 31
0.0
  0
LINE
  8
DIK
 10
43436.1553508493
 20
32278.87356080965
 30
0.0
 11
43027.56140168818
 21
32278.93848072453
 31
0.0
  0
LINE
  8
DIK
 10
43027.56140168818
 20
32278.93848072453
 30
0.0
 11
42738.59594417252
 21
31990.06483383296
 31
0.0
  0
LINE
  8
DIK
 10
42738.59594417252
 20
31990.06483383296
 30
0.0
 11
42738.53102425763
 21
31581.47088467183
 31
0.0
  0
LINE
  8
DIK
 10
42738.53102425763
 20
31581.47088467183
 30
0.0
 11
43027.40467114921
 21
31292.50542715617
 31
0.0
  0
LINE
  8
DIK
 10
43027.40467114921
 20
31292.50542715617
 30
0.0
 11
43435.99862031033
 21
31292.4405072413
 31
0.0
  0
LINE
  8
DIK
 10
43435.99862031033
 20
31292.4405072413
 30
0.0
 11
43724.96407782599
 21
31581.31415413287
 31
0.0
  0
LINE
  8
DIK
 10
43440.98277224389
 20
31698.99592802479
 30
0.0
 11
43441.01031049251
 21
31872.31657672771
 31
0.0
  0
LINE
  8
DIK
 10
43441.01031049251
 20
31872.31657672771
 30
0.0
 11
43318.47357695737
 21
31994.89225522754
 31
0.0
  0
LINE
  8
DIK
 10
43318.47357695737
 20
31994.89225522754
 30
0.0
 11
43145.15292825446
 21
31994.91979347616
 31
0.0
  0
LINE
  8
DIK
 10
43145.15292825446
 20
31994.91979347616
 30
0.0
 11
43022.57724975462
 21
31872.38305994103
 31
0.0
  0
LINE
  8
DIK
 10
43022.57724975462
 20
31872.38305994103
 30
0.0
 11
43022.549711506
 21
31699.06241123812
 31
0.0
  0
LINE
  8
DIK
 10
43022.549711506
 20
31699.06241123812
 30
0.0
 11
43145.08644504114
 21
31576.48673273829
 31
0.0
  0
LINE
  8
DIK
 10
43145.08644504114
 20
31576.48673273829
 30
0.0
 11
43318.40709374406
 21
31576.45919448966
 31
0.0
  0
LINE
  8
DIK
 10
43318.40709374406
 20
31576.45919448966
 30
0.0
 11
43440.98277224389
 21
31698.99592802479
 31
0.0
  0
LINE
  8
DUN
 10
43574.84354374903
 20
32599.85152923
 30
0.0
 11
43539.84354419081
 21
32599.85709024599
 31
0.0
  0
LINE
  8
DUN
 10
43574.83687055292
 20
32557.85152978177
 30
0.0
 11
43539.83687097308
 21
32557.85709079555
 31
0.0
  0
LINE
  8
DIK
 10
42903.08960155591
 20
30971.52517504577
 30
0.0
 11
43560.21168500388
 21
30971.42076745528
 31
0.0
  0
LINE
  8
DIK
 10
42921.03778212222
 20
30971.52232332867
 30
0.0
 11
43560.21168500388
 21
30971.42076745528
 31
0.0
  0
LINE
  8
DIK
 10
42921.04445533995
 20
31013.52232279853
 30
0.0
 11
43560.21835822162
 21
31013.42076692514
 31
0.0
  0
LINE
  8
HARTLIJN
 10
43231.90270550087
 20
32557.90601724545
 30
0.0
 11
43231.90937871861
 21
32599.9060167153
 31
0.0
  0
LINE
  8
DUN
 10
43539.84354419081
 20
32599.85709024479
 30
0.0
 11
43539.83687097307
 21
32557.85709077491
 31
0.0
  0
LINE
  8
DUN
 10
42883.97441934447
 20
32594.96129871825
 30
0.0
 11
42883.96933496595
 21
32562.96129910324
 31
0.0
  0
LINE
  8
DUN
 10
43579.84274925524
 20
32594.85073486243
 30
0.0
 11
43579.8376649205
 21
32562.85073528797
 31
0.0
  0
ARC
  8
DUN
 10
43574.84274931834
 20
32594.85152929312
 30
0.0
 40
5.0
 50
359.990896494906
 51
89.990896494906
  0
ARC
  8
DUN
 10
43574.83766498361
 20
32562.85152971866
 30
0.0
 40
5.0
 50
269.990896494907
 51
359.990896494904
  0
ARC
  8
DUN
 10
42888.97441928137
 20
32594.96050428757
 30
0.0
 40
5.0
 50
89.990896494906
 51
179.990896494908
  0
ARC
  8
DUN
 10
42888.96933490284
 20
32562.96050466933
 30
0.0
 40
5.0
 50
179.990896457985
 51
269.990896496701
  0
LINE
  8
HARTLIJN
 10
42096.05458689187
 20
31796.68061319925
 30
0.0
 11
42056.05458689188
 21
31796.68061319925
 31
0.0
  0
CIRCLE
  8
DIK
 10
42076.05458689188
 20
31796.68061319925
 30
0.0
 40
20.0
  0
LINE
  8
HARTLIJN
 10
42076.05458689188
 20
31816.68061319925
 30
0.0
 11
42076.05458689188
 21
31776.68061319925
 31
0.0
  0
POLYLINE
  8
DIK
 66
     1
 10
0.0
 20
0.0
 30
0.0
 70
     1
  0
VERTEX
  8
DIK
 10
43035.00596876961
 20
32846.68061319925
 30
0.0
  0
VERTEX
  8
DIK
 10
43035.00596876961
 20
32946.68061319925
 30
0.0
  0
VERTEX
  8
DIK
 10
43135.00596876962
 20
32946.68061319925
 30
0.0
  0
VERTEX
  8
DIK
 10
43135.00596876962
 20
32846.68061319925
 30
0.0
  0
SEQEND
  8
DIK
  0
LINE
  8
HARTLIJN
 10
42226.05458689187
 20
32896.68061319925
 30
0.0
 11
43035.00596876961
 21
32896.68061319925
 31
0.0
  0
LINE
  8
DIK
 10
42226.05458689187
 20
32917.68061319925
 30
0.0
 11
43035.00596876961
 21
32917.68061319925
 31
0.0
  0
LINE
  8
DIK
 10
42226.05458689187
 20
32875.68061319925
 30
0.0
 11
43035.00596876961
 21
32875.68061319925
 31
0.0
  0
POLYLINE
  8
DIK
 66
     1
 10
0.0
 20
0.0
 30
0.0
 70
     1
  0
VERTEX
  8
DIK
 10
44326.05458689187
 20
31746.68061319925
 30
0.0
  0
VERTEX
  8
DIK
 10
44326.05458689187
 20
31846.68061319925
 30
0.0
  0
VERTEX
  8
DIK
 10
44226.05458689187
 20
31846.68061319925
 30
0.0
  0
VERTEX
  8
DIK
 10
44226.05458689187
 20
31746.68061319925
 30
0.0
  0
SEQEND
  8
DIK
  0
LINE
  8
HARTLIJN
 10
44276.05458689187
 20
32846.68061319925
 30
0.0
 11
44276.05458689187
 21
31846.68061319925
 31
0.0
  0
LINE
  8
DIK
 10
44297.05458689188
 20
32846.68061319925
 30
0.0
 11
44297.05458689188
 21
31846.68061319925
 31
0.0
  0
LINE
  8
DIK
 10
44255.05458689188
 20
32846.68061319925
 30
0.0
 11
44255.05458689188
 21
31846.68061319925
 31
0.0
  0
LINE
  8
HARTLIJN
 10
43676.05458689188
 20
33046.68061319925
 30
0.0
 11
43676.05458689188
 21
32946.68061319925
 31
0.0
  0
LINE
  8
HARTLIJN
 10
43626.05458689188
 20
32996.68061319925
 30
0.0
 11
43726.05458689188
 21
32996.68061319925
 31
0.0
  0
CIRCLE
  8
DIK
 10
43676.05458689188
 20
32996.68061319925
 30
0.0
 40
16.5
  0
CIRCLE
  8
DIK
 10
44376.05458689188
 20
31496.68061319925
 30
0.0
 40
16.5
  0
LINE
  8
HARTLIJN
 10
44326.05458689187
 20
31496.68061319925
 30
0.0
 11
44426.05458689188
 21
31496.68061319925
 31
0.0
  0
LINE
  8
HARTLIJN
 10
44376.05458689188
 20
31546.68061319925
 30
0.0
 11
44376.05458689188
 21
31446.68061319925
 31
0.0
  0
CIRCLE
  8
DIK
 10
44376.05458689188
 20
30996.68061319925
 30
0.0
 40
16.5
  0
LINE
  8
HARTLIJN
 10
44326.05458689187
 20
30996.68061319925
 30
0.0
 11
44426.05458689188
 21
30996.68061319925
 31
0.0
  0
LINE
  8
HARTLIJN
 10
44376.05458689188
 20
31046.68061319925
 30
0.0
 11
44376.05458689188
 21
30946.68061319925
 31
0.0
  0
LINE
  8
HARTLIJN
 10
43976.05458689188
 20
30646.68061319925
 30
0.0
 11
43976.05458689188
 21
30546.68061319925
 31
0.0
  0
LINE
  8
HARTLIJN
 10
43926.05458689187
 20
30596.68061319925
 30
0.0
 11
44026.05458689188
 21
30596.68061319925
 31
0.0
  0
CIRCLE
  8
DIK
 10
43976.05458689188
 20
30596.68061319925
 30
0.0
 40
16.5
  0
CIRCLE
  8
DIK
 10
43676.05458689188
 20
30596.68061319925
 30
0.0
 40
16.5
  0
LINE
  8
HARTLIJN
 10
43676.05458689188
 20
30646.68061319925
 30
0.0
 11
43676.05458689188
 21
30546.68061319925
 31
0.0
  0
LINE
  8
HARTLIJN
 10
43626.05458689188
 20
30596.68061319925
 30
0.0
 11
43726.05458689188
 21
30596.68061319925
 31
0.0
  0
CIRCLE
  8
DIK
 10
43376.05458689187
 20
30596.68061319925
 30
0.0
 40
16.5
  0
LINE
  8
HARTLIJN
 10
43326.05458689188
 20
30596.68061319925
 30
0.0
 11
43426.05458689187
 21
30596.68061319925
 31
0.0
  0
LINE
  8
HARTLIJN
 10
43376.05458689187
 20
30646.68061319925
 30
0.0
 11
43376.05458689187
 21
30546.68061319925
 31
0.0
  0
CIRCLE
  8
DIK
 10
43076.05458689187
 20
30596.68061319925
 30
0.0
 40
16.5
  0
LINE
  8
HARTLIJN
 10
43026.05458689187
 20
30596.68061319925
 30
0.0
 11
43126.05458689188
 21
30596.68061319925
 31
0.0
  0
LINE
  8
HARTLIJN
 10
43076.05458689187
 20
30646.68061319925
 30
0.0
 11
43076.05458689187
 21
30546.68061319925
 31
0.0
  0
CIRCLE
  8
DIK
 10
42776.05458689188
 20
30596.68061319925
 30
0.0
 40
16.5
  0
LINE
  8
HARTLIJN
 10
42726.05458689188
 20
30596.68061319925
 30
0.0
 11
42826.05458689188
 21
30596.68061319925
 31
0.0
  0
LINE
  8
HARTLIJN
 10
42776.05458689188
 20
30646.68061319925
 30
0.0
 11
42776.05458689188
 21
30546.68061319925
 31
0.0
  0
CIRCLE
  8
DIK
 10
42476.05458689188
 20
30596.68061319925
 30
0.0
 40
16.5
  0
LINE
  8
HARTLIJN
 10
42426.05458689188
 20
30596.68061319925
 30
0.0
 11
42526.05458689187
 21
30596.68061319925
 31
0.0
  0
LINE
  8
HARTLIJN
 10
42476.05458689188
 20
30646.68061319925
 30
0.0
 11
42476.05458689188
 21
30546.68061319925
 31
0.0
  0
LINE
  8
DUN
 10
42871.04445597107
 20
31013.53026710537
 30
0.0
 11
42871.03778275334
 21
30971.53026763551
 31
0.0
  0
LINE
  8
DUN
 10
42921.04445533995
 20
31013.52232279853
 30
0.0
 11
42921.03778212222
 21
30971.52232332867
 31
0.0
  0
LINE
  8
DUN
 10
42921.04445533995
 20
31013.52232279853
 30
0.0
 11
42871.04445597107
 21
31013.53026710537
 31
0.0
  0
LINE
  8
DUN
 10
42921.03778212222
 20
30971.52232332867
 30
0.0
 11
42871.03778275334
 21
30971.53026763551
 31
0.0
  0
LINE
  8
DUN
 10
43588.79151752951
 20
30971.41622651605
 30
0.0
 11
43538.79151816063
 21
30971.42417082288
 31
0.0
  0
LINE
  8
DUN
 10
43588.79819074726
 20
31013.41622598591
 30
0.0
 11
43538.79819137837
 21
31013.42417029274
 31
0.0
  0
LINE
  8
DUN
 10
43588.79819074726
 20
31013.41622598591
 30
0.0
 11
43588.79151752951
 21
30971.41622651605
 31
0.0
  0
LINE
  8
DUN
 10
43538.79819137837
 20
31013.42417029274
 30
0.0
 11
43538.79151816063
 21
30971.42417082288
 31
0.0
  0
LINE
  8
DUN
 10
44003.94773383413
 20
31478.42592460056
 30
0.0
 11
44045.947733304
 21
31478.41925138282
 31
0.0
  0
LINE
  8
DUN
 10
44003.93978952729
 20
31428.42592523167
 30
0.0
 11
44045.93978899716
 21
31428.41925201394
 31
0.0
  0
LINE
  8
DUN
 10
44003.93978952729
 20
31428.42592523167
 30
0.0
 11
44003.94773383413
 21
31478.42592460056
 31
0.0
  0
LINE
  8
DUN
 10
44045.93978899716
 20
31428.41925201394
 30
0.0
 11
44045.947733304
 21
31478.41925138282
 31
0.0
  0
LINE
  8
DUN
 10
44046.04588580978
 20
32096.17298742124
 30
0.0
 11
44046.05383011661
 21
32146.17298679012
 31
0.0
  0
LINE
  8
DUN
 10
44004.04588633993
 20
32096.17966063897
 30
0.0
 11
44004.05383064676
 21
32146.17966000786
 31
0.0
  0
LINE
  8
DUN
 10
44004.04588633993
 20
32096.17966063897
 30
0.0
 11
44046.04588580978
 21
32096.17298742124
 31
0.0
  0
LINE
  8
DUN
 10
44004.05383064676
 20
32146.17966000786
 30
0.0
 11
44046.05383011661
 21
32146.17298679012
 31
0.0
  0
LINE
  8
DIK
 10
44004.04588633993
 20
32096.17966063897
 30
0.0
 11
44003.94433046653
 21
31457.00575775731
 31
0.0
  0
LINE
  8
DIK
 10
44046.04588580978
 20
32096.17298742124
 30
0.0
 11
44045.9443299364
 21
31456.99908453957
 31
0.0
  0
LINE
  8
DIK
 10
44046.04873752689
 20
32114.12116798753
 30
0.0
 11
44045.9443299364
 21
31456.99908453957
 31
0.0
  0
LINE
  8
DUN
 10
42923.96854002868
 20
32557.95494371868
 30
0.0
 11
42888.96854047231
 21
32557.96050473244
 31
0.0
  0
LINE
  8
DIK
 10
43539.84354419081
 20
32599.857090246
 30
0.0
 11
42923.97521324642
 21
32599.95494320846
 31
0.0
  0
LINE
  8
DIK
 10
43539.83687097308
 20
32557.85709079555
 30
0.0
 11
42923.96854002991
 21
32557.95494371867
 31
0.0
  0
LINE
  8
DUN
 10
42920.23941698005
 20
32599.95553677484
 30
0.0
 11
42888.97521371205
 21
32599.96050422445
 31
0.0
  0
LINE
  8
DUN
 10
42920.23941698005
 20
32599.95553677484
 30
0.0
 11
42923.97521324642
 21
32599.95494320846
 31
0.0
  0
LINE
  8
DUN
 10
42923.97521324642
 20
32599.95494320846
 30
0.0
 11
42923.96854002991
 21
32557.95494371867
 31
0.0
  0
LINE
  8
DUN
 10
42417.61241471476
 20
32093.75302717448
 30
0.0
 11
42459.61241420454
 21
32093.74635395551
 31
0.0
  0
LINE
  8
DUN
 10
42417.61300828087
 20
32097.48882344085
 30
0.0
 11
42417.61241471476
 21
32093.75302717448
 31
0.0
  0
LINE
  8
DUN
 10
42417.61300828087
 20
32097.48882344085
 30
0.0
 11
42417.61797572833
 21
32128.75302670885
 31
0.0
  0
LINE
  8
DUN
 10
42459.61241420454
 20
32093.74635395673
 30
0.0
 11
42459.61797522034
 21
32128.7463535131
 31
0.0
  0
ARC
  8
DUN
 10
42454.61797528346
 20
32128.74714794395
 30
0.0
 40
5.0
 50
359.990896493111
 51
89.990896531827
  0
ARC
  8
DUN
 10
42422.61797566521
 20
32128.75223227816
 30
0.0
 40
5.0
 50
89.990896494904
 51
179.990896494906
  0
LINE
  8
DUN
 10
42422.6187700959
 20
32133.75223221505
 30
0.0
 11
42454.61876971091
 21
32133.74714788083
 31
0.0
  0
LINE
  8
DIK
 10
42459.51456124558
 20
31477.87802301234
 30
0.0
 11
42459.61241420454
 21
32093.74635395551
 31
0.0
  0
LINE
  8
DIK
 10
42417.51456179512
 20
31477.88469623008
 30
0.0
 11
42417.61241471476
 21
32093.75302717448
 31
0.0
  0
LINE
  8
HARTLIJN
 10
42459.56348773672
 20
31785.81218848453
 30
0.0
 11
42417.56348826687
 21
31785.81886170227
 31
0.0
  0
ARC
  8
DUN
 10
42454.50900029288
 20
31442.87881786317
 30
0.0
 40
5.0
 50
269.990896494908
 51
359.990896494906
  0
ARC
  8
DUN
 10
42422.50900071844
 20
31442.88390224117
 30
0.0
 40
5.0
 50
179.990896494906
 51
269.990896494906
  0
LINE
  8
DUN
 10
42422.50820628776
 20
31437.88390230429
 30
0.0
 11
42454.50820586221
 21
31437.87881792628
 31
0.0
  0
LINE
  8
DUN
 10
42417.51456179633
 20
31477.88469623008
 30
0.0
 11
42459.5145612662
 21
31477.87802301234
 31
0.0
  0
LINE
  8
DUN
 10
42459.50900022977
 20
31442.87802343249
 30
0.0
 11
42459.51456124558
 21
31477.87802301234
 31
0.0
  0
LINE
  8
DUN
 10
42417.50900078155
 20
31442.88469667186
 30
0.0
 11
42417.51456179512
 21
31477.88469623008
 31
0.0
  0
TEXT
  8
DIK
 10
44908.62188923917
 20
16559.69454768511
 30
0.0
 40
150.0
  1
afgerond= 49 tegels
  7
ROMANS
  0
TEXT
  8
DUN
 10
39134.00875927225
 20
37244.65667168163
 30
0.0
 40
200.0
  1
Obstakelvrijeruimte
  7
ROMANS
  0
TEXT
  8
DUN
 10
40152.58072522057
 20
27372.72994000821
 30
0.0
 40
200.0
  1
Valdempende ondergrond
  7
ROMANS
  0
TEXT
  8
DUN
 10
40114.06169444558
 20
16716.29872956985
 30
0.0
 40
200.0
  1
rubbertegels 1mx1m
  7
ROMANS
  0
POLYLINE
  8
STREEPLIJN
 66
     1
 10
0.0
 20
0.0
 30
0.0
 70
     1
  0
VERTEX
  8
STREEPLIJN
 10
38947.82806406217
 20
28325.2920786274
 30
0.0
  0
VERTEX
  8
STREEPLIJN
 10
38947.82806406217
 20
27325.29207862742
 30
0.0
  0
VERTEX
  8
STREEPLIJN
 10
39947.82806406217
 20
27325.29207862742
 30
0.0
  0
VERTEX
  8
STREEPLIJN
 10
39947.82806406217
 20
28325.2920786274
 30
0.0
  0
SEQEND
  8
STREEPLIJN
  0
POLYLINE
  8
STREEPLIJN
 66
     1
 10
0.0
 20
0.0
 30
0.0
 70
     1
  0
VERTEX
  8
STREEPLIJN
 10
38947.82806406217
 20
17650.03562811946
 30
0.0
  0
VERTEX
  8
STREEPLIJN
 10
38947.82806406217
 20
16650.03562811948
 30
0.0
  0
VERTEX
  8
STREEPLIJN
 10
39947.82806406217
 20
16650.03562811948
 30
0.0
  0
VERTEX
  8
STREEPLIJN
 10
39947.82806406217
 20
17650.03562811946
 30
0.0
  0
SEQEND
  8
STREEPLIJN
  0
INSERT
  8
STREEPLIJN
  2
*X40
 10
1941.681770408475
 20
-4827.870763688768
 30
0.0
1001
ACAD
1000
HATCH
1002
{
1070
    16
1000
ANSI31
1040
40.0
1040
0.0
1002
}
  0
POLYLINE
  8
DUN
 66
     1
 10
0.0
 20
0.0
 30
0.0
 70
     1
  0
VERTEX
  8
DUN
 10
38214.05908709651
 20
36884.9877149709
 30
0.0
  0
VERTEX
  8
DUN
 10
38214.05908709651
 20
46332.4893693992
 30
0.0
  0
VERTEX
  8
DUN
 10
47556.68500113157
 20
46332.4893693992
 30
0.0
  0
VERTEX
  8
DUN
 10
47556.68500113157
 20
36884.9877149709
 30
0.0
  0
SEQEND
  8
DUN
  0
POLYLINE
  8
DUN
 66
     1
 10
0.0
 20
0.0
 30
0.0
 70
     1
  0
VERTEX
  8
DUN
 10
38214.05908709651
 20
26762.66454828557
 30
0.0
  0
VERTEX
  8
DUN
 10
38214.05908709651
 20
36210.16620271387
 30
0.0
  0
VERTEX
  8
DUN
 10
47556.68500113157
 20
36210.16620271387
 30
0.0
  0
VERTEX
  8
DUN
 10
47556.68500113157
 20
26762.66454828557
 30
0.0
  0
SEQEND
  8
DUN
  0
POLYLINE
  8
DUN
 66
     1
 10
0.0
 20
0.0
 30
0.0
 70
     1
  0
VERTEX
  8
DUN
 10
38214.05908709651
 20
16397.40556315379
 30
0.0
  0
VERTEX
  8
DUN
 10
38214.05908709651
 20
25844.90721758209
 30
0.0
  0
VERTEX
  8
DUN
 10
47556.68500113157
 20
25844.90721758209
 30
0.0
  0
VERTEX
  8
DUN
 10
47556.68500113157
 20
16397.40556315379
 30
0.0
  0
SEQEND
  8
DUN
  0
LINE
  8
DUN
 10
42084.4166258706
 20
21495.50035048092
 30
0.0
 11
42084.42218688417
 21
21530.50035003914
 31
0.0
  0
LINE
  8
DUN
 10
42126.41662531882
 20
21495.49367724155
 30
0.0
 11
42126.42218633463
 21
21530.4936768214
 31
0.0
  0
LINE
  8
DUN
 10
42084.42218688539
 20
21530.50035003914
 30
0.0
 11
42126.42218635525
 21
21530.4936768214
 31
0.0
  0
LINE
  8
DUN
 10
42089.41583137681
 20
21490.49955611335
 30
0.0
 11
42121.41583095125
 21
21490.49447173534
 31
0.0
  0
ARC
  8
DUN
 10
42089.41662580749
 20
21495.49955605023
 30
0.0
 40
5.0
 50
179.990896494906
 51
269.990896494906
  0
ARC
  8
DUN
 10
42121.41662538193
 20
21495.49447167223
 30
0.0
 40
5.0
 50
269.990896494908
 51
359.990896494906
  0
LINE
  8
HARTLIJN
 10
42126.47111282578
 20
21838.42784229359
 30
0.0
 11
42084.47111335591
 21
21838.43451551133
 31
0.0
  0
LINE
  8
DIK
 10
42084.42218688417
 20
21530.50035003914
 30
0.0
 11
42084.52003980381
 21
22146.36868098354
 31
0.0
  0
LINE
  8
DIK
 10
42126.42218633463
 20
21530.4936768214
 30
0.0
 11
42126.52003929359
 21
22146.36200776457
 31
0.0
  0
LINE
  8
DUN
 10
42089.52639518495
 20
22186.36788602411
 30
0.0
 11
42121.52639479997
 21
22186.36280168989
 31
0.0
  0
ARC
  8
DUN
 10
42089.52560075426
 20
22181.36788608723
 30
0.0
 40
5.0
 50
89.990896494904
 51
179.990896494906
  0
ARC
  8
DUN
 10
42121.5256003725
 20
22181.36280175301
 30
0.0
 40
5.0
 50
359.990896493111
 51
89.990896531827
  0
LINE
  8
DUN
 10
42126.52003929359
 20
22146.36200776579
 30
0.0
 11
42126.5256003094
 21
22181.36200732216
 31
0.0
  0
LINE
  8
DUN
 10
42084.52063336991
 20
22150.10447724991
 30
0.0
 11
42084.52560081737
 21
22181.36868051791
 31
0.0
  0
LINE
  8
DUN
 10
42084.52063336991
 20
22150.10447724991
 30
0.0
 11
42084.5200398038
 21
22146.36868098354
 31
0.0
  0
LINE
  8
DUN
 10
42084.5200398038
 20
22146.36868098354
 30
0.0
 11
42126.52003929359
 21
22146.36200776457
 31
0.0
  0
LINE
  8
DUN
 10
42590.88283833547
 20
22652.57059701752
 30
0.0
 11
42590.87616511895
 21
22610.57059752773
 31
0.0
  0
LINE
  8
DUN
 10
42587.1470420691
 20
22652.5711905839
 30
0.0
 11
42590.88283833547
 21
22652.57059701752
 31
0.0
  0
LINE
  8
DUN
 10
42587.1470420691
 20
22652.5711905839
 30
0.0
 11
42555.8828388011
 21
22652.57615803351
 31
0.0
  0
LINE
  8
DIK
 10
43206.74449606213
 20
22610.47274460461
 30
0.0
 11
42590.87616511895
 21
22610.57059752773
 31
0.0
  0
LINE
  8
DIK
 10
43206.75116927986
 20
22652.47274405506
 30
0.0
 11
42590.88283833547
 21
22652.57059701752
 31
0.0
  0
LINE
  8
DUN
 10
42590.87616511773
 20
22610.57059752774
 30
0.0
 11
42555.87616556136
 21
22610.5761585415
 31
0.0
  0
LINE
  8
DIK
 10
43712.95636261594
 20
22166.73682179659
 30
0.0
 11
43712.85195502545
 21
21509.61473834863
 31
0.0
  0
LINE
  8
DIK
 10
43712.95351089883
 20
22148.7886412303
 30
0.0
 11
43712.85195502545
 21
21509.61473834863
 31
0.0
  0
LINE
  8
DIK
 10
43670.95351142897
 20
22148.79531444803
 30
0.0
 11
43670.85195555558
 21
21509.62141156637
 31
0.0
  0
LINE
  8
DUN
 10
43670.9614557358
 20
22198.79531381692
 30
0.0
 11
43712.96145520567
 21
22198.78864059918
 31
0.0
  0
LINE
  8
DUN
 10
43670.95351142897
 20
22148.79531444803
 30
0.0
 11
43712.95351089883
 21
22148.7886412303
 31
0.0
  0
LINE
  8
DUN
 10
43670.95351142897
 20
22148.79531444803
 30
0.0
 11
43670.9614557358
 21
22198.79531381692
 31
0.0
  0
LINE
  8
DUN
 10
43712.95351089883
 20
22148.7886412303
 30
0.0
 11
43712.96145520567
 21
22198.78864059918
 31
0.0
  0
LINE
  8
DUN
 10
43712.8474140862
 20
21481.034905823
 30
0.0
 11
43712.85535839304
 21
21531.03490519188
 31
0.0
  0
LINE
  8
DUN
 10
43670.84741461635
 20
21481.04157904073
 30
0.0
 11
43670.85535892319
 21
21531.04157840962
 31
0.0
  0
LINE
  8
DUN
 10
43670.84741461635
 20
21481.04157904073
 30
0.0
 11
43712.8474140862
 21
21481.034905823
 31
0.0
  0
LINE
  8
DUN
 10
43670.85535892319
 20
21531.04157840962
 30
0.0
 11
43712.85535839304
 21
21531.03490519188
 31
0.0
  0
LINE
  8
DUN
 10
43205.70581646742
 20
21066.0398241018
 30
0.0
 11
43205.69914324968
 21
21024.03982463195
 31
0.0
  0
LINE
  8
DUN
 10
43255.7058158363
 20
21066.03187979497
 30
0.0
 11
43255.69914261856
 21
21024.03188032511
 31
0.0
  0
LINE
  8
DUN
 10
43255.7058158363
 20
21066.03187979497
 30
0.0
 11
43205.70581646742
 21
21066.0398241018
 31
0.0
  0
LINE
  8
DUN
 10
43255.69914261856
 20
21024.03188032511
 30
0.0
 11
43205.69914324968
 21
21024.03982463195
 31
0.0
  0
LINE
  8
DUN
 10
42587.94540721127
 20
21024.13797713773
 30
0.0
 11
42537.94540784238
 21
21024.14592144457
 31
0.0
  0
LINE
  8
DUN
 10
42587.95208042901
 20
21066.13797660759
 30
0.0
 11
42537.95208106012
 21
21066.14592091443
 31
0.0
  0
LINE
  8
DUN
 10
42587.95208042901
 20
21066.13797660759
 30
0.0
 11
42587.94540721127
 21
21024.13797713773
 31
0.0
  0
LINE
  8
DUN
 10
42537.95208106012
 20
21066.14592091443
 30
0.0
 11
42537.94540784238
 21
21024.14592144457
 31
0.0
  0
LINE
  8
HARTLIJN
 10
42142.96221198092
 20
20699.29626700831
 30
0.0
 11
42142.96221198092
 21
20599.29626700832
 31
0.0
  0
LINE
  8
HARTLIJN
 10
42092.96221198092
 20
20649.29626700831
 30
0.0
 11
42192.96221198092
 21
20649.29626700831
 31
0.0
  0
CIRCLE
  8
DIK
 10
42142.96221198092
 20
20649.29626700831
 30
0.0
 40
16.5
  0
LINE
  8
HARTLIJN
 10
42442.96221198093
 20
20699.29626700831
 30
0.0
 11
42442.96221198093
 21
20599.29626700832
 31
0.0
  0
LINE
  8
HARTLIJN
 10
42392.96221198093
 20
20649.29626700831
 30
0.0
 11
42492.96221198092
 21
20649.29626700831
 31
0.0
  0
CIRCLE
  8
DIK
 10
42442.96221198093
 20
20649.29626700831
 30
0.0
 40
16.5
  0
LINE
  8
HARTLIJN
 10
42742.96221198093
 20
20699.29626700831
 30
0.0
 11
42742.96221198093
 21
20599.29626700832
 31
0.0
  0
LINE
  8
HARTLIJN
 10
42692.96221198093
 20
20649.29626700831
 30
0.0
 11
42792.96221198093
 21
20649.29626700831
 31
0.0
  0
CIRCLE
  8
DIK
 10
42742.96221198093
 20
20649.29626700831
 30
0.0
 40
16.5
  0
LINE
  8
HARTLIJN
 10
43042.96221198092
 20
20699.29626700831
 30
0.0
 11
43042.96221198092
 21
20599.29626700832
 31
0.0
  0
LINE
  8
HARTLIJN
 10
42992.96221198092
 20
20649.29626700831
 30
0.0
 11
43092.96221198093
 21
20649.29626700831
 31
0.0
  0
CIRCLE
  8
DIK
 10
43042.96221198092
 20
20649.29626700831
 30
0.0
 40
16.5
  0
LINE
  8
HARTLIJN
 10
43292.96221198092
 20
20649.29626700831
 30
0.0
 11
43392.96221198092
 21
20649.29626700831
 31
0.0
  0
LINE
  8
HARTLIJN
 10
43342.96221198092
 20
20699.29626700831
 30
0.0
 11
43342.96221198092
 21
20599.29626700832
 31
0.0
  0
CIRCLE
  8
DIK
 10
43342.96221198092
 20
20649.29626700831
 30
0.0
 40
16.5
  0
CIRCLE
  8
DIK
 10
43642.96221198093
 20
20649.29626700831
 30
0.0
 40
16.5
  0
LINE
  8
HARTLIJN
 10
43592.96221198093
 20
20649.29626700831
 30
0.0
 11
43692.96221198093
 21
20649.29626700831
 31
0.0
  0
LINE
  8
HARTLIJN
 10
43642.96221198093
 20
20699.29626700831
 30
0.0
 11
43642.96221198093
 21
20599.29626700832
 31
0.0
  0
LINE
  8
HARTLIJN
 10
44042.96221198093
 20
21099.29626700831
 30
0.0
 11
44042.96221198093
 21
20999.29626700832
 31
0.0
  0
LINE
  8
HARTLIJN
 10
43992.96221198093
 20
21049.29626700831
 30
0.0
 11
44092.96221198093
 21
21049.29626700831
 31
0.0
  0
CIRCLE
  8
DIK
 10
44042.96221198093
 20
21049.29626700831
 30
0.0
 40
16.5
  0
LINE
  8
HARTLIJN
 10
44042.96221198093
 20
21599.29626700832
 30
0.0
 11
44042.96221198093
 21
21499.29626700831
 31
0.0
  0
LINE
  8
HARTLIJN
 10
43992.96221198093
 20
21549.29626700831
 30
0.0
 11
44092.96221198093
 21
21549.29626700831
 31
0.0
  0
CIRCLE
  8
DIK
 10
44042.96221198093
 20
21549.29626700831
 30
0.0
 40
16.5
  0
CIRCLE
  8
DIK
 10
43342.96221198092
 20
23049.29626700832
 30
0.0
 40
16.5
  0
LINE
  8
HARTLIJN
 10
43292.96221198092
 20
23049.29626700832
 30
0.0
 11
43392.96221198092
 21
23049.29626700832
 31
0.0
  0
LINE
  8
HARTLIJN
 10
43342.96221198092
 20
23099.29626700832
 30
0.0
 11
43342.96221198092
 21
22999.29626700831
 31
0.0
  0
LINE
  8
DIK
 10
43921.96221198092
 20
22899.29626700831
 30
0.0
 11
43921.96221198092
 21
21899.29626700831
 31
0.0
  0
LINE
  8
DIK
 10
43963.96221198092
 20
22899.29626700831
 30
0.0
 11
43963.96221198092
 21
21899.29626700831
 31
0.0
  0
LINE
  8
HARTLIJN
 10
43942.96221198093
 20
22899.29626700831
 30
0.0
 11
43942.96221198093
 21
21899.29626700831
 31
0.0
  0
POLYLINE
  8
DIK
 66
     1
 10
0.0
 20
0.0
 30
0.0
 70
     1
  0
VERTEX
  8
DIK
 10
43992.96221198093
 20
21799.29626700831
 30
0.0
  0
VERTEX
  8
DIK
 10
43992.96221198093
 20
21899.29626700831
 30
0.0
  0
VERTEX
  8
DIK
 10
43892.96221198092
 20
21899.29626700831
 30
0.0
  0
VERTEX
  8
DIK
 10
43892.96221198092
 20
21799.29626700831
 30
0.0
  0
SEQEND
  8
DIK
  0
LINE
  8
DIK
 10
41892.96221198093
 20
22928.29626700831
 30
0.0
 11
42701.91359385867
 21
22928.29626700831
 31
0.0
  0
LINE
  8
DIK
 10
41892.96221198093
 20
22970.29626700831
 30
0.0
 11
42701.91359385867
 21
22970.29626700831
 31
0.0
  0
LINE
  8
HARTLIJN
 10
41892.96221198093
 20
22949.29626700831
 30
0.0
 11
42701.91359385867
 21
22949.29626700831
 31
0.0
  0
POLYLINE
  8
DIK
 66
     1
 10
0.0
 20
0.0
 30
0.0
 70
     1
  0
VERTEX
  8
DIK
 10
42701.91359385867
 20
22899.29626700831
 30
0.0
  0
VERTEX
  8
DIK
 10
42701.91359385867
 20
22999.29626700831
 30
0.0
  0
VERTEX
  8
DIK
 10
42801.91359385867
 20
22999.29626700831
 30
0.0
  0
VERTEX
  8
DIK
 10
42801.91359385867
 20
22899.29626700831
 30
0.0
  0
SEQEND
  8
DIK
  0
LINE
  8
HARTLIJN
 10
41742.96221198092
 20
21869.29626700831
 30
0.0
 11
41742.96221198092
 21
21829.29626700831
 31
0.0
  0
CIRCLE
  8
DIK
 10
41742.96221198092
 20
21849.29626700832
 30
0.0
 40
20.0
  0
LINE
  8
HARTLIJN
 10
41762.96221198093
 20
21849.29626700832
 30
0.0
 11
41722.96221198092
 21
21849.29626700832
 31
0.0
  0
ARC
  8
DUN
 10
42555.87695999189
 20
22615.57615847839
 30
0.0
 40
5.0
 50
179.990896457985
 51
269.990896496701
  0
ARC
  8
DUN
 10
42555.88204437041
 20
22647.57615809663
 30
0.0
 40
5.0
 50
89.990896494906
 51
179.990896494908
  0
ARC
  8
DUN
 10
43241.74529007266
 20
22615.46718352772
 30
0.0
 40
5.0
 50
269.990896494907
 51
359.990896494904
  0
ARC
  8
DUN
 10
43241.75037440739
 20
22647.46718310218
 30
0.0
 40
5.0
 50
359.990896494906
 51
89.990896494906
  0
LINE
  8
DUN
 10
43246.75037434428
 20
22647.46638867149
 30
0.0
 11
43246.74529000955
 21
22615.46638909703
 31
0.0
  0
LINE
  8
DUN
 10
42550.88204443352
 20
22647.57695252731
 30
0.0
 11
42550.87696005499
 21
22615.5769529123
 31
0.0
  0
LINE
  8
DUN
 10
43206.75116927986
 20
22652.47274405385
 30
0.0
 11
43206.74449606212
 21
22610.47274458397
 31
0.0
  0
LINE
  8
HARTLIJN
 10
42898.81033058993
 20
22610.52167105451
 30
0.0
 11
42898.81700380766
 21
22652.52167052437
 31
0.0
  0
LINE
  8
DIK
 10
42587.95208042901
 20
21066.13797660759
 30
0.0
 11
43227.12598331067
 21
21066.0364207342
 31
0.0
  0
LINE
  8
DIK
 10
42587.94540721127
 20
21024.13797713773
 30
0.0
 11
43227.11931009293
 21
21024.03642126434
 31
0.0
  0
LINE
  8
DIK
 10
42569.99722664497
 20
21024.14082885483
 30
0.0
 11
43227.11931009293
 21
21024.03642126434
 31
0.0
  0
LINE
  8
DUN
 10
43241.74449564198
 20
22610.46718359083
 30
0.0
 11
43206.74449606213
 21
22610.47274460461
 31
0.0
  0
LINE
  8
DUN
 10
43241.75116883808
 20
22652.46718303906
 30
0.0
 11
43206.75116927986
 21
22652.47274405505
 31
0.0
  0
LINE
  8
DIK
 10
42985.3147188331
 20
21629.07484829872
 30
0.0
 11
43107.89039733293
 21
21751.61158183385
 31
0.0
  0
LINE
  8
DIK
 10
42811.99407013018
 20
21629.10238654735
 30
0.0
 11
42985.3147188331
 21
21629.07484829872
 31
0.0
  0
LINE
  8
DIK
 10
42689.45733659505
 20
21751.67806504719
 30
0.0
 11
42811.99407013018
 21
21629.10238654735
 31
0.0
  0
LINE
  8
DIK
 10
42689.48487484368
 20
21924.99871375009
 30
0.0
 11
42689.45733659505
 21
21751.67806504719
 31
0.0
  0
LINE
  8
DIK
 10
42812.06055334351
 20
22047.53544728523
 30
0.0
 11
42689.48487484368
 21
21924.99871375009
 31
0.0
  0
LINE
  8
DIK
 10
42985.38120204642
 20
22047.5079090366
 30
0.0
 11
42812.06055334351
 21
22047.53544728523
 31
0.0
  0
LINE
  8
DIK
 10
43107.91793558157
 20
21924.93223053677
 30
0.0
 11
42985.38120204642
 21
22047.5079090366
 31
0.0
  0
LINE
  8
DIK
 10
43107.89039733293
 20
21751.61158183385
 30
0.0
 11
43107.91793558157
 21
21924.93223053677
 31
0.0
  0
LINE
  8
DIK
 10
43102.90624539938
 20
21345.05616105036
 30
0.0
 11
43391.87170291504
 21
21633.92980794193
 31
0.0
  0
LINE
  8
DIK
 10
42694.31229623827
 20
21345.12108096523
 30
0.0
 11
43102.90624539938
 21
21345.05616105036
 31
0.0
  0
LINE
  8
DIK
 10
42405.43864934669
 20
21634.08653848089
 30
0.0
 11
42694.31229623827
 21
21345.12108096523
 31
0.0
  0
LINE
  8
DIK
 10
42405.50356926156
 20
22042.68048764202
 30
0.0
 11
42405.43864934669
 21
21634.08653848089
 31
0.0
  0
LINE
  8
DIK
 10
42694.46902677723
 20
22331.55413453359
 30
0.0
 11
42405.50356926156
 21
22042.68048764202
 31
0.0
  0
LINE
  8
DIK
 10
43103.06297593835
 20
22331.48921461871
 30
0.0
 11
42694.46902677723
 21
22331.55413453359
 31
0.0
  0
LINE
  8
DIK
 10
43391.93662282992
 20
22042.52375710305
 30
0.0
 11
43103.06297593835
 21
22331.48921461871
 31
0.0
  0
LINE
  8
DIK
 10
43391.87170291504
 20
21633.92980794193
 30
0.0
 11
43391.93662282992
 21
22042.52375710305
 31
0.0
  0
LINE
  8
DIK
 10
43107.91793558157
 20
21924.93223053677
 30
0.0
 11
43707.95741568373
 21
22173.36503314159
 31
0.0
  0
LINE
  8
DIK
 10
43107.89039733293
 20
21751.61158183385
 30
0.0
 11
43707.85090208388
 21
21502.988115865
 31
0.0
  0
LINE
  8
DIK
 10
42985.3147188331
 20
21629.07484829872
 30
0.0
 11
43233.74752143792
 21
21029.03536819654
 31
0.0
  0
LINE
  8
DIK
 10
42811.99407013019
 20
21629.10238654735
 30
0.0
 11
42563.37060416134
 21
21029.14188179641
 31
0.0
  0
LINE
  8
DIK
 10
42689.45733659505
 20
21751.67806504719
 30
0.0
 11
42089.41785649288
 21
21503.24526244235
 31
0.0
  0
LINE
  8
DIK
 10
42689.48487484368
 20
21924.99871375009
 30
0.0
 11
42089.52437009274
 21
22173.62217971894
 31
0.0
  0
LINE
  8
DIK
 10
42812.06055334351
 20
22047.53544728523
 30
0.0
 11
42563.62775073869
 21
22647.5749273874
 31
0.0
  0
LINE
  8
DIK
 10
42985.38120204643
 20
22047.5079090366
 30
0.0
 11
43234.00466801527
 21
22647.46841378755
 31
0.0
  0
LINE
  8
DIK
 10
44092.96221198093
 20
20699.29626700831
 30
0.0
 11
41692.96221198092
 21
20699.29626700831
 31
0.0
  0
LINE
  8
DIK
 10
43992.96221198093
 20
22999.29626700831
 30
0.0
 11
43992.96221198093
 21
20699.29626700831
 31
0.0
  0
LINE
  8
DIK
 10
41692.96221198092
 20
22999.29626700831
 30
0.0
 11
44092.96221198093
 21
22999.29626700831
 31
0.0
  0
LINE
  8
DIK
 10
41792.96221198092
 20
20699.29626700831
 30
0.0
 11
41792.96221198092
 21
22999.29626700831
 31
0.0
  0
POLYLINE
  8
DIK
 66
     1
 10
0.0
 20
0.0
 30
0.0
 70
     1
  0
VERTEX
  8
DIK
 10
43992.96221198093
 20
22899.29626700831
 30
0.0
  0
VERTEX
  8
DIK
 10
43992.96221198093
 20
22999.29626700831
 30
0.0
  0
VERTEX
  8
DIK
 10
43892.96221198092
 20
22999.29626700831
 30
0.0
  0
VERTEX
  8
DIK
 10
43892.96221198092
 20
22899.29626700831
 30
0.0
  0
SEQEND
  8
DIK
  0
POLYLINE
  8
DIK
 66
     1
 10
0.0
 20
0.0
 30
0.0
 70
     1
  0
VERTEX
  8
DIK
 10
41792.96221198092
 20
22899.29626700831
 30
0.0
  0
VERTEX
  8
DIK
 10
41792.96221198092
 20
22999.29626700831
 30
0.0
  0
VERTEX
  8
DIK
 10
41892.96221198093
 20
22999.29626700831
 30
0.0
  0
VERTEX
  8
DIK
 10
41892.96221198093
 20
22899.29626700831
 30
0.0
  0
SEQEND
  8
DIK
  0
POLYLINE
  8
DIK
 66
     1
 10
0.0
 20
0.0
 30
0.0
 70
     1
  0
VERTEX
  8
DIK
 10
43992.96221198093
 20
20699.29626700831
 30
0.0
  0
VERTEX
  8
DIK
 10
43992.96221198093
 20
20799.29626700832
 30
0.0
  0
VERTEX
  8
DIK
 10
43892.96221198092
 20
20799.29626700832
 30
0.0
  0
VERTEX
  8
DIK
 10
43892.96221198092
 20
20699.29626700831
 30
0.0
  0
SEQEND
  8
DIK
  0
POLYLINE
  8
DIK
 66
     1
 10
0.0
 20
0.0
 30
0.0
 70
     1
  0
VERTEX
  8
DIK
 10
41792.96221198092
 20
20699.29626700831
 30
0.0
  0
VERTEX
  8
DIK
 10
41792.96221198092
 20
20799.29626700832
 30
0.0
  0
VERTEX
  8
DIK
 10
41892.96221198092
 20
20799.29626700832
 30
0.0
  0
VERTEX
  8
DIK
 10
41892.96221198092
 20
20699.29626700831
 30
0.0
  0
SEQEND
  8
DIK
  0
LINE
  8
HARTLIJN
 10
41692.96221198092
 20
22184.48472987749
 30
0.0
 11
41792.96221198092
 21
22184.48472987749
 31
0.0
  0
ARC
  8
DIK
 10
41692.96221198092
 20
22184.48472987749
 30
0.0
 40
17.5
 50
90.0
 51
270.0
  0
LINE
  8
HARTLIJN
 10
41682.32600967848
 20
22184.48472987749
 30
0.0
 11
41782.32600967848
 21
22184.48472987749
 31
0.0
  0
LINE
  8
HARTLIJN
 10
41692.96221198092
 20
21514.10780413914
 30
0.0
 11
41792.96221198092
 21
21514.10780413914
 31
0.0
  0
ARC
  8
DIK
 10
41692.96221198092
 20
21514.10780413914
 30
0.0
 40
17.5
 50
90.0
 51
270.0
  0
LINE
  8
HARTLIJN
 10
41682.32600967848
 20
21514.10780413914
 30
0.0
 11
41782.32600967848
 21
21514.10780413914
 31
0.0
  0
LINE
  8
HARTLIJN
 10
44092.96221198093
 20
21514.10780413914
 30
0.0
 11
43992.96221198093
 21
21514.10780413914
 31
0.0
  0
ARC
  8
DIK
 10
44082.32600967847
 20
21514.10780413914
 30
0.0
 40
17.5
 50
270.0
 51
90.0
  0
LINE
  8
HARTLIJN
 10
44082.32600967847
 20
21514.10780413914
 30
0.0
 11
43992.96221198094
 21
21514.10780413914
 31
0.0
  0
LINE
  8
HARTLIJN
 10
44103.59841428338
 20
22184.48472987749
 30
0.0
 11
44003.59841428337
 21
22184.48472987749
 31
0.0
  0
ARC
  8
DIK
 10
44092.96221198093
 20
22184.48472987749
 30
0.0
 40
17.5
 50
270.0
 51
90.0
  0
LINE
  8
HARTLIJN
 10
44092.96221198093
 20
22184.48472987749
 30
0.0
 11
43992.96221198093
 21
22184.48472987749
 31
0.0
  0
LINE
  8
HARTLIJN
 10
42557.77374911175
 20
23088.66006470587
 30
0.0
 11
42557.77374911175
 21
22988.66006470587
 31
0.0
  0
LINE
  8
HARTLIJN
 10
43228.15067485009
 20
23088.66006470587
 30
0.0
 11
43228.15067485009
 21
22988.66006470587
 31
0.0
  0
LINE
  8
HARTLIJN
 10
43228.15067485009
 20
23099.29626700832
 30
0.0
 11
43228.15067485009
 21
22999.29626700831
 31
0.0
  0
ARC
  8
DIK
 10
43228.15067485009
 20
23099.29626700832
 30
0.0
 40
17.5
 50
0.0
 51
180.0
  0
ARC
  8
DIK
 10
42557.77374911175
 20
23099.29626700832
 30
0.0
 40
17.5
 50
0.0
 51
180.0
  0
LINE
  8
HARTLIJN
 10
42557.77374911175
 20
23099.29626700832
 30
0.0
 11
42557.77374911175
 21
22999.29626700831
 31
0.0
  0
LINE
  8
HARTLIJN
 10
43228.15067485011
 20
20588.66006470586
 30
0.0
 11
43228.15067485011
 21
20688.66006470586
 31
0.0
  0
LINE
  8
HARTLIJN
 10
42557.77374911176
 20
20588.66006470586
 30
0.0
 11
42557.77374911176
 21
20688.66006470586
 31
0.0
  0
LINE
  8
HARTLIJN
 10
42557.77374911176
 20
20599.29626700832
 30
0.0
 11
42557.77374911176
 21
20699.29626700831
 31
0.0
  0
ARC
  8
DIK
 10
42557.77374911176
 20
20599.29626700832
 30
0.0
 40
17.5
 50
180.0
 51
0.0
  0
ARC
  8
DIK
 10
43228.15067485011
 20
20599.29626700832
 30
0.0
 40
17.5
 50
180.0
 51
0.0
  0
LINE
  8
HARTLIJN
 10
43228.15067485011
 20
20599.29626700832
 30
0.0
 11
43228.15067485011
 21
20699.29626700831
 31
0.0
  0
LINE
  8
DIK
 10
41692.96221198092
 20
20599.29626700832
 30
0.0
 11
41692.96221198092
 21
23099.29626700832
 31
0.0
  0
LINE
  8
DIK
 10
41692.96221198092
 20
23099.29626700832
 30
0.0
 11
44092.96221198093
 21
23099.29626700832
 31
0.0
  0
LINE
  8
DIK
 10
44092.96221198093
 20
23099.29626700832
 30
0.0
 11
44092.96221198093
 21
20599.29626700832
 31
0.0
  0
LINE
  8
DIK
 10
44092.96221198093
 20
20599.29626700832
 30
0.0
 11
41692.96221198092
 21
20599.29626700832
 31
0.0
  0
LINE
  8
DIK
 10
43239.00546238295
 20
22652.46761929386
 30
0.0
 11
43228.15067485009
 21
22999.29626700831
 31
0.0
  0
LINE
  8
DIK
 10
42558.62854520873
 20
22652.57572177874
 30
0.0
 11
42557.77374911175
 21
22999.29626700831
 31
0.0
  0
LINE
  8
DIK
 10
42089.52437009274
 20
22173.62217971894
 30
0.0
 11
41792.96221198092
 21
22184.48472987749
 31
0.0
  0
LINE
  8
DIK
 10
42089.41785649288
 20
21503.24526244235
 30
0.0
 11
41792.96221198092
 21
21514.10780413914
 31
0.0
  0
LINE
  8
DIK
 10
42563.37060416134
 20
21029.14188179641
 30
0.0
 11
42557.77374911176
 21
20699.29626700831
 31
0.0
  0
LINE
  8
DIK
 10
43238.74672694413
 20
21024.03457382898
 30
0.0
 11
43228.15067485011
 21
20699.29626700831
 31
0.0
  0
LINE
  8
DIK
 10
43992.96221198093
 20
21514.10780413914
 30
0.0
 11
43712.85010759008
 21
21497.98732149744
 31
0.0
  0
LINE
  8
DIK
 10
43712.9582100513
 20
22178.36423864779
 30
0.0
 11
43992.96221198093
 21
22184.48472987749
 31
0.0
  0
LINE
  8
STREEPLIJN
 10
39492.96221198093
 20
21309.89806173614
 30
0.0
 11
46492.96221198093
 21
21309.89806173615
 31
0.0
  0
LINE
  8
STREEPLIJN
 10
39492.96221198093
 20
20309.89806173614
 30
0.0
 11
46492.96221198093
 21
20309.89806173615
 31
0.0
  0
LINE
  8
STREEPLIJN
 10
39492.96221198093
 20
19309.89806173614
 30
0.0
 11
46492.96221198093
 21
19309.89806173615
 31
0.0
  0
LINE
  8
STREEPLIJN
 10
39492.96221198093
 20
22309.89806173614
 30
0.0
 11
46492.96221198093
 21
22309.89806173613
 31
0.0
  0
LINE
  8
STREEPLIJN
 10
39492.96221198092
 20
25309.89806173614
 30
0.0
 11
39492.96221198093
 21
18309.89806173614
 31
0.0
  0
LINE
  8
STREEPLIJN
 10
40492.96221198091
 20
25309.89806173614
 30
0.0
 11
40492.96221198091
 21
18309.89806173614
 31
0.0
  0
LINE
  8
STREEPLIJN
 10
41492.96221198094
 20
25309.89806173614
 30
0.0
 11
41492.96221198092
 21
18309.89806173614
 31
0.0
  0
LINE
  8
STREEPLIJN
 10
45492.96221198092
 20
25309.89806173614
 30
0.0
 11
45492.96221198092
 21
18309.89806173615
 31
0.0
  0
LINE
  8
STREEPLIJN
 10
44492.96221198093
 20
25309.89806173614
 30
0.0
 11
44492.96221198092
 21
18309.89806173615
 31
0.0
  0
LINE
  8
STREEPLIJN
 10
42492.96221198092
 20
25309.89806173614
 30
0.0
 11
42492.96221198092
 21
18309.89806173614
 31
0.0
  0
LINE
  8
STREEPLIJN
 10
43492.96221198093
 20
25309.89806173614
 30
0.0
 11
43492.96221198093
 21
18309.89806173615
 31
0.0
  0
LINE
  8
STREEPLIJN
 10
39492.96221198093
 20
23309.89806173614
 30
0.0
 11
46492.96221198093
 21
23309.89806173613
 31
0.0
  0
LINE
  8
STREEPLIJN
 10
39492.96221198093
 20
24309.89806173614
 30
0.0
 11
46492.96221198093
 21
24309.89806173613
 31
0.0
  0
LINE
  8
STREEPLIJN
 10
39492.96221198093
 20
25309.89806173614
 30
0.0
 11
46492.96221198093
 21
25309.89806173614
 31
0.0
  0
INSERT
  8
STREEPLIJN
  2
*X41
 10
0.0
 20
0.0
 30
0.0
1001
ACAD
1000
HATCH
1002
{
1070
    16
1000
ANSI31
1040
40.0
1040
0.0
1002
}
  0
LINE
  8
DUN
 10
42417.50900078155
 20
41365.74903698661
 30
0.0
 11
42417.51456179512
 21
41400.74903654483
 31
0.0
  0
LINE
  8
DUN
 10
42459.50900022977
 20
41365.74236374722
 30
0.0
 11
42459.51456124558
 21
41400.74236332709
 31
0.0
  0
LINE
  8
DUN
 10
42417.51456179633
 20
41400.74903654483
 30
0.0
 11
42459.5145612662
 21
41400.74236332709
 31
0.0
  0
LINE
  8
DUN
 10
42422.50820628776
 20
41360.74824261903
 30
0.0
 11
42454.50820586221
 21
41360.74315824102
 31
0.0
  0
ARC
  8
DUN
 10
42422.50900071844
 20
41365.74824255592
 30
0.0
 40
5.0
 50
179.990896494906
 51
269.990896494906
  0
ARC
  8
DUN
 10
42454.50900029288
 20
41365.74315817791
 30
0.0
 40
5.0
 50
269.990896494908
 51
359.990896494906
  0
LINE
  8
HARTLIJN
 10
42459.56348773672
 20
41708.67652879928
 30
0.0
 11
42417.56348826687
 21
41708.68320201702
 31
0.0
  0
LINE
  8
DIK
 10
42417.51456179512
 20
41400.74903654483
 30
0.0
 11
42417.61241471476
 21
42016.61736748922
 31
0.0
  0
LINE
  8
DIK
 10
42459.51456124558
 20
41400.74236332709
 30
0.0
 11
42459.61241420454
 21
42016.61069427025
 31
0.0
  0
LINE
  8
DUN
 10
42422.6187700959
 20
42056.6165725298
 30
0.0
 11
42454.61876971091
 21
42056.61148819558
 31
0.0
  0
ARC
  8
DUN
 10
42422.61797566521
 20
42051.6165725929
 30
0.0
 40
5.0
 50
89.990896494904
 51
179.990896494906
  0
ARC
  8
DUN
 10
42454.61797528346
 20
42051.61148825869
 30
0.0
 40
5.0
 50
359.990896493111
 51
89.990896531827
  0
LINE
  8
DUN
 10
42459.61241420454
 20
42016.61069427148
 30
0.0
 11
42459.61797522034
 21
42051.61069382785
 31
0.0
  0
LINE
  8
DUN
 10
42417.61300828087
 20
42020.35316375559
 30
0.0
 11
42417.61797572833
 21
42051.61736702359
 31
0.0
  0
LINE
  8
DUN
 10
42417.61300828087
 20
42020.35316375559
 30
0.0
 11
42417.61241471476
 21
42016.61736748922
 31
0.0
  0
LINE
  8
DUN
 10
42417.61241471476
 20
42016.61736748922
 30
0.0
 11
42459.61241420454
 21
42016.61069427025
 31
0.0
  0
LINE
  8
DUN
 10
42923.97521324642
 20
42522.81928352321
 30
0.0
 11
42923.96854002991
 21
42480.81928403341
 31
0.0
  0
LINE
  8
DUN
 10
42920.23941698005
 20
42522.81987708959
 30
0.0
 11
42923.97521324642
 21
42522.81928352321
 31
0.0
  0
LINE
  8
DUN
 10
42920.23941698005
 20
42522.81987708959
 30
0.0
 11
42888.97521371205
 21
42522.8248445392
 31
0.0
  0
LINE
  8
DIK
 10
43539.83687097308
 20
42480.72143111029
 30
0.0
 11
42923.96854002991
 21
42480.81928403341
 31
0.0
  0
LINE
  8
DIK
 10
43539.84354419081
 20
42522.72143056075
 30
0.0
 11
42923.97521324642
 21
42522.81928352321
 31
0.0
  0
LINE
  8
DUN
 10
42923.96854002868
 20
42480.81928403342
 30
0.0
 11
42888.96854047231
 21
42480.82484504719
 31
0.0
  0
LINE
  8
DIK
 10
44046.04873752689
 20
42036.98550830227
 30
0.0
 11
44045.9443299364
 21
41379.86342485431
 31
0.0
  0
LINE
  8
DIK
 10
44046.04588580978
 20
42019.03732773598
 30
0.0
 11
44045.9443299364
 21
41379.86342485431
 31
0.0
  0
LINE
  8
DIK
 10
44004.04588633993
 20
42019.04400095371
 30
0.0
 11
44003.94433046653
 21
41379.87009807205
 31
0.0
  0
LINE
  8
DUN
 10
44004.05383064676
 20
42069.0440003226
 30
0.0
 11
44046.05383011661
 21
42069.03732710486
 31
0.0
  0
LINE
  8
DUN
 10
44004.04588633993
 20
42019.04400095371
 30
0.0
 11
44046.04588580978
 21
42019.03732773598
 31
0.0
  0
LINE
  8
DUN
 10
44004.04588633993
 20
42019.04400095371
 30
0.0
 11
44004.05383064676
 21
42069.0440003226
 31
0.0
  0
LINE
  8
DUN
 10
44046.04588580978
 20
42019.03732773598
 30
0.0
 11
44046.05383011661
 21
42069.03732710486
 31
0.0
  0
LINE
  8
DUN
 10
44045.93978899716
 20
41351.28359232868
 30
0.0
 11
44045.947733304
 21
41401.28359169756
 31
0.0
  0
LINE
  8
DUN
 10
44003.93978952729
 20
41351.29026554642
 30
0.0
 11
44003.94773383413
 21
41401.2902649153
 31
0.0
  0
LINE
  8
DUN
 10
44003.93978952729
 20
41351.29026554642
 30
0.0
 11
44045.93978899716
 21
41351.28359232868
 31
0.0
  0
LINE
  8
DUN
 10
44003.94773383413
 20
41401.2902649153
 30
0.0
 11
44045.947733304
 21
41401.28359169756
 31
0.0
  0
LINE
  8
DUN
 10
43538.79819137837
 20
40936.28851060748
 30
0.0
 11
43538.79151816063
 21
40894.28851113763
 31
0.0
  0
LINE
  8
DUN
 10
43588.79819074726
 20
40936.28056630064
 30
0.0
 11
43588.79151752951
 21
40894.28056683079
 31
0.0
  0
LINE
  8
DUN
 10
43588.79819074726
 20
40936.28056630064
 30
0.0
 11
43538.79819137837
 21
40936.28851060748
 31
0.0
  0
LINE
  8
DUN
 10
43588.79151752951
 20
40894.28056683079
 30
0.0
 11
43538.79151816063
 21
40894.28851113763
 31
0.0
  0
LINE
  8
DUN
 10
42921.03778212222
 20
40894.38666364341
 30
0.0
 11
42871.03778275334
 21
40894.39460795025
 31
0.0
  0
LINE
  8
DUN
 10
42921.04445533995
 20
40936.38666311328
 30
0.0
 11
42871.04445597107
 21
40936.39460742012
 31
0.0
  0
LINE
  8
DUN
 10
42921.04445533995
 20
40936.38666311328
 30
0.0
 11
42921.03778212222
 21
40894.38666364341
 31
0.0
  0
LINE
  8
DUN
 10
42871.04445597107
 20
40936.39460742012
 30
0.0
 11
42871.03778275334
 21
40894.39460795025
 31
0.0
  0
LINE
  8
HARTLIJN
 10
42476.05458689188
 20
40569.544953514
 30
0.0
 11
42476.05458689188
 21
40469.544953514
 31
0.0
  0
LINE
  8
HARTLIJN
 10
42426.05458689188
 20
40519.544953514
 30
0.0
 11
42526.05458689187
 21
40519.544953514
 31
0.0
  0
CIRCLE
  8
DIK
 10
42476.05458689188
 20
40519.544953514
 30
0.0
 40
16.5
  0
LINE
  8
HARTLIJN
 10
42776.05458689188
 20
40569.544953514
 30
0.0
 11
42776.05458689188
 21
40469.544953514
 31
0.0
  0
LINE
  8
HARTLIJN
 10
42726.05458689188
 20
40519.544953514
 30
0.0
 11
42826.05458689188
 21
40519.544953514
 31
0.0
  0
CIRCLE
  8
DIK
 10
42776.05458689188
 20
40519.544953514
 30
0.0
 40
16.5
  0
LINE
  8
HARTLIJN
 10
43076.05458689187
 20
40569.544953514
 30
0.0
 11
43076.05458689187
 21
40469.544953514
 31
0.0
  0
LINE
  8
HARTLIJN
 10
43026.05458689187
 20
40519.544953514
 30
0.0
 11
43126.05458689188
 21
40519.544953514
 31
0.0
  0
CIRCLE
  8
DIK
 10
43076.05458689187
 20
40519.544953514
 30
0.0
 40
16.5
  0
LINE
  8
HARTLIJN
 10
43376.05458689187
 20
40569.544953514
 30
0.0
 11
43376.05458689187
 21
40469.544953514
 31
0.0
  0
LINE
  8
HARTLIJN
 10
43326.05458689188
 20
40519.544953514
 30
0.0
 11
43426.05458689187
 21
40519.544953514
 31
0.0
  0
CIRCLE
  8
DIK
 10
43376.05458689187
 20
40519.544953514
 30
0.0
 40
16.5
  0
LINE
  8
HARTLIJN
 10
43626.05458689188
 20
40519.544953514
 30
0.0
 11
43726.05458689188
 21
40519.544953514
 31
0.0
  0
LINE
  8
HARTLIJN
 10
43676.05458689188
 20
40569.544953514
 30
0.0
 11
43676.05458689188
 21
40469.544953514
 31
0.0
  0
CIRCLE
  8
DIK
 10
43676.05458689188
 20
40519.544953514
 30
0.0
 40
16.5
  0
CIRCLE
  8
DIK
 10
43976.05458689188
 20
40519.544953514
 30
0.0
 40
16.5
  0
LINE
  8
HARTLIJN
 10
43926.05458689187
 20
40519.544953514
 30
0.0
 11
44026.05458689188
 21
40519.544953514
 31
0.0
  0
LINE
  8
HARTLIJN
 10
43976.05458689188
 20
40569.544953514
 30
0.0
 11
43976.05458689188
 21
40469.544953514
 31
0.0
  0
LINE
  8
HARTLIJN
 10
44376.05458689188
 20
40969.544953514
 30
0.0
 11
44376.05458689188
 21
40869.544953514
 31
0.0
  0
LINE
  8
HARTLIJN
 10
44326.05458689187
 20
40919.544953514
 30
0.0
 11
44426.05458689188
 21
40919.544953514
 31
0.0
  0
CIRCLE
  8
DIK
 10
44376.05458689188
 20
40919.544953514
 30
0.0
 40
16.5
  0
LINE
  8
HARTLIJN
 10
44376.05458689188
 20
41469.54495351399
 30
0.0
 11
44376.05458689188
 21
41369.544953514
 31
0.0
  0
LINE
  8
HARTLIJN
 10
44326.05458689187
 20
41419.544953514
 30
0.0
 11
44426.05458689188
 21
41419.544953514
 31
0.0
  0
CIRCLE
  8
DIK
 10
44376.05458689188
 20
41419.544953514
 30
0.0
 40
16.5
  0
CIRCLE
  8
DIK
 10
43676.05458689188
 20
42919.544953514
 30
0.0
 40
16.5
  0
LINE
  8
HARTLIJN
 10
43626.05458689188
 20
42919.544953514
 30
0.0
 11
43726.05458689188
 21
42919.544953514
 31
0.0
  0
LINE
  8
HARTLIJN
 10
43676.05458689188
 20
42969.544953514
 30
0.0
 11
43676.05458689188
 21
42869.544953514
 31
0.0
  0
LINE
  8
DIK
 10
44255.05458689188
 20
42769.54495351399
 30
0.0
 11
44255.05458689188
 21
41769.544953514
 31
0.0
  0
LINE
  8
DIK
 10
44297.05458689188
 20
42769.54495351399
 30
0.0
 11
44297.05458689188
 21
41769.544953514
 31
0.0
  0
LINE
  8
HARTLIJN
 10
44276.05458689187
 20
42769.54495351399
 30
0.0
 11
44276.05458689187
 21
41769.544953514
 31
0.0
  0
POLYLINE
  8
DIK
 66
     1
 10
0.0
 20
0.0
 30
0.0
 70
     1
  0
VERTEX
  8
DIK
 10
44326.05458689187
 20
41669.544953514
 30
0.0
  0
VERTEX
  8
DIK
 10
44326.05458689187
 20
41769.544953514
 30
0.0
  0
VERTEX
  8
DIK
 10
44226.05458689187
 20
41769.544953514
 30
0.0
  0
VERTEX
  8
DIK
 10
44226.05458689187
 20
41669.544953514
 30
0.0
  0
SEQEND
  8
DIK
  0
LINE
  8
DIK
 10
42226.05458689187
 20
42798.544953514
 30
0.0
 11
43035.00596876961
 21
42798.544953514
 31
0.0
  0
LINE
  8
DIK
 10
42226.05458689187
 20
42840.544953514
 30
0.0
 11
43035.00596876961
 21
42840.544953514
 31
0.0
  0
LINE
  8
HARTLIJN
 10
42226.05458689187
 20
42819.544953514
 30
0.0
 11
43035.00596876961
 21
42819.544953514
 31
0.0
  0
POLYLINE
  8
DIK
 66
     1
 10
0.0
 20
0.0
 30
0.0
 70
     1
  0
VERTEX
  8
DIK
 10
43035.00596876961
 20
42769.54495351399
 30
0.0
  0
VERTEX
  8
DIK
 10
43035.00596876961
 20
42869.544953514
 30
0.0
  0
VERTEX
  8
DIK
 10
43135.00596876962
 20
42869.544953514
 30
0.0
  0
VERTEX
  8
DIK
 10
43135.00596876962
 20
42769.54495351399
 30
0.0
  0
SEQEND
  8
DIK
  0
LINE
  8
HARTLIJN
 10
42076.05458689188
 20
41739.544953514
 30
0.0
 11
42076.05458689188
 21
41699.544953514
 31
0.0
  0
CIRCLE
  8
DIK
 10
42076.05458689188
 20
41719.544953514
 30
0.0
 40
20.0
  0
LINE
  8
HARTLIJN
 10
42096.05458689187
 20
41719.544953514
 30
0.0
 11
42056.05458689188
 21
41719.544953514
 31
0.0
  0
ARC
  8
DUN
 10
42888.96933490284
 20
42485.82484498407
 30
0.0
 40
5.0
 50
179.990896457985
 51
269.990896496701
  0
ARC
  8
DUN
 10
42888.97441928137
 20
42517.82484460231
 30
0.0
 40
5.0
 50
89.990896494906
 51
179.990896494908
  0
ARC
  8
DUN
 10
43574.83766498361
 20
42485.7158700334
 30
0.0
 40
5.0
 50
269.990896494907
 51
359.990896494904
  0
ARC
  8
DUN
 10
43574.84274931834
 20
42517.71586960786
 30
0.0
 40
5.0
 50
359.990896494906
 51
89.990896494906
  0
LINE
  8
DUN
 10
43579.84274925524
 20
42517.71507517718
 30
0.0
 11
43579.8376649205
 21
42485.71507560272
 31
0.0
  0
LINE
  8
DUN
 10
42883.97441934447
 20
42517.825639033
 30
0.0
 11
42883.96933496595
 21
42485.82563941798
 31
0.0
  0
LINE
  8
DUN
 10
43539.84354419081
 20
42522.72143055953
 30
0.0
 11
43539.83687097307
 21
42480.72143108966
 31
0.0
  0
LINE
  8
HARTLIJN
 10
43231.90270550087
 20
42480.77035756019
 30
0.0
 11
43231.90937871861
 21
42522.77035703005
 31
0.0
  0
LINE
  8
DIK
 10
42921.04445533995
 20
40936.38666311328
 30
0.0
 11
43560.21835822162
 21
40936.28510723988
 31
0.0
  0
LINE
  8
DIK
 10
42921.03778212222
 20
40894.38666364341
 30
0.0
 11
43560.21168500388
 21
40894.28510777002
 31
0.0
  0
LINE
  8
DIK
 10
42903.08960155591
 20
40894.38951536052
 30
0.0
 11
43560.21168500388
 21
40894.28510777002
 31
0.0
  0
LINE
  8
DUN
 10
43574.83687055292
 20
42480.71587009651
 30
0.0
 11
43539.83687097308
 21
42480.72143111029
 31
0.0
  0
LINE
  8
DUN
 10
43574.84354374903
 20
42522.71586954475
 30
0.0
 11
43539.84354419081
 21
42522.72143056074
 31
0.0
  0
LINE
  8
DIK
 10
43318.40709374406
 20
41499.3235348044
 30
0.0
 11
43440.98277224389
 21
41621.86026833953
 31
0.0
  0
LINE
  8
DIK
 10
43145.08644504114
 20
41499.35107305303
 30
0.0
 11
43318.40709374406
 21
41499.3235348044
 31
0.0
  0
LINE
  8
DIK
 10
43022.549711506
 20
41621.92675155287
 30
0.0
 11
43145.08644504114
 21
41499.35107305303
 31
0.0
  0
LINE
  8
DIK
 10
43022.57724975462
 20
41795.24740025578
 30
0.0
 11
43022.549711506
 21
41621.92675155287
 31
0.0
  0
LINE
  8
DIK
 10
43145.15292825446
 20
41917.78413379091
 30
0.0
 11
43022.57724975462
 21
41795.24740025578
 31
0.0
  0
LINE
  8
DIK
 10
43318.47357695737
 20
41917.75659554228
 30
0.0
 11
43145.15292825446
 21
41917.78413379091
 31
0.0
  0
LINE
  8
DIK
 10
43441.01031049251
 20
41795.18091704245
 30
0.0
 11
43318.47357695737
 21
41917.75659554228
 31
0.0
  0
LINE
  8
DIK
 10
43440.98277224389
 20
41621.86026833953
 30
0.0
 11
43441.01031049251
 21
41795.18091704245
 31
0.0
  0
LINE
  8
DIK
 10
43435.99862031033
 20
41215.30484755604
 30
0.0
 11
43724.96407782599
 21
41504.17849444761
 31
0.0
  0
LINE
  8
DIK
 10
43027.40467114921
 20
41215.36976747091
 30
0.0
 11
43435.99862031033
 21
41215.30484755604
 31
0.0
  0
LINE
  8
DIK
 10
42738.53102425763
 20
41504.33522498658
 30
0.0
 11
43027.40467114921
 21
41215.36976747091
 31
0.0
  0
LINE
  8
DIK
 10
42738.59594417252
 20
41912.9291741477
 30
0.0
 11
42738.53102425763
 21
41504.33522498658
 31
0.0
  0
LINE
  8
DIK
 10
43027.56140168818
 20
42201.80282103927
 30
0.0
 11
42738.59594417252
 21
41912.9291741477
 31
0.0
  0
LINE
  8
DIK
 10
43436.1553508493
 20
42201.7379011244
 30
0.0
 11
43027.56140168818
 21
42201.80282103927
 31
0.0
  0
LINE
  8
DIK
 10
43725.02899774088
 20
41912.77244360874
 30
0.0
 11
43436.1553508493
 21
42201.7379011244
 31
0.0
  0
LINE
  8
DIK
 10
43724.96407782599
 20
41504.17849444761
 30
0.0
 11
43725.02899774088
 21
41912.77244360874
 31
0.0
  0
LINE
  8
DIK
 10
43441.01031049251
 20
41795.18091704245
 30
0.0
 11
44041.04979059468
 21
42043.61371964727
 31
0.0
  0
LINE
  8
DIK
 10
43440.98277224389
 20
41621.86026833953
 30
0.0
 11
44040.94327699483
 21
41373.23680237068
 31
0.0
  0
LINE
  8
DIK
 10
43318.40709374406
 20
41499.3235348044
 30
0.0
 11
43566.83989634888
 21
40899.28405470223
 31
0.0
  0
LINE
  8
DIK
 10
43145.08644504114
 20
41499.35107305303
 30
0.0
 11
42896.46297907228
 21
40899.39056830209
 31
0.0
  0
LINE
  8
DIK
 10
43022.549711506
 20
41621.92675155287
 30
0.0
 11
42422.51023140383
 21
41373.49394894804
 31
0.0
  0
LINE
  8
DIK
 10
43022.57724975463
 20
41795.24740025578
 30
0.0
 11
42422.61674500369
 21
42043.87086622462
 31
0.0
  0
LINE
  8
DIK
 10
43145.15292825446
 20
41917.78413379091
 30
0.0
 11
42896.72012564964
 21
42517.82361389309
 31
0.0
  0
LINE
  8
DIK
 10
43318.47357695738
 20
41917.75659554228
 30
0.0
 11
43567.09704292622
 21
42517.71710029323
 31
0.0
  0
LINE
  8
DIK
 10
44426.05458689188
 20
40569.544953514
 30
0.0
 11
42026.05458689188
 21
40569.544953514
 31
0.0
  0
LINE
  8
DIK
 10
44326.05458689187
 20
42869.544953514
 30
0.0
 11
44326.05458689187
 21
40569.544953514
 31
0.0
  0
LINE
  8
DIK
 10
42026.05458689188
 20
42869.544953514
 30
0.0
 11
44426.05458689188
 21
42869.544953514
 31
0.0
  0
LINE
  8
DIK
 10
42126.05458689187
 20
40569.544953514
 30
0.0
 11
42126.05458689187
 21
42869.544953514
 31
0.0
  0
POLYLINE
  8
DIK
 66
     1
 10
0.0
 20
0.0
 30
0.0
 70
     1
  0
VERTEX
  8
DIK
 10
44326.05458689187
 20
42769.54495351399
 30
0.0
  0
VERTEX
  8
DIK
 10
44326.05458689187
 20
42869.544953514
 30
0.0
  0
VERTEX
  8
DIK
 10
44226.05458689187
 20
42869.544953514
 30
0.0
  0
VERTEX
  8
DIK
 10
44226.05458689187
 20
42769.54495351399
 30
0.0
  0
SEQEND
  8
DIK
  0
POLYLINE
  8
DIK
 66
     1
 10
0.0
 20
0.0
 30
0.0
 70
     1
  0
VERTEX
  8
DIK
 10
42126.05458689187
 20
42769.54495351399
 30
0.0
  0
VERTEX
  8
DIK
 10
42126.05458689187
 20
42869.544953514
 30
0.0
  0
VERTEX
  8
DIK
 10
42226.05458689187
 20
42869.544953514
 30
0.0
  0
VERTEX
  8
DIK
 10
42226.05458689187
 20
42769.54495351399
 30
0.0
  0
SEQEND
  8
DIK
  0
POLYLINE
  8
DIK
 66
     1
 10
0.0
 20
0.0
 30
0.0
 70
     1
  0
VERTEX
  8
DIK
 10
44326.05458689187
 20
40569.544953514
 30
0.0
  0
VERTEX
  8
DIK
 10
44326.05458689187
 20
40669.54495351399
 30
0.0
  0
VERTEX
  8
DIK
 10
44226.05458689187
 20
40669.54495351399
 30
0.0
  0
VERTEX
  8
DIK
 10
44226.05458689187
 20
40569.544953514
 30
0.0
  0
SEQEND
  8
DIK
  0
POLYLINE
  8
DIK
 66
     1
 10
0.0
 20
0.0
 30
0.0
 70
     1
  0
VERTEX
  8
DIK
 10
42126.05458689187
 20
40569.544953514
 30
0.0
  0
VERTEX
  8
DIK
 10
42126.05458689187
 20
40669.54495351399
 30
0.0
  0
VERTEX
  8
DIK
 10
42226.05458689187
 20
40669.54495351399
 30
0.0
  0
VERTEX
  8
DIK
 10
42226.05458689187
 20
40569.544953514
 30
0.0
  0
SEQEND
  8
DIK
  0
LINE
  8
HARTLIJN
 10
42026.05458689188
 20
42054.73341638318
 30
0.0
 11
42126.05458689187
 21
42054.73341638318
 31
0.0
  0
ARC
  8
DIK
 10
42026.05458689188
 20
42054.73341638318
 30
0.0
 40
17.5
 50
90.0
 51
270.0
  0
LINE
  8
HARTLIJN
 10
42015.41838458942
 20
42054.73341638318
 30
0.0
 11
42115.41838458943
 21
42054.73341638318
 31
0.0
  0
LINE
  8
HARTLIJN
 10
42026.05458689188
 20
41384.35649064482
 30
0.0
 11
42126.05458689187
 21
41384.35649064482
 31
0.0
  0
ARC
  8
DIK
 10
42026.05458689188
 20
41384.35649064482
 30
0.0
 40
17.5
 50
90.0
 51
270.0
  0
LINE
  8
HARTLIJN
 10
42015.41838458942
 20
41384.35649064482
 30
0.0
 11
42115.41838458943
 21
41384.35649064482
 31
0.0
  0
LINE
  8
HARTLIJN
 10
44426.05458689188
 20
41384.35649064482
 30
0.0
 11
44326.05458689187
 21
41384.35649064482
 31
0.0
  0
ARC
  8
DIK
 10
44415.41838458943
 20
41384.35649064482
 30
0.0
 40
17.5
 50
270.0
 51
90.0
  0
LINE
  8
HARTLIJN
 10
44415.41838458943
 20
41384.35649064482
 30
0.0
 11
44326.05458689188
 21
41384.35649064482
 31
0.0
  0
LINE
  8
HARTLIJN
 10
44436.69078919432
 20
42054.73341638318
 30
0.0
 11
44336.69078919432
 21
42054.73341638318
 31
0.0
  0
ARC
  8
DIK
 10
44426.05458689188
 20
42054.73341638318
 30
0.0
 40
17.5
 50
270.0
 51
90.0
  0
LINE
  8
HARTLIJN
 10
44426.05458689188
 20
42054.73341638318
 30
0.0
 11
44326.05458689187
 21
42054.73341638318
 31
0.0
  0
LINE
  8
HARTLIJN
 10
42890.8661240227
 20
42958.90875121155
 30
0.0
 11
42890.8661240227
 21
42858.90875121155
 31
0.0
  0
LINE
  8
HARTLIJN
 10
43561.24304976105
 20
42958.90875121155
 30
0.0
 11
43561.24304976105
 21
42858.90875121156
 31
0.0
  0
LINE
  8
HARTLIJN
 10
43561.24304976105
 20
42969.544953514
 30
0.0
 11
43561.24304976105
 21
42869.544953514
 31
0.0
  0
ARC
  8
DIK
 10
43561.24304976105
 20
42969.544953514
 30
0.0
 40
17.5
 50
0.0
 51
180.0
  0
ARC
  8
DIK
 10
42890.8661240227
 20
42969.544953514
 30
0.0
 40
17.5
 50
0.0
 51
180.0
  0
LINE
  8
HARTLIJN
 10
42890.8661240227
 20
42969.544953514
 30
0.0
 11
42890.8661240227
 21
42869.544953514
 31
0.0
  0
LINE
  8
HARTLIJN
 10
43561.24304976106
 20
40458.90875121154
 30
0.0
 11
43561.24304976106
 21
40558.90875121154
 31
0.0
  0
LINE
  8
HARTLIJN
 10
42890.86612402271
 20
40458.90875121154
 30
0.0
 11
42890.86612402271
 21
40558.90875121154
 31
0.0
  0
LINE
  8
HARTLIJN
 10
42890.86612402271
 20
40469.544953514
 30
0.0
 11
42890.86612402271
 21
40569.544953514
 31
0.0
  0
ARC
  8
DIK
 10
42890.86612402271
 20
40469.544953514
 30
0.0
 40
17.5
 50
180.0
 51
0.0
  0
ARC
  8
DIK
 10
43561.24304976106
 20
40469.544953514
 30
0.0
 40
17.5
 50
180.0
 51
0.0
  0
LINE
  8
HARTLIJN
 10
43561.24304976106
 20
40469.544953514
 30
0.0
 11
43561.24304976106
 21
40569.544953514
 31
0.0
  0
DIMENSION
  8
DUN
  2
*D3
 10
44426.05458689188
 20
40146.19803529514
 30
0.0
 11
43226.05458689188
 21
40246.19803529514
 31
0.0
 12
55121.79479839405
 22
51070.68764562672
 32
0.0
 13
42026.05458689188
 23
40469.544953514
 33
0.0
 14
44426.05458689188
 24
40469.544953514
 34
0.0
  0
LINE
  8
DIK
 10
42026.05458689188
 20
40469.544953514
 30
0.0
 11
42026.05458689188
 21
42969.544953514
 31
0.0
  0
LINE
  8
DIK
 10
42026.05458689188
 20
42969.544953514
 30
0.0
 11
44426.05458689188
 21
42969.544953514
 31
0.0
  0
LINE
  8
DIK
 10
44426.05458689188
 20
42969.544953514
 30
0.0
 11
44426.05458689188
 21
40469.544953514
 31
0.0
  0
LINE
  8
DIK
 10
44426.05458689188
 20
40469.544953514
 30
0.0
 11
42026.05458689188
 21
40469.544953514
 31
0.0
  0
DIMENSION
  8
DUN
  2
*D2
 10
44738.28783394433
 20
40469.544953514
 30
0.0
 11
44638.28783394433
 21
41719.544953514
 31
0.0
 12
55121.79479839405
 22
51070.68764562672
 32
0.0
 13
44426.05458689188
 23
42969.544953514
 33
0.0
 14
44426.05458689188
 24
40469.544953514
 34
0.0
 50
90.0
  0
LINE
  8
DIK
 10
43572.09783729389
 20
42522.71630579954
 30
0.0
 11
43561.24304976105
 21
42869.544953514
 31
0.0
  0
LINE
  8
DIK
 10
42891.72092011968
 20
42522.82440828442
 30
0.0
 11
42890.8661240227
 21
42869.544953514
 31
0.0
  0
LINE
  8
DIK
 10
42422.61674500369
 20
42043.87086622462
 30
0.0
 11
42126.05458689187
 21
42054.73341638318
 31
0.0
  0
LINE
  8
DIK
 10
42422.51023140383
 20
41373.49394894804
 30
0.0
 11
42126.05458689187
 21
41384.35649064482
 31
0.0
  0
LINE
  8
DIK
 10
42896.46297907228
 20
40899.39056830209
 30
0.0
 11
42890.86612402271
 21
40569.544953514
 31
0.0
  0
LINE
  8
DIK
 10
43571.83910185508
 20
40894.28326033466
 30
0.0
 11
43561.24304976106
 21
40569.544953514
 31
0.0
  0
LINE
  8
DIK
 10
44326.05458689187
 20
41384.35649064482
 30
0.0
 11
44045.94248250102
 21
41368.23600800313
 31
0.0
  0
LINE
  8
DIK
 10
44046.05058496225
 20
42048.61292515348
 30
0.0
 11
44326.05458689187
 21
42054.73341638318
 31
0.0
  0
DIMENSION
  8
DUN
  2
*D7
 10
39688.86262698973
 20
38419.544953514
 30
0.0
 11
39588.86262698973
 21
41719.544953514
 31
0.0
 12
55121.79479839405
 22
51070.68764562672
 32
0.0
 13
41026.05458689188
 23
45019.544953514
 33
0.0
 14
41026.05458689187
 24
38419.544953514
 34
0.0
 50
90.0
  0
DIMENSION
  8
DUN
  2
*D6
 10
46426.05458689187
 20
45768.63389455574
 30
0.0
 11
43226.05458689189
 21
45868.63389455574
 31
0.0
 12
55121.79479839405
 22
51070.68764562672
 32
0.0
 13
40026.05458689188
 23
44019.54495351399
 33
0.0
 14
46426.05458689187
 24
44019.54495351399
 34
0.0
  0
ARC
  8
DIK
 10
41026.05458689187
 20
39419.544953514
 30
0.0
 40
1000.0
 50
180.0
 51
270.0
  0
ARC
  8
DIK
 10
45426.05458689187
 20
39419.544953514
 30
0.0
 40
1000.0
 50
270.0
 51
0.0
  0
ARC
  8
DIK
 10
45426.05458689187
 20
44019.54495351399
 30
0.0
 40
1000.0
 50
0.0
 51
90.0
  0
ARC
  8
DIK
 10
41026.05458689188
 20
44019.54495351399
 30
0.0
 40
1000.0
 50
90.0
 51
180.0
  0
DIMENSION
  8
DUN
  2
*D5
 10
42619.82520169846
 20
45019.544953514
 30
0.0
 11
42519.82520169846
 21
43994.544953514
 31
0.0
 12
55121.79479839405
 22
51070.68764562672
 32
0.0
 13
42607.2459513066
 23
42969.544953514
 33
0.0
 14
42607.2459513066
 24
45019.544953514
 34
0.0
 50
90.0
  0
DIMENSION
  8
DUN
  2
*D4
 10
40026.05458689187
 20
42453.04793798971
 30
0.0
 11
41026.05458689187
 21
42553.04793798971
 31
0.0
 12
55121.79479839405
 22
51070.68764562672
 32
0.0
 13
42026.05458689188
 23
42445.63149476573
 33
0.0
 14
40026.05458689187
 24
42445.63149476573
 34
0.0
  0
LINE
  8
DIK
 10
40026.05458689187
 20
39419.544953514
 30
0.0
 11
40026.05458689188
 21
44019.54495351399
 31
0.0
  0
LINE
  8
DIK
 10
46426.05458689187
 20
44019.54495351399
 30
0.0
 11
46426.05458689187
 21
39419.544953514
 31
0.0
  0
LINE
  8
DIK
 10
41026.05458689188
 20
45019.544953514
 30
0.0
 11
45426.05458689187
 21
45019.544953514
 31
0.0
  0
LINE
  8
DIK
 10
45426.05458689187
 20
38419.544953514
 30
0.0
 11
41026.05458689187
 21
38419.544953514
 31
0.0
  0
TEXT
  8
DUN
 10
42498.24201389987
 20
38576.58472108498
 30
0.0
 40
200.0
  1
Wico Comfa AK713N
  7
ROMANS
  0
TEXT
  8
DUN
 10
42498.24201389987
 20
28653.72038077024
 30
0.0
 40
200.0
  1
Wico Comfa AK713N
  7
ROMANS
  0
TEXT
  8
DUN
 10
43077.79407529455
 20
18639.25810170082
 30
0.0
 40
200.0
  1
Wico Comfa AK713N
  7
ROMANS
  0
LINE
  8
STREEPLIJN
 10
46492.96221198093
 20
25309.89806173614
 30
0.0
 11
46492.96221198093
 21
18309.89806173615
 31
0.0
  0
LINE
  8
STREEPLIJN
 10
39492.96221198093
 20
18309.89806173614
 30
0.0
 11
46492.96221198093
 21
18309.89806173615
 31
0.0
  0
ENDSEC
  0
EOF
