  0
SECTION
  2
HEADER
  9
$ACADVER
  1
AC1009
  9
$INSBASE
 10
0.0
 20
0.0
 30
0.0
  9
$EXTMIN
 10
27256.72636737997
 20
-7826.516981184352
 30
0.0
  9
$EXTMAX
 10
33162.70214946033
 20
22681.55032254364
 30
0.0
  9
$LIMMIN
 10
0.0
 20
0.0
  9
$LIMMAX
 10
420.0
 20
297.0
  9
$ORTHOMODE
 70
     0
  9
$REGENMODE
 70
     1
  9
$FILLMODE
 70
     1
  9
$QTEXTMODE
 70
     0
  9
$MIRRTEXT
 70
     1
  9
$DRAGMODE
 70
     2
  9
$LTSCALE
 40
10.0
  9
$OSMODE
 70
   512
  9
$ATTMODE
 70
     1
  9
$TEXTSIZE
 40
100.0
  9
$TRACEWID
 40
0.05
  9
$TEXTSTYLE
  7
ROMANS
  9
$CLAYER
  8
DUN
  9
$CELTYPE
  6
BYLAYER
  9
$CECOLOR
 62
   256
  9
$DIMSCALE
 40
0.0
  9
$DIMASZ
 40
100.0
  9
$DIMEXO
 40
0.0
  9
$DIMDLI
 40
7.0
  9
$DIMRND
 40
5.0
  9
$DIMDLE
 40
0.0
  9
$DIMEXE
 40
1.0
  9
$DIMTP
 40
0.0
  9
$DIMTM
 40
0.0
  9
$DIMTXT
 40
80.0
  9
$DIMCEN
 40
1.75
  9
$DIMTSZ
 40
0.0
  9
$DIMTOL
 70
     0
  9
$DIMLIM
 70
     0
  9
$DIMTIH
 70
     0
  9
$DIMTOH
 70
     0
  9
$DIMSE1
 70
     0
  9
$DIMSE2
 70
     0
  9
$DIMTAD
 70
     1
  9
$DIMZIN
 70
     8
  9
$DIMBLK
  1

  9
$DIMASO
 70
     1
  9
$DIMSHO
 70
     0
  9
$DIMPOST
  1

  9
$DIMAPOST
  1

  9
$DIMALT
 70
     0
  9
$DIMALTD
 70
     2
  9
$DIMALTF
 40
25.4
  9
$DIMLFAC
 40
-1.0
  9
$DIMTOFL
 70
     1
  9
$DIMTVP
 40
0.0
  9
$DIMTIX
 70
     0
  9
$DIMSOXD
 70
     0
  9
$DIMSAH
 70
     0
  9
$DIMBLK1
  1

  9
$DIMBLK2
  1

  9
$DIMSTYLE
  2
STANDAARD
  9
$DIMCLRD
 70
   256
  9
$DIMCLRE
 70
   256
  9
$DIMCLRT
 70
   256
  9
$DIMTFAC
 40
0.03125
  9
$DIMGAP
 40
0.0
  9
$LUNITS
 70
     2
  9
$LUPREC
 70
     4
  9
$SKETCHINC
 40
0.1
  9
$FILLETRAD
 40
1000.0
  9
$AUNITS
 70
     0
  9
$AUPREC
 70
     0
  9
$MENU
  1
acad
  9
$ELEVATION
 40
0.0
  9
$PELEVATION
 40
0.0
  9
$THICKNESS
 40
0.0
  9
$LIMCHECK
 70
     0
  9
$BLIPMODE
 70
     0
  9
$CHAMFERA
 40
0.0
  9
$CHAMFERB
 40
0.0
  9
$SKPOLY
 70
     0
  9
$TDCREATE
 40
2453404.690837384
  9
$TDUPDATE
 40
2454126.499155671
  9
$TDINDWG
 40
0.0428297454
  9
$TDUSRTIMER
 40
0.0428297454
  9
$USRTIMER
 70
     1
  9
$ANGBASE
 50
0.0
  9
$ANGDIR
 70
     0
  9
$PDMODE
 70
     0
  9
$PDSIZE
 40
0.0
  9
$PLINEWID
 40
0.0
  9
$COORDS
 70
     2
  9
$SPLFRAME
 70
     0
  9
$SPLINETYPE
 70
     6
  9
$SPLINESEGS
 70
     8
  9
$ATTDIA
 70
     1
  9
$ATTREQ
 70
     1
  9
$HANDLING
 70
     0
  9
$HANDSEED
  5
0
  9
$SURFTAB1
 70
     6
  9
$SURFTAB2
 70
     6
  9
$SURFTYPE
 70
     6
  9
$SURFU
 70
     6
  9
$SURFV
 70
     6
  9
$UCSNAME
  2

  9
$UCSORG
 10
0.0
 20
0.0
 30
0.0
  9
$UCSXDIR
 10
1.0
 20
0.0
 30
0.0
  9
$UCSYDIR
 10
0.0
 20
1.0
 30
0.0
  9
$PUCSNAME
  2

  9
$PUCSORG
 10
0.0
 20
0.0
 30
0.0
  9
$PUCSXDIR
 10
1.0
 20
0.0
 30
0.0
  9
$PUCSYDIR
 10
0.0
 20
1.0
 30
0.0
  9
$USERI1
 70
     0
  9
$USERI2
 70
     0
  9
$USERI3
 70
     0
  9
$USERI4
 70
     0
  9
$USERI5
 70
     0
  9
$USERR1
 40
0.0
  9
$USERR2
 40
0.0
  9
$USERR3
 40
0.0
  9
$USERR4
 40
0.0
  9
$USERR5
 40
0.0
  9
$WORLDVIEW
 70
     1
  9
$SHADEDGE
 70
     3
  9
$SHADEDIF
 70
    70
  9
$TILEMODE
 70
     1
  9
$MAXACTVP
 70
    16
  9
$PINSBASE
 10
0.0
 20
0.0
 30
0.0
  9
$PLIMCHECK
 70
     0
  9
$PEXTMIN
 10
0.0
 20
0.0
 30
0.0
  9
$PEXTMAX
 10
420.0
 20
297.0
 30
0.0
  9
$PLIMMIN
 10
0.0
 20
0.0
  9
$PLIMMAX
 10
12.0
 20
9.0
  9
$UNITMODE
 70
     0
  9
$VISRETAIN
 70
     0
  9
$PLINEGEN
 70
     0
  9
$PSLTSCALE
 70
     0
  9
$TREEDEPTH
 70
  3020
  9
$DWGCODEPAGE
  3
iso8859-1
  0
ENDSEC
  0
SECTION
  2
TABLES
  0
TABLE
  2
VPORT
 70
     2
  0
VPORT
  2
*ACTIVE
 70
     0
 10
0.0
 20
0.0
 11
1.0
 21
1.0
 12
48982.68298289673
 22
7427.516670679648
 13
0.0
 23
0.0
 14
10.0
 24
10.0
 15
0.0
 25
0.0
 16
0.0
 26
0.0
 36
1.0
 17
0.0
 27
0.0
 37
0.0
 40
30508.06730372799
 41
1.424276169265
 42
50.0
 43
0.0
 44
0.0
 50
0.0
 51
0.0
 71
     0
 72
 20000
 73
     1
 74
     0
 75
     0
 76
     0
 77
     0
 78
     0
  0
ENDTAB
  0
TABLE
  2
LTYPE
 70
    10
  0
LTYPE
  2
CONTINUOUS
 70
    64
  3
Solid line
 72
    65
 73
     0
 40
0.0
  0
LTYPE
  2
CENTER
 70
    64
  3
____ _ ____ _ ____ _ ____ _ ____ _ ____ _ ____
 72
    65
 73
     4
 40
2.0
 49
1.25
 49
-0.25
 49
0.25
 49
-0.25
  0
LTYPE
  2
PHANTOM
 70
    64
  3
_____ _ _ _____ _ _ _____ _ _ _____ _ _ ____
 72
    65
 73
     6
 40
2.5
 49
1.25
 49
-0.25
 49
0.25
 49
-0.25
 49
0.25
 49
-0.25
  0
LTYPE
  2
DASHED
 70
    64
  3
__ __ __ __ __ __ __ __ __ __ __ __ __ __ __
 72
    65
 73
     2
 40
0.75
 49
0.5
 49
-0.25
  0
LTYPE
  2
CENTER2
 70
     0
  3
___ _ ___ _ ___ _ ___ _ ___ _ ___ _ ___ _ ___ _
 72
    65
 73
     4
 40
1.125
 49
0.75
 49
-0.125
 49
0.125
 49
-0.125
  0
LTYPE
  2
CENTERX2
 70
     0
  3
________  __  ________  __  ________  __  _____
 72
    65
 73
     4
 40
4.0
 49
2.5
 49
-0.5
 49
0.5
 49
-0.5
  0
LTYPE
  2
DASHED2
 70
     0
  3
_ _ _ _ _ _ _ _ _ _ _ _ _ _ _ _ _ _ _ _ _ _ _ _
 72
    65
 73
     2
 40
0.375
 49
0.25
 49
-0.125
  0
LTYPE
  2
DASHEDX2
 70
     0
  3
____  ____  ____  ____  ____  ____  ____  ____ 
 72
    65
 73
     2
 40
1.5
 49
1.0
 49
-0.5
  0
LTYPE
  2
PHANTOM2
 70
     0
  3
___ _ _ ___ _ _ ___ _ _ ___ _ _ ___ _ _ ___ _ _
 72
    65
 73
     6
 40
1.25
 49
0.625
 49
-0.125
 49
0.125
 49
-0.125
 49
0.125
 49
-0.125
  0
LTYPE
  2
PHANTOMX2
 70
     0
  3
____________    ____    ____    ____________   
 72
    65
 73
     6
 40
5.0
 49
2.5
 49
-0.5
 49
0.5
 49
-0.5
 49
0.5
 49
-0.5
  0
ENDTAB
  0
TABLE
  2
LAYER
 70
     8
  0
LAYER
  2
0
 70
    64
 62
     7
  6
CONTINUOUS
  0
LAYER
  2
DIK
 70
    64
 62
     2
  6
CONTINUOUS
  0
LAYER
  2
DUN
 70
    64
 62
     6
  6
CONTINUOUS
  0
LAYER
  2
HARTLIJN
 70
    64
 62
     1
  6
CENTER
  0
LAYER
  2
STREEPLIJN
 70
    64
 62
     5
  6
DASHED
  0
LAYER
  2
HARTLIJN-DUBBEL
 70
    64
 62
     1
  6
PHANTOM
  0
LAYER
  2
HARTLIJN-DIK
 70
     0
 62
     2
  6
CENTER
  0
LAYER
  2
DEFPOINTS
 70
    64
 62
     7
  6
CONTINUOUS
  0
ENDTAB
  0
TABLE
  2
STYLE
 70
     4
  0
STYLE
  2
STANDARD
 70
    64
 40
0.0
 41
1.0
 50
0.0
 71
     0
 42
0.2
  3
txt
  4

  0
STYLE
  2
ROMANS
 70
    64
 40
0.0
 41
1.0
 50
0.0
 71
     0
 42
100.0
  3
romans
  4

  0
STYLE
  2
ROMAND
 70
     0
 40
0.0
 41
1.0
 50
0.0
 71
     0
 42
5.591715976331
  3
romand
  4

  0
STYLE
  2
SANSSERIFBOLD
 70
    64
 40
10.0
 41
1.0
 50
0.0
 71
     0
 42
10.0
  3
sasb____.pfb
  4

  0
ENDTAB
  0
TABLE
  2
VIEW
 70
     0
  0
ENDTAB
  0
TABLE
  2
UCS
 70
     0
  0
ENDTAB
  0
TABLE
  2
APPID
 70
     1
  0
APPID
  2
ACAD
 70
    64
  0
ENDTAB
  0
TABLE
  2
DIMSTYLE
 70
     2
  0
DIMSTYLE
  2
STANDAARD
 70
    64
  3

  4

  5

  6

  7

 40
0.0
 41
100.0
 42
0.0
 43
7.0
 44
1.0
 45
5.0
 46
0.0
 47
0.0
 48
0.0
140
80.0
141
1.75
142
0.0
143
25.4
144
-1.0
145
0.0
146
0.03125
147
0.0
 71
     0
 72
     0
 73
     0
 74
     0
 75
     0
 76
     0
 77
     1
 78
     8
170
     0
171
     2
172
     1
173
     0
174
     0
175
     0
176
   256
177
   256
178
   256
  0
DIMSTYLE
  2
TOLERANTIE
 70
     0
  3

  4

  5
PIJLP
  6

  7

 40
0.0
 41
3.5
 42
0.0
 43
7.0
 44
1.0
 45
0.1
 46
0.0
 47
0.3
 48
0.7
140
3.5
141
1.75
142
0.0
143
25.4
144
-1.0
145
0.0
146
0.714285714286
147
0.0
 71
     1
 72
     0
 73
     0
 74
     0
 75
     0
 76
     0
 77
     1
 78
     8
170
     0
171
     2
172
     1
173
     0
174
     0
175
     0
176
   256
177
   256
178
   256
  0
ENDTAB
  0
ENDSEC
  0
SECTION
  2
BLOCKS
  0
BLOCK
  8
0
  2
TEKENH
 70
    64
 10
0.0
 20
0.0
 30
0.0
  3
TEKENH
  0
LINE
  8
DUN
 10
0.0
 20
15.0
 30
0.0
 11
-105.0
 21
15.0
 31
0.0
  0
LINE
  8
DUN
 10
0.0
 20
29.0
 30
0.0
 11
-180.0
 21
29.0
 31
0.0
  0
LINE
  8
DUN
 10
-45.0
 20
35.0
 30
0.0
 11
-145.0
 21
35.0
 31
0.0
  0
LINE
  8
DUN
 10
-45.0
 20
41.0
 30
0.0
 11
-145.0
 21
41.0
 31
0.0
  0
LINE
  8
DUN
 10
0.0
 20
47.0
 30
0.0
 11
-180.0
 21
47.0
 31
0.0
  0
LINE
  8
DUN
 10
0.0
 20
54.0
 30
0.0
 11
-180.0
 21
54.0
 31
0.0
  0
LINE
  8
DIK
 10
-180.0
 20
5.0
 30
0.0
 11
0.0
 21
5.0
 31
0.0
  0
LINE
  8
DIK
 10
-180.0
 20
57.0
 30
0.0
 11
-180.0
 21
0.0
 31
0.0
  0
TEXT
  8
DUN
 10
-143.75
 20
36.25
 30
0.0
 40
2.5
  1
Maateenheid
  7
ROMANS
  0
TEXT
  8
DIK
 10
-148.440362545074
 20
19.340461725786
 30
0.0
 40
2.5
  1
SECTOR TECHNIEK
  7
ROMANS
  0
TEXT
  8
DIK
 10
-148.440362545074
 20
23.388080773405
 30
0.0
 40
2.5
  1
HAAGSE HOGESCHOOL
  7
ROMANS
  0
TEXT
  8
DIK
 10
-148.440362545074
 20
13.066876305898
 30
0.0
 40
2.5
  1
AFDELING INDUSTRIEEL
  7
ROMANS
  0
TEXT
  8
DIK
 10
-148.440362545074
 20
9.019257258279
 30
0.0
 40
2.5
  1
PRODUKTONTWERPEN
  7
ROMANS
  0
LINE
  8
DUN
 10
-155.0
 20
57.0
 30
0.0
 11
-155.0
 21
47.0
 31
0.0
  0
LINE
  8
DUN
 10
-167.5
 20
57.0
 30
0.0
 11
-167.5
 21
47.0
 31
0.0
  0
LINE
  8
HARTLIJN
 10
-176.886088794123
 20
35.230609663178
 30
0.0
 11
-146.820300421814
 21
35.230609663178
 31
0.0
  0
LINE
  8
DIK
 10
-162.450142380332
 20
36.730609663178
 30
0.0
 11
-152.450142380332
 21
38.730609663178
 31
0.0
  0
LINE
  8
DIK
 10
-152.450142380332
 20
31.730609663178
 30
0.0
 11
-162.450142380332
 21
33.730609663178
 31
0.0
  0
TEXT
  8
DUN
 10
-178.75
 20
43.25
 30
0.0
 40
2.5
  1
Amerik. proj.
  7
ROMANS
  0
CIRCLE
  8
DIK
 10
-155.16399605453
 20
19.101995476601
 30
0.0
 40
2.738926691931
  0
ARC
  8
DIK
 10
-155.16399605453
 20
19.101995476601
 30
0.0
 40
5.08244644145
 50
217.58615827382
 51
136.945859517254
  0
LINE
  8
DIK
 10
-160.606534081057
 20
13.81954903515
 30
0.0
 11
-149.881549613079
 21
13.81954903515
 31
0.0
  0
LINE
  8
DIK
 10
-160.738999640542
 20
24.384441918051
 30
0.0
 11
-149.881549613079
 21
24.384441918051
 31
0.0
  0
POLYLINE
  8
DIK
 66
     1
 10
0.0
 20
0.0
 30
0.0
  0
VERTEX
  8
DIK
 10
-173.299933916411
 20
19.893020206338
 30
0.0
 42
0.01519296989
  0
VERTEX
  8
DIK
 10
-173.80806199825
 20
19.191293308404
 30
0.0
 42
0.04059810252
  0
VERTEX
  8
DIK
 10
-174.638507094833
 20
17.724574301424
 30
0.0
 42
0.106995455646
 70
     2
 50
254.39619560055
  0
SEQEND
  8
DIK
  0
POLYLINE
  8
DIK
 66
     1
 10
0.0
 20
0.0
 30
0.0
  0
VERTEX
  8
DIK
 10
-174.369010352572
 20
10.671836157203
 30
0.0
 42
0.068010394449
  0
VERTEX
  8
DIK
 10
-173.430811033457
 20
9.820574846878
 30
0.0
 42
0.106995455646
  0
SEQEND
  8
DIK
  0
LINE
  8
DIK
 10
-173.430811033457
 20
9.820574846878
 30
0.0
 11
-175.038295632455
 21
7.779878286816
 31
0.0
  0
LINE
  8
DIK
 10
-175.665796239655
 20
21.060062653769
 30
0.0
 11
-173.299933916411
 21
19.893020206338
 31
0.0
  0
POLYLINE
  8
DIK
 66
     1
 10
0.0
 20
0.0
 30
0.0
  0
VERTEX
  8
DIK
 10
-175.06979071136
 20
16.637763287061
 30
0.0
 42
0.012293677113
  0
VERTEX
  8
DIK
 10
-175.219344929091
 20
16.148974448758
 30
0.0
 42
0.106995455646
 70
     2
 50
254.39619560055
  0
VERTEX
  8
DIK
 10
-175.408142861391
 20
12.961273310181
 30
0.0
 42
0.136872673305
 50
254.39619560055
  0
VERTEX
  8
DIK
 10
-174.369010352572
 20
10.671836157203
 30
0.0
 42
0.136872673305
  0
SEQEND
  8
DIK
  0
POLYLINE
  8
DIK
 66
     1
 10
0.0
 20
0.0
 30
0.0
  0
VERTEX
  8
DIK
 10
-177.533246919684
 20
17.450717667179
 30
0.0
 42
0.01215599776
  0
VERTEX
  8
DIK
 10
-177.717860069696
 20
16.846751246235
 30
0.0
 42
0.106995455646
 70
     2
 50
254.39619560055
  0
VERTEX
  8
DIK
 10
-177.971556021955
 20
12.563299271861
 30
0.0
 42
0.136872673305
 50
254.39619560055
  0
VERTEX
  8
DIK
 10
-176.356223304524
 20
9.00436650215
 30
0.0
 42
0.136872673305
  0
SEQEND
  8
DIK
  0
POLYLINE
  8
DIK
 66
     1
 10
0.0
 20
0.0
 30
0.0
  0
VERTEX
  8
DIK
 10
-176.356223304524
 20
9.00436650215
 30
0.0
 42
0.062080649113
  0
VERTEX
  8
DIK
 10
-175.038295632455
 20
7.779878286816
 30
0.0
 42
0.106995455646
  0
SEQEND
  8
DIK
  0
POLYLINE
  8
DIK
 66
     1
 10
0.0
 20
0.0
 30
0.0
  0
VERTEX
  8
DIK
 10
-175.665796239655
 20
21.060062653769
 30
0.0
 42
0.007460633215
  0
VERTEX
  8
DIK
 10
-175.954427875157
 20
20.648202327313
 30
0.0
 42
0.041760377079
  0
VERTEX
  8
DIK
 10
-177.017316923261
 20
18.760741908652
 30
0.0
 42
0.106995455646
 70
     2
 50
254.39619560055
  0
SEQEND
  8
DIK
  0
LINE
  8
DIK
 10
-175.06979071136
 20
16.637763287061
 30
0.0
 11
-177.533246919684
 21
17.450717667179
 31
0.0
  0
LINE
  8
DIK
 10
-177.017316923261
 20
18.760741908652
 30
0.0
 11
-174.638507094833
 21
17.724574301424
 31
0.0
  0
ARC
  8
DIK
 10
-166.836551726683
 20
17.489108830784
 30
0.0
 40
3.024136079487
 50
270.0
 51
90.0
  0
LINE
  8
DIK
 10
-168.670154683362
 20
20.513244910271
 30
0.0
 11
-168.670154683362
 21
12.447690434973
 31
0.0
  0
POLYLINE
  8
DIK
 66
     1
 10
0.0
 20
0.0
 30
0.0
  0
VERTEX
  8
DIK
 10
-160.606534081057
 20
13.81954903515
 30
0.0
 42
0.020212941293
  0
VERTEX
  8
DIK
 10
-159.92129908168
 20
14.746139761985
 30
0.0
 42
0.034969919681
  0
VERTEX
  8
DIK
 10
-159.191514773802
 20
16.001938251947
 30
0.0
 42
0.106995455646
 70
     2
 50
74.39619560055
  0
SEQEND
  8
DIK
  0
LINE
  8
DIK
 10
-166.836551726683
 20
14.464972751297
 30
0.0
 11
-166.836551726683
 21
12.447690434973
 31
0.0
  0
LINE
  8
DIK
 10
-168.670154683362
 20
12.447690434973
 30
0.0
 11
-166.836551726683
 21
12.447690434973
 31
0.0
  0
ARC
  8
DIK
 10
-166.836551726683
 20
17.489108830784
 30
0.0
 40
1.190136079487
 50
270.0
 51
90.0
  0
POLYLINE
  8
DIK
 66
     1
 10
0.0
 20
0.0
 30
0.0
  0
VERTEX
  8
DIK
 10
-164.821453945582
 20
25.51055579841
 30
0.0
 42
0.077262734149
 70
     2
 50
185.60380439945
  0
VERTEX
  8
DIK
 10
-168.042895588918
 20
24.62734996957
 30
0.0
 42
0.050945521512
 50
185.60380439945
  0
VERTEX
  8
DIK
 10
-170.636781555084
 20
23.129724656625
 30
0.0
 42
0.069190866296
  0
SEQEND
  8
DIK
  0
POLYLINE
  8
DIK
 66
     1
 10
0.0
 20
0.0
 30
0.0
  0
VERTEX
  8
DIK
 10
-164.816465222912
 20
25.031365508669
 30
0.0
 42
0.076071376639
 70
     2
 50
185.60380439945
  0
VERTEX
  8
DIK
 10
-167.847785840809
 20
24.192558833828
 30
0.0
 42
0.048801187094
 50
185.60380439945
  0
VERTEX
  8
DIK
 10
-170.258569566301
 20
22.81436839439
 30
0.0
 42
0.069190866296
  0
SEQEND
  8
DIK
  0
LINE
  8
DIK
 10
-166.836551726683
 20
18.679244910271
 30
0.0
 11
-166.836551726683
 21
16.298972751297
 31
0.0
  0
LINE
  8
DIK
 10
-166.836551726683
 20
20.513244910271
 30
0.0
 11
-168.670154683362
 21
20.513244910271
 31
0.0
  0
LINE
  8
DIK
 10
-170.636781555084
 20
23.129724656625
 30
0.0
 11
-170.258569566301
 21
22.81436839439
 31
0.0
  0
LINE
  8
DIK
 10
-164.821453945582
 20
25.51055579841
 30
0.0
 11
-164.816465222912
 21
25.031365508669
 31
0.0
  0
POLYLINE
  8
DIK
 66
     1
 10
0.0
 20
0.0
 30
0.0
  0
VERTEX
  8
DIK
 10
-158.877785079489
 20
22.571726432785
 30
0.0
 42
0.045257321946
 50
74.39619560055
  0
VERTEX
  8
DIK
 10
-159.360350727358
 20
23.265596913186
 30
0.0
 42
0.095750765923
  0
VERTEX
  8
DIK
 10
-160.738999640542
 20
24.384441918051
 30
0.0
 42
0.106995455646
  0
SEQEND
  8
DIK
  0
TEXT
  8
DUN
 10
-178.75
 20
48.25
 30
0.0
 40
2.5
  1
Pos
  7
ROMANS
  0
CIRCLE
  8
DIK
 10
-172.011475615595
 20
35.230609663178
 30
0.0
 40
3.5
  0
LINE
  8
HARTLIJN
 10
-172.011475615595
 20
40.304753886429
 30
0.0
 11
-172.011475615595
 21
30.156465439926
 31
0.0
  0
CIRCLE
  8
DIK
 10
-172.011475615595
 20
35.230609663178
 30
0.0
 40
1.5
  0
LINE
  8
DIK
 10
-162.450142380332
 20
35.230609663178
 30
0.0
 11
-162.450142380332
 21
36.730609663178
 31
0.0
  0
LINE
  8
DIK
 10
-162.450142380332
 20
35.230609663178
 30
0.0
 11
-162.450142380332
 21
33.730609663178
 31
0.0
  0
TEXT
  8
DUN
 10
-166.25
 20
48.25
 30
0.0
 40
2.5
  1
Aant.
  7
ROMANS
  0
LINE
  8
DIK
 10
-149.881549613079
 20
24.384441918051
 30
0.0
 11
-149.881549613079
 21
13.81954903515
 31
0.0
  0
TEXT
  8
DUN
 10
-143.75
 20
30.25
 30
0.0
 40
2.5
  1
Datum
  7
ROMANS
  0
TEXT
  8
DUN
 10
-153.75
 20
48.25
 30
0.0
 40
2.5
  1
Benaming
  7
ROMANS
  0
TEXT
  8
DUN
 10
-143.75
 20
42.25
 30
0.0
 40
2.5
  1
Schaal
  7
ROMANS
  0
LINE
  8
DUN
 10
-145.0
 20
47.0
 30
0.0
 11
-145.0
 21
29.0
 31
0.0
  0
LINE
  8
DIK
 10
-152.450142380332
 20
38.730609663178
 30
0.0
 11
-152.450142380332
 21
31.730609663178
 31
0.0
  0
LINE
  8
DUN
 10
-105.0
 20
57.0
 30
0.0
 11
-105.0
 21
5.0
 31
0.0
  0
LINE
  8
DUN
 10
-80.0
 20
57.0
 30
0.0
 11
-80.0
 21
47.0
 31
0.0
  0
TEXT
  8
DUN
 10
-103.75
 20
48.25
 30
0.0
 40
2.5
  1
Materiaal
  7
ROMANS
  0
TEXT
  8
DUN
 10
-103.75
 20
42.25
 30
0.0
 40
2.5
  1
Getekend
  7
ROMANS
  0
TEXT
  8
DUN
 10
-103.75
 20
36.25
 30
0.0
 40
2.5
  1
Semester
  7
ROMANS
  0
TEXT
  8
DUN
 10
-103.75
 20
11.25
 30
0.0
 40
2.5
  1
Opdracht
  7
ROMANS
  0
TEXT
  8
DUN
 10
-103.75
 20
25.25
 30
0.0
 40
2.5
  1
Benaming
  7
ROMANS
  0
TEXT
  8
DUN
 10
-103.75
 20
30.25
 30
0.0
 40
2.5
  1
Gezien
  7
ROMANS
  0
TEXT
  8
DUN
 10
-78.75
 20
48.25
 30
0.0
 40
2.5
  1
Afmetingen
  7
ROMANS
  0
LINE
  8
DUN
 10
-40.0
 20
57.0
 30
0.0
 11
-40.0
 21
47.0
 31
0.0
  0
TEXT
  8
DUN
 10
-43.75
 20
42.25
 30
0.0
 40
2.5
  1
Ruwheid NEN 3634
  7
ROMANS
  0
TEXT
  8
DUN
 10
-43.75
 20
36.25
 30
0.0
 40
2.5
  1
Maattol. NEN 406
  7
ROMANS
  0
TEXT
  8
DUN
 10
-43.75
 20
30.25
 30
0.0
 40
2.5
  1
Vorm/pl.tol NEN 1101
  7
ROMANS
  0
TEXT
  8
DUN
 10
-38.75
 20
48.25
 30
0.0
 40
2.5
  1
Opmerking
  7
ROMANS
  0
LINE
  8
DUN
 10
-55.0
 20
15.0
 30
0.0
 11
-55.0
 21
5.0
 31
0.0
  0
TEXT
  8
DUN
 10
-53.75
 20
11.25
 30
0.0
 40
2.5
  1
Tek.nr.
  7
ROMANS
  0
LINE
  8
DUN
 10
-45.0
 20
47.0
 30
0.0
 11
-45.0
 21
29.0
 31
0.0
  0
LINE
  8
DUN
 10
-12.5
 20
5.0
 30
0.0
 11
-12.5
 21
15.0
 31
0.0
  0
POINT
  8
DUN
 10
0.0
 20
5.0
 30
0.0
  0
POINT
  8
DIK
 10
0.0
 20
5.0
 30
0.0
  0
ENDBLK
  8
0
  0
BLOCK
  8
0
  2
REGEL
 70
     2
 10
0.0
 20
0.0
 30
0.0
  3
REGEL
  0
ATTDEF
  8
DUN
 10
-178.75
 20
1.25
 30
0.0
 40
2.5
  1

  3

  2
POS.NR.
 70
     0
  7
ROMANS
  0
ATTDEF
  8
DUN
 10
-166.25
 20
1.25
 30
0.0
 40
2.5
  1

  3

  2
AANTAL
 70
     0
  7
ROMANS
  0
ATTDEF
  8
DUN
 10
-153.75
 20
1.25
 30
0.0
 40
2.5
  1

  3

  2
BENAMING
 70
     0
  7
ROMANS
  0
ATTDEF
  8
DUN
 10
-103.75
 20
1.25
 30
0.0
 40
2.5
  1

  3

  2
MATERIAAL
 70
     0
  7
ROMANS
  0
ATTDEF
  8
DUN
 10
-78.75
 20
1.25
 30
0.0
 40
2.5
  1

  3

  2
AFMETINGEN
 70
     0
  7
ROMANS
  0
ATTDEF
  8
DUN
 10
-38.75
 20
1.25
 30
0.0
 40
2.5
  1

  3

  2
OPMERKINGEN
 70
     0
  7
ROMANS
  0
LINE
  8
DUN
 10
0.0
 20
5.0
 30
0.0
 11
-180.0
 21
5.0
 31
0.0
  0
LINE
  8
DUN
 10
-40.0
 20
5.0
 30
0.0
 11
-40.0
 21
0.0
 31
0.0
  0
LINE
  8
DUN
 10
-80.0
 20
5.0
 30
0.0
 11
-80.0
 21
0.0
 31
0.0
  0
LINE
  8
DUN
 10
-105.0
 20
5.0
 30
0.0
 11
-105.0
 21
0.0
 31
0.0
  0
LINE
  8
DUN
 10
-155.0
 20
5.0
 30
0.0
 11
-155.0
 21
0.0
 31
0.0
  0
LINE
  8
DUN
 10
-167.5
 20
5.0
 30
0.0
 11
-167.5
 21
0.0
 31
0.0
  0
LINE
  8
DIK
 10
-180.0
 20
5.0
 30
0.0
 11
-180.0
 21
0.0
 31
0.0
  0
ENDBLK
  8
0
  0
BLOCK
  8
0
  2
A0L
 70
     2
 10
0.0
 20
0.0
 30
0.0
  3
A0L
  0
LINE
  8
DUN
 10
0.0
 20
841.0
 30
0.0
 11
-1189.0
 21
841.0
 31
0.0
  0
LINE
  8
DUN
 10
-1189.0
 20
0.0
 30
0.0
 11
0.0
 21
0.0
 31
0.0
  0
POLYLINE
  8
DIK
 66
     1
 10
0.0
 20
0.0
 30
0.0
 70
     1
  0
VERTEX
  8
DIK
 10
-1169.0
 20
10.0
 30
0.0
  0
VERTEX
  8
DIK
 10
-10.0
 20
10.0
 30
0.0
  0
VERTEX
  8
DIK
 10
-10.0
 20
831.0
 30
0.0
  0
VERTEX
  8
DIK
 10
-1169.0
 20
831.0
 30
0.0
  0
SEQEND
  8
DIK
  0
LINE
  8
DUN
 10
-1189.0
 20
841.0
 30
0.0
 11
-1189.0
 21
0.0
 31
0.0
  0
LINE
  8
DUN
 10
-979.0
 20
0.0
 30
0.0
 11
-979.0
 21
10.0
 31
0.0
  0
LINE
  8
DUN
 10
-869.5
 20
0.0
 30
0.0
 11
-869.5
 21
10.0
 31
0.0
  0
LINE
  8
DUN
 10
-760.0
 20
0.0
 30
0.0
 11
-760.0
 21
10.0
 31
0.0
  0
LINE
  8
DUN
 10
-1189.0
 20
297.0
 30
0.0
 11
-1169.0
 21
297.0
 31
0.0
  0
LINE
  8
DUN
 10
-1189.0
 20
594.0
 30
0.0
 11
-1169.0
 21
594.0
 31
0.0
  0
LINE
  8
DUN
 10
-979.0
 20
831.0
 30
0.0
 11
-979.0
 21
841.0
 31
0.0
  0
LINE
  8
DUN
 10
-869.5
 20
831.0
 30
0.0
 11
-869.5
 21
841.0
 31
0.0
  0
LINE
  8
DUN
 10
-760.0
 20
831.0
 30
0.0
 11
-760.0
 21
841.0
 31
0.0
  0
LINE
  8
DUN
 10
0.0
 20
0.0
 30
0.0
 11
0.0
 21
841.0
 31
0.0
  0
LINE
  8
DUN
 10
-570.0
 20
0.0
 30
0.0
 11
-570.0
 21
10.0
 31
0.0
  0
LINE
  8
DUN
 10
-380.0
 20
0.0
 30
0.0
 11
-380.0
 21
10.0
 31
0.0
  0
INSERT
  8
HARTLIJN-DUBBEL
  2
TEKENH
 10
-10.0
 20
10.0
 30
0.0
  0
ATTDEF
  8
DUN
 10
-69.916666666667
 20
16.25
 30
0.0
 40
3.5
  1

  3

  2
TEKENINGNUMMER
 70
     0
  7
ROMANS
 72
     2
 11
-23.75
 21
16.25
 31
0.0
  0
LINE
  8
DUN
 10
-190.0
 20
0.0
 30
0.0
 11
-190.0
 21
10.0
 31
0.0
  0
ATTDEF
  8
DUN
 10
-140.416666666667
 20
46.25
 30
0.0
 40
2.5
  1
mm
  3

  2
MAATEENHEID
 70
     8
  7
ROMANS
 72
     2
 11
-116.25
 21
46.25
 31
0.0
  0
ATTDEF
  8
DUN
 10
-129.940476190476
 20
52.25
 30
0.0
 40
2.5
  1

  3

  2
SCHAAL
 70
     0
  7
ROMANS
 72
     2
 11
-116.25
 21
52.25
 31
0.0
  0
ATTDEF
  8
DUN
 10
-127.797619047619
 20
40.25
 30
0.0
 40
2.5
  1

  3

  2
DATUM
 70
     0
  7
ROMANS
 72
     2
 11
-116.25
 21
40.25
 31
0.0
  0
ATTDEF
  8
DUN
 10
-93.083333333333
 20
16.25
 30
0.0
 40
3.5
  1

  3

  2
OPDRACHT
 70
     0
  7
ROMANS
 72
     2
 11
-66.25
 21
16.25
 31
0.0
  0
ATTDEF
  8
DUN
 10
-74.702380952381
 20
52.25
 30
0.0
 40
2.5
  1

  3

  2
GETEKEND
 70
     0
  7
ROMANS
 72
     2
 11
-56.25
 21
52.25
 31
0.0
  0
ATTDEF
  8
DUN
 10
-74.702380952381
 20
46.25
 30
0.0
 40
2.5
  1

  3

  2
SEMESTER
 70
     0
  7
ROMANS
 72
     2
 11
-56.25
 21
46.25
 31
0.0
  0
ATTDEF
  8
DIK
 10
-48.690476190476
 20
27.5
 30
0.0
 40
5.0
  1

  3

  2
BENAMING
 70
     0
  7
ROMANS
 72
     2
 11
-12.5
 21
27.5
 31
0.0
  0
TEXT
  8
DUN
 10
-19.5
 20
18.5
 30
0.0
 40
3.0
  1
A0
 72
     2
 11
-15.0
 21
18.5
 31
0.0
  0
LINE
  8
DUN
 10
-570.0
 20
831.0
 30
0.0
 11
-570.0
 21
841.0
 31
0.0
  0
LINE
  8
DUN
 10
-380.0
 20
831.0
 30
0.0
 11
-380.0
 21
841.0
 31
0.0
  0
LINE
  8
DUN
 10
-10.0
 20
297.0
 30
0.0
 11
0.0
 21
297.0
 31
0.0
  0
LINE
  8
DUN
 10
-10.0
 20
594.0
 30
0.0
 11
0.0
 21
594.0
 31
0.0
  0
LINE
  8
DUN
 10
-190.0
 20
831.0
 30
0.0
 11
-190.0
 21
841.0
 31
0.0
  0
ENDBLK
  8
0
  0
BLOCK
  8
0
  2
A0S
 70
     2
 10
0.0
 20
0.0
 30
0.0
  3
A0S
  0
LINE
  8
DUN
 10
-841.0
 20
1188.0
 30
0.0
 11
-841.0
 21
0.0
 31
0.0
  0
LINE
  8
DUN
 10
0.0
 20
0.0
 30
0.0
 11
0.0
 21
1188.0
 31
0.0
  0
POLYLINE
  8
DIK
 66
     1
 10
0.0
 20
0.0
 30
0.0
 70
     1
  0
VERTEX
  8
DIK
 10
-821.0
 20
10.0
 30
0.0
  0
VERTEX
  8
DIK
 10
-10.0
 20
10.0
 30
0.0
  0
VERTEX
  8
DIK
 10
-10.0
 20
1178.0
 30
0.0
  0
VERTEX
  8
DIK
 10
-821.0
 20
1178.0
 30
0.0
  0
SEQEND
  8
DIK
  0
LINE
  8
DUN
 10
-841.0
 20
0.0
 30
0.0
 11
0.0
 21
0.0
 31
0.0
  0
LINE
  8
DUN
 10
-631.0
 20
0.0
 30
0.0
 11
-631.0
 21
10.0
 31
0.0
  0
LINE
  8
DUN
 10
-505.5
 20
0.0
 30
0.0
 11
-505.5
 21
10.0
 31
0.0
  0
LINE
  8
DUN
 10
-380.0
 20
0.0
 30
0.0
 11
-380.0
 21
10.0
 31
0.0
  0
INSERT
  8
DUN
  2
TEKENH
 10
-10.0
 20
10.0
 30
0.0
  0
ATTDEF
  8
DUN
 10
-69.916666666667
 20
16.25
 30
0.0
 40
3.5
  1

  3

  2
TEKENINGNUMMER
 70
     0
  7
ROMANS
 72
     2
 11
-23.75
 21
16.25
 31
0.0
  0
LINE
  8
DUN
 10
-190.0
 20
0.0
 30
0.0
 11
-190.0
 21
10.0
 31
0.0
  0
ATTDEF
  8
DUN
 10
-140.416666666667
 20
46.25
 30
0.0
 40
2.5
  1
mm
  3

  2
MAATEENHEID
 70
     8
  7
ROMANS
 72
     2
 11
-116.25
 21
46.25
 31
0.0
  0
ATTDEF
  8
DUN
 10
-129.940476190476
 20
52.25
 30
0.0
 40
2.5
  1

  3

  2
SCHAAL
 70
     0
  7
ROMANS
 72
     2
 11
-116.25
 21
52.25
 31
0.0
  0
ATTDEF
  8
DUN
 10
-127.797619047619
 20
40.25
 30
0.0
 40
2.5
  1

  3

  2
DATUM
 70
     0
  7
ROMANS
 72
     2
 11
-116.25
 21
40.25
 31
0.0
  0
ATTDEF
  8
DUN
 10
-93.083333333333
 20
16.25
 30
0.0
 40
3.5
  1

  3

  2
OPDRACHT
 70
     0
  7
ROMANS
 72
     2
 11
-66.25
 21
16.25
 31
0.0
  0
ATTDEF
  8
DUN
 10
-74.702380952381
 20
52.25
 30
0.0
 40
2.5
  1

  3

  2
GETEKEND
 70
     0
  7
ROMANS
 72
     2
 11
-56.25
 21
52.25
 31
0.0
  0
ATTDEF
  8
DUN
 10
-74.702380952381
 20
46.25
 30
0.0
 40
2.5
  1

  3

  2
SEMESTER
 70
     0
  7
ROMANS
 72
     2
 11
-56.25
 21
46.25
 31
0.0
  0
ATTDEF
  8
DIK
 10
-48.690476190476
 20
27.5
 30
0.0
 40
5.0
  1

  3

  2
BENAMING
 70
     0
  7
ROMANS
 72
     2
 11
-12.5
 21
27.5
 31
0.0
  0
TEXT
  8
DUN
 10
-19.5
 20
18.5
 30
0.0
 40
3.0
  1
A0
 72
     2
 11
-15.0
 21
18.5
 31
0.0
  0
LINE
  8
DUN
 10
0.0
 20
1188.0
 30
0.0
 11
-841.0
 21
1188.0
 31
0.0
  0
LINE
  8
DUN
 10
-841.0
 20
297.0
 30
0.0
 11
-821.0
 21
297.0
 31
0.0
  0
LINE
  8
DUN
 10
-841.0
 20
594.0
 30
0.0
 11
-821.0
 21
594.0
 31
0.0
  0
LINE
  8
DUN
 10
-841.0
 20
891.0
 30
0.0
 11
-821.0
 21
891.0
 31
0.0
  0
LINE
  8
DUN
 10
-10.0
 20
297.0
 30
0.0
 11
0.0
 21
297.0
 31
0.0
  0
LINE
  8
DUN
 10
-10.0
 20
594.0
 30
0.0
 11
0.0
 21
594.0
 31
0.0
  0
LINE
  8
DUN
 10
-631.0
 20
1178.0
 30
0.0
 11
-631.0
 21
1188.0
 31
0.0
  0
LINE
  8
DUN
 10
-505.5
 20
1178.0
 30
0.0
 11
-505.5
 21
1188.0
 31
0.0
  0
LINE
  8
DUN
 10
-380.0
 20
1178.0
 30
0.0
 11
-380.0
 21
1188.0
 31
0.0
  0
LINE
  8
DUN
 10
-10.0
 20
891.0
 30
0.0
 11
0.0
 21
891.0
 31
0.0
  0
LINE
  8
DUN
 10
-190.0
 20
1178.0
 30
0.0
 11
-190.0
 21
1188.0
 31
0.0
  0
ENDBLK
  8
0
  0
BLOCK
  8
0
  2
A1S
 70
     2
 10
0.0
 20
0.0
 30
0.0
  3
A1S
  0
LINE
  8
DIK
 10
-10.0
 20
830.0
 30
0.0
 11
-574.0
 21
830.0
 31
0.0
  0
LINE
  8
DIK
 10
-574.0
 20
10.0
 30
0.0
 11
-10.0
 21
10.0
 31
0.0
  0
LINE
  8
DUN
 10
0.0
 20
840.0
 30
0.0
 11
-594.0
 21
840.0
 31
0.0
  0
LINE
  8
DUN
 10
-594.0
 20
0.0
 30
0.0
 11
0.0
 21
0.0
 31
0.0
  0
LINE
  8
DIK
 10
-574.0
 20
830.0
 30
0.0
 11
-574.0
 21
10.0
 31
0.0
  0
LINE
  8
DUN
 10
-594.0
 20
840.0
 30
0.0
 11
-594.0
 21
0.0
 31
0.0
  0
LINE
  8
DUN
 10
-594.0
 20
297.0
 30
0.0
 11
-574.0
 21
297.0
 31
0.0
  0
LINE
  8
DUN
 10
-594.0
 20
594.0
 30
0.0
 11
-574.0
 21
594.0
 31
0.0
  0
LINE
  8
DIK
 10
-10.0
 20
10.0
 30
0.0
 11
-10.0
 21
830.0
 31
0.0
  0
LINE
  8
DUN
 10
0.0
 20
0.0
 30
0.0
 11
0.0
 21
840.0
 31
0.0
  0
INSERT
  8
DUN
  2
TEKENH
 10
-10.0
 20
10.0
 30
0.0
  0
ATTDEF
  8
DUN
 10
-74.702380952381
 20
52.25
 30
0.0
 40
2.5
  1

  3

  2
GETEKEND
 70
     0
  7
ROMANS
 72
     2
 11
-56.25
 21
52.25
 31
0.0
  0
ATTDEF
  8
DUN
 10
-74.702380952381
 20
46.25
 30
0.0
 40
2.5
  1

  3

  2
SEMESTER
 70
     0
  7
ROMANS
 72
     2
 11
-56.25
 21
46.25
 31
0.0
  0
ATTDEF
  8
DUN
 10
-69.916666666667
 20
16.25
 30
0.0
 40
3.5
  1

  3

  2
TEKENINGNUMMER
 70
     0
  7
ROMANS
 72
     2
 11
-23.75
 21
16.25
 31
0.0
  0
LINE
  8
DUN
 10
-478.0
 20
0.0
 30
0.0
 11
-478.0
 21
10.0
 31
0.0
  0
LINE
  8
DUN
 10
-382.0
 20
0.0
 30
0.0
 11
-382.0
 21
10.0
 31
0.0
  0
LINE
  8
DUN
 10
-286.0
 20
0.0
 30
0.0
 11
-286.0
 21
10.0
 31
0.0
  0
LINE
  8
DUN
 10
-190.0
 20
0.0
 30
0.0
 11
-190.0
 21
10.0
 31
0.0
  0
ATTDEF
  8
DUN
 10
-129.940476190476
 20
52.25
 30
0.0
 40
2.5
  1

  3

  2
SCHAAL
 70
     0
  7
ROMANS
 72
     2
 11
-116.25
 21
52.25
 31
0.0
  0
ATTDEF
  8
DUN
 10
-140.416666666667
 20
46.25
 30
0.0
 40
2.5
  1
mm
  3

  2
MAATEENHEID
 70
     8
  7
ROMANS
 72
     2
 11
-116.25
 21
46.25
 31
0.0
  0
ATTDEF
  8
DUN
 10
-127.797619047619
 20
40.25
 30
0.0
 40
2.5
  1

  3

  2
DATUM
 70
     0
  7
ROMANS
 72
     2
 11
-116.25
 21
40.25
 31
0.0
  0
ATTDEF
  8
DUN
 10
-93.083333333333
 20
16.25
 30
0.0
 40
3.5
  1

  3

  2
OPDRACHT
 70
     0
  7
ROMANS
 72
     2
 11
-66.25
 21
16.25
 31
0.0
  0
TEXT
  8
DUN
 10
-19.0
 20
18.5
 30
0.0
 40
3.0
  1
A1
 72
     2
 11
-15.0
 21
18.5
 31
0.0
  0
ATTDEF
  8
DIK
 10
-48.690476190476
 20
27.5
 30
0.0
 40
5.0
  1

  3

  2
BENAMING
 70
     0
  7
ROMANS
 72
     2
 11
-12.5
 21
27.5
 31
0.0
  0
LINE
  8
DUN
 10
-478.0
 20
830.0
 30
0.0
 11
-478.0
 21
840.0
 31
0.0
  0
LINE
  8
DUN
 10
-382.0
 20
830.0
 30
0.0
 11
-382.0
 21
840.0
 31
0.0
  0
LINE
  8
DUN
 10
-286.0
 20
830.0
 30
0.0
 11
-286.0
 21
840.0
 31
0.0
  0
LINE
  8
DUN
 10
-190.0
 20
830.0
 30
0.0
 11
-190.0
 21
840.0
 31
0.0
  0
LINE
  8
DUN
 10
-10.0
 20
297.0
 30
0.0
 11
0.0
 21
297.0
 31
0.0
  0
LINE
  8
DUN
 10
-10.0
 20
594.0
 30
0.0
 11
0.0
 21
594.0
 31
0.0
  0
ENDBLK
  8
0
  0
BLOCK
  8
0
  2
A1L
 70
     2
 10
0.0
 20
0.0
 30
0.0
  3
A1L
  0
LINE
  8
DUN
 10
0.0
 20
594.0
 30
0.0
 11
-841.0
 21
594.0
 31
0.0
  0
LINE
  8
DUN
 10
-841.0
 20
0.0
 30
0.0
 11
0.0
 21
0.0
 31
0.0
  0
POLYLINE
  8
DIK
 66
     1
 10
0.0
 20
0.0
 30
0.0
 70
     1
  0
VERTEX
  8
DIK
 10
-821.0
 20
10.0
 30
0.0
  0
VERTEX
  8
DIK
 10
-10.0
 20
10.0
 30
0.0
  0
VERTEX
  8
DIK
 10
-10.0
 20
584.0
 30
0.0
  0
VERTEX
  8
DIK
 10
-821.0
 20
584.0
 30
0.0
  0
SEQEND
  8
DIK
  0
LINE
  8
DUN
 10
-841.0
 20
594.0
 30
0.0
 11
-841.0
 21
0.0
 31
0.0
  0
LINE
  8
DUN
 10
-631.0
 20
0.0
 30
0.0
 11
-631.0
 21
10.0
 31
0.0
  0
LINE
  8
DUN
 10
-505.5
 20
0.0
 30
0.0
 11
-505.5
 21
10.0
 31
0.0
  0
LINE
  8
DUN
 10
-505.5
 20
584.0
 30
0.0
 11
-505.5
 21
594.0
 31
0.0
  0
LINE
  8
DUN
 10
-631.0
 20
584.0
 30
0.0
 11
-631.0
 21
594.0
 31
0.0
  0
LINE
  8
DUN
 10
-841.0
 20
297.0
 30
0.0
 11
-821.0
 21
297.0
 31
0.0
  0
LINE
  8
DUN
 10
0.0
 20
0.0
 30
0.0
 11
0.0
 21
594.0
 31
0.0
  0
INSERT
  8
HARTLIJN-DUBBEL
  2
TEKENH
 10
-10.0
 20
10.0
 30
0.0
  0
ATTDEF
  8
DUN
 10
-93.083333333334
 20
16.25
 30
0.0
 40
3.5
  1

  3

  2
OPDRACHT
 70
     0
  7
ROMANS
 72
     2
 11
-66.25
 21
16.25
 31
0.0
  0
LINE
  8
DUN
 10
-380.0
 20
0.0
 30
0.0
 11
-380.0
 21
10.0
 31
0.0
  0
LINE
  8
DUN
 10
-190.0
 20
0.0
 30
0.0
 11
-190.0
 21
10.0
 31
0.0
  0
ATTDEF
  8
DUN
 10
-140.416666666667
 20
46.25
 30
0.0
 40
2.5
  1
mm
  3

  2
MAATEENHEID
 70
     8
  7
ROMANS
 72
     2
 11
-116.25
 21
46.25
 31
0.0
  0
ATTDEF
  8
DUN
 10
-129.940476190476
 20
52.25
 30
0.0
 40
2.5
  1

  3

  2
SCHAAL
 70
     0
  7
ROMANS
 72
     2
 11
-116.25
 21
52.25
 31
0.0
  0
ATTDEF
  8
DUN
 10
-127.797619047619
 20
40.25
 30
0.0
 40
2.5
  1

  3

  2
DATUM
 70
     0
  7
ROMANS
 72
     2
 11
-116.25
 21
40.25
 31
0.0
  0
ATTDEF
  8
DUN
 10
-69.916666666667
 20
16.25
 30
0.0
 40
3.5
  1

  3

  2
TEKENINGNUMMER
 70
     0
  7
ROMANS
 72
     2
 11
-23.75
 21
16.25
 31
0.0
  0
ATTDEF
  8
DIK
 10
-48.690476190476
 20
27.5
 30
0.0
 40
5.0
  1

  3

  2
BENAMING
 70
     0
  7
ROMANS
 72
     2
 11
-12.5
 21
27.5
 31
0.0
  0
ATTDEF
  8
DUN
 10
-74.702380952381
 20
52.25
 30
0.0
 40
2.5
  1

  3

  2
GETEKEND
 70
     0
  7
ROMANS
 72
     2
 11
-56.25
 21
52.25
 31
0.0
  0
ATTDEF
  8
DUN
 10
-74.702380952381
 20
46.25
 30
0.0
 40
2.5
  1

  3

  2
SEMESTER
 70
     0
  7
ROMANS
 72
     2
 11
-56.25
 21
46.25
 31
0.0
  0
TEXT
  8
DUN
 10
-19.0
 20
18.5
 30
0.0
 40
3.0
  1
A1
 72
     2
 11
-15.0
 21
18.5
 31
0.0
  0
LINE
  8
DUN
 10
-190.0
 20
584.0
 30
0.0
 11
-190.0
 21
594.0
 31
0.0
  0
LINE
  8
DUN
 10
-380.0
 20
584.0
 30
0.0
 11
-380.0
 21
594.0
 31
0.0
  0
LINE
  8
DUN
 10
-10.0
 20
297.0
 30
0.0
 11
0.0
 21
297.0
 31
0.0
  0
ENDBLK
  8
0
  0
BLOCK
  8
0
  2
A2L
 70
     2
 10
0.0
 20
0.0
 30
0.0
  3
A2L
  0
LINE
  8
DUN
 10
0.0
 20
420.0
 30
0.0
 11
-594.0
 21
420.0
 31
0.0
  0
LINE
  8
DUN
 10
-594.0
 20
0.0
 30
0.0
 11
0.0
 21
0.0
 31
0.0
  0
POLYLINE
  8
DIK
 66
     1
 10
0.0
 20
0.0
 30
0.0
 70
     1
  0
VERTEX
  8
DIK
 10
-574.0
 20
10.0
 30
0.0
  0
VERTEX
  8
DIK
 10
-10.0
 20
10.0
 30
0.0
  0
VERTEX
  8
DIK
 10
-10.0
 20
410.0
 30
0.0
  0
VERTEX
  8
DIK
 10
-574.0
 20
410.0
 30
0.0
  0
SEQEND
  8
DIK
  0
LINE
  8
DUN
 10
-594.0
 20
420.0
 30
0.0
 11
-594.0
 21
0.0
 31
0.0
  0
LINE
  8
DUN
 10
-594.0
 20
297.0
 30
0.0
 11
-574.0
 21
297.0
 31
0.0
  0
LINE
  8
DUN
 10
0.0
 20
0.0
 30
0.0
 11
0.0
 21
420.0
 31
0.0
  0
INSERT
  8
DIK
  2
TEKENH
 10
-10.0
 20
10.0
 30
0.0
  0
ATTDEF
  8
DUN
 10
-74.702380952381
 20
52.25
 30
0.0
 40
2.5
  1

  3

  2
GETEKEND
 70
     0
  7
ROMANS
 72
     2
 11
-56.25
 21
52.25
 31
0.0
  0
ATTDEF
  8
DUN
 10
-74.702380952381
 20
46.25
 30
0.0
 40
2.5
  1

  3

  2
SEMESTER
 70
     0
  7
ROMANS
 72
     2
 11
-56.25
 21
46.25
 31
0.0
  0
ATTDEF
  8
DUN
 10
-69.916666666667
 20
16.25
 30
0.0
 40
3.5
  1

  3

  2
TEKENINGNUMMER
 70
     0
  7
ROMANS
 72
     2
 11
-23.75
 21
16.25
 31
0.0
  0
LINE
  8
DUN
 10
-478.0
 20
0.0
 30
0.0
 11
-478.0
 21
10.0
 31
0.0
  0
LINE
  8
DUN
 10
-382.0
 20
0.0
 30
0.0
 11
-382.0
 21
10.0
 31
0.0
  0
LINE
  8
DUN
 10
-286.0
 20
0.0
 30
0.0
 11
-286.0
 21
10.0
 31
0.0
  0
LINE
  8
DUN
 10
-190.0
 20
0.0
 30
0.0
 11
-190.0
 21
10.0
 31
0.0
  0
ATTDEF
  8
DUN
 10
-140.416666666667
 20
46.25
 30
0.0
 40
2.5
  1
mm
  3

  2
MAATEENHEID
 70
     8
  7
ROMANS
 72
     2
 11
-116.25
 21
46.25
 31
0.0
  0
ATTDEF
  8
DUN
 10
-129.940476190476
 20
52.25
 30
0.0
 40
2.5
  1

  3

  2
SCHAAL
 70
     0
  7
ROMANS
 72
     2
 11
-116.25
 21
52.25
 31
0.0
  0
ATTDEF
  8
DUN
 10
-127.797619047619
 20
40.25
 30
0.0
 40
2.5
  1

  3

  2
DATUM
 70
     0
  7
ROMANS
 72
     2
 11
-116.25
 21
40.25
 31
0.0
  0
ATTDEF
  8
DUN
 10
-93.083333333333
 20
16.25
 30
0.0
 40
3.5
  1

  3

  2
OPDRACHT
 70
     0
  7
ROMANS
 72
     2
 11
-66.25
 21
16.25
 31
0.0
  0
ATTDEF
  8
DIK
 10
-48.690476190476
 20
27.5
 30
0.0
 40
5.0
  1

  3

  2
BENAMING
 70
     0
  7
ROMANS
 72
     2
 11
-12.5
 21
27.5
 31
0.0
  0
TEXT
  8
DUN
 10
-20.0
 20
18.5
 30
0.0
 40
3.0
  1
A2
 72
     2
 11
-15.0
 21
18.5
 31
0.0
  0
LINE
  8
DUN
 10
-478.0
 20
410.0
 30
0.0
 11
-478.0
 21
420.0
 31
0.0
  0
LINE
  8
DUN
 10
-382.0
 20
410.0
 30
0.0
 11
-382.0
 21
420.0
 31
0.0
  0
LINE
  8
DUN
 10
-286.0
 20
410.0
 30
0.0
 11
-286.0
 21
420.0
 31
0.0
  0
LINE
  8
DUN
 10
-190.0
 20
410.0
 30
0.0
 11
-190.0
 21
420.0
 31
0.0
  0
LINE
  8
DUN
 10
-10.0
 20
297.0
 30
0.0
 11
0.0
 21
297.0
 31
0.0
  0
ENDBLK
  8
0
  0
BLOCK
  8
0
  2
A2S
 70
     2
 10
0.0
 20
0.0
 30
0.0
  3
A2S
  0
LINE
  8
DIK
 10
-400.0
 20
584.0
 30
0.0
 11
-400.0
 21
10.0
 31
0.0
  0
LINE
  8
DIK
 10
-10.0
 20
10.0
 30
0.0
 11
-10.0
 21
584.0
 31
0.0
  0
LINE
  8
DUN
 10
-420.0
 20
594.0
 30
0.0
 11
-420.0
 21
0.0
 31
0.0
  0
LINE
  8
DUN
 10
0.0
 20
0.0
 30
0.0
 11
0.0
 21
594.0
 31
0.0
  0
LINE
  8
DIK
 10
-400.0
 20
10.0
 30
0.0
 11
-10.0
 21
10.0
 31
0.0
  0
LINE
  8
DUN
 10
-420.0
 20
0.0
 30
0.0
 11
0.0
 21
0.0
 31
0.0
  0
INSERT
  8
DIK
  2
TEKENH
 10
-10.0
 20
10.0
 30
0.0
  0
ATTDEF
  8
DUN
 10
-93.083333333334
 20
16.25
 30
0.0
 40
3.5
  1

  3

  2
OPDRACHT
 70
     0
  7
ROMANS
 72
     2
 11
-66.25
 21
16.25
 31
0.0
  0
LINE
  8
DUN
 10
-295.0
 20
0.0
 30
0.0
 11
-295.0
 21
10.0
 31
0.0
  0
LINE
  8
DUN
 10
-420.0
 20
297.0
 30
0.0
 11
-400.0
 21
297.0
 31
0.0
  0
LINE
  8
DUN
 10
-190.0
 20
0.0
 30
0.0
 11
-190.0
 21
10.0
 31
0.0
  0
ATTDEF
  8
DUN
 10
-140.416666666667
 20
46.25
 30
0.0
 40
2.5
  1
mm
  3

  2
MAATEENHEID
 70
     8
  7
ROMANS
 72
     2
 11
-116.25
 21
46.25
 31
0.0
  0
ATTDEF
  8
DUN
 10
-127.797619047619
 20
40.25
 30
0.0
 40
2.5
  1

  3

  2
DATUM
 70
     0
  7
ROMANS
 72
     2
 11
-116.25
 21
40.25
 31
0.0
  0
ATTDEF
  8
DUN
 10
-129.940476190476
 20
52.25
 30
0.0
 40
2.5
  1

  3

  2
SCHAAL
 70
     0
  7
ROMANS
 72
     2
 11
-116.25
 21
52.25
 31
0.0
  0
ATTDEF
  8
DUN
 10
-69.916666666667
 20
16.25
 30
0.0
 40
3.5
  1

  3

  2
TEKENINGNUMMER
 70
     0
  7
ROMANS
 72
     2
 11
-23.75
 21
16.25
 31
0.0
  0
ATTDEF
  8
DIK
 10
-48.690476190476
 20
27.5
 30
0.0
 40
5.0
  1

  3

  2
BENAMING
 70
     0
  7
ROMANS
 72
     2
 11
-12.5
 21
27.5
 31
0.0
  0
ATTDEF
  8
DUN
 10
-74.702380952381
 20
46.25
 30
0.0
 40
2.5
  1

  3

  2
SEMESTER
 70
     0
  7
ROMANS
 72
     2
 11
-56.25
 21
46.25
 31
0.0
  0
TEXT
  8
DUN
 10
-20.0
 20
28.5
 30
0.0
 40
3.0
  1
A2
 72
     2
 11
-15.0
 21
28.5
 31
0.0
  0
ATTDEF
  8
DUN
 10
-74.702380952381
 20
52.25
 30
0.0
 40
2.5
  1

  3

  2
GETEKEND
 70
     0
  7
ROMANS
 72
     2
 11
-56.25
 21
52.25
 31
0.0
  0
LINE
  8
DUN
 10
-10.0
 20
297.0
 30
0.0
 11
0.0
 21
297.0
 31
0.0
  0
LINE
  8
DIK
 10
-10.0
 20
584.0
 30
0.0
 11
-400.0
 21
584.0
 31
0.0
  0
LINE
  8
DUN
 10
0.0
 20
594.0
 30
0.0
 11
-420.0
 21
594.0
 31
0.0
  0
LINE
  8
DUN
 10
-295.0
 20
584.0
 30
0.0
 11
-295.0
 21
594.0
 31
0.0
  0
LINE
  8
DUN
 10
-190.0
 20
584.0
 30
0.0
 11
-190.0
 21
594.0
 31
0.0
  0
ENDBLK
  8
0
  0
BLOCK
  8
0
  2
A3S
 70
     2
 10
0.0
 20
0.0
 30
0.0
  3
A3S
  0
LINE
  8
DIK
 10
-277.0
 20
410.0
 30
0.0
 11
-277.0
 21
10.0
 31
0.0
  0
LINE
  8
DIK
 10
-10.0
 20
10.0
 30
0.0
 11
-10.0
 21
410.0
 31
0.0
  0
LINE
  8
DUN
 10
-297.0
 20
420.0
 30
0.0
 11
-297.0
 21
0.0
 31
0.0
  0
LINE
  8
DUN
 10
0.0
 20
0.0
 30
0.0
 11
0.0
 21
420.0
 31
0.0
  0
LINE
  8
DIK
 10
-277.0
 20
10.0
 30
0.0
 11
-10.0
 21
10.0
 31
0.0
  0
LINE
  8
DUN
 10
-297.0
 20
0.0
 30
0.0
 11
0.0
 21
0.0
 31
0.0
  0
LINE
  8
DUN
 10
-233.5
 20
0.0
 30
0.0
 11
-233.5
 21
10.0
 31
0.0
  0
LINE
  8
DUN
 10
-297.0
 20
297.0
 30
0.0
 11
-277.0
 21
297.0
 31
0.0
  0
INSERT
  8
0
  2
TEKENH
 10
-10.0
 20
10.0
 30
0.0
  0
ATTDEF
  8
DUN
 10
-129.940476190476
 20
52.25
 30
0.0
 40
2.5
  1

  3

  2
SCHAAL
 70
     0
  7
ROMANS
 72
     2
 11
-116.25
 21
52.25
 31
0.0
  0
LINE
  8
DUN
 10
-190.0
 20
0.0
 30
0.0
 11
-190.0
 21
10.0
 31
0.0
  0
ATTDEF
  8
DUN
 10
-140.416666666667
 20
46.25
 30
0.0
 40
2.5
  1
mm
  3

  2
MAATEENHEID
 70
     8
  7
ROMANS
 72
     2
 11
-116.25
 21
46.25
 31
0.0
  0
ATTDEF
  8
DUN
 10
-127.797619047619
 20
40.25
 30
0.0
 40
2.5
  1

  3

  2
DATUM
 70
     0
  7
ROMANS
 72
     2
 11
-116.25
 21
40.25
 31
0.0
  0
ATTDEF
  8
DUN
 10
-74.702380952381
 20
52.25
 30
0.0
 40
2.5
  1

  3

  2
GETEKEND
 70
     0
  7
ROMANS
 72
     2
 11
-56.25
 21
52.25
 31
0.0
  0
ATTDEF
  8
DUN
 10
-69.916666666667
 20
16.25
 30
0.0
 40
3.5
  1

  3

  2
TEKENINGNUMMER
 70
     0
  7
ROMANS
 72
     2
 11
-23.75
 21
16.25
 31
0.0
  0
ATTDEF
  8
DUN
 10
-93.083333333333
 20
16.25
 30
0.0
 40
3.5
  1

  3

  2
OPDRACHT
 70
     0
  7
ROMANS
 72
     2
 11
-66.25
 21
16.25
 31
0.0
  0
ATTDEF
  8
DUN
 10
-74.702380952381
 20
46.25
 30
0.0
 40
2.5
  1

  3

  2
SEMESTER
 70
     0
  7
ROMANS
 72
     2
 11
-56.25
 21
46.25
 31
0.0
  0
ATTDEF
  8
DIK
 10
-48.690476190476
 20
27.5
 30
0.0
 40
5.0
  1

  3

  2
BENAMING
 70
     0
  7
ROMANS
 72
     2
 11
-12.5
 21
27.5
 31
0.0
  0
TEXT
  8
DUN
 10
-20.0
 20
18.5
 30
0.0
 40
3.0
  1
A3
 72
     2
 11
-15.0
 21
18.5
 31
0.0
  0
LINE
  8
DUN
 10
-10.0
 20
297.0
 30
0.0
 11
0.0
 21
297.0
 31
0.0
  0
LINE
  8
DIK
 10
-10.0
 20
410.0
 30
0.0
 11
-277.0
 21
410.0
 31
0.0
  0
LINE
  8
DUN
 10
0.0
 20
420.0
 30
0.0
 11
-297.0
 21
420.0
 31
0.0
  0
LINE
  8
DUN
 10
-233.5
 20
410.0
 30
0.0
 11
-233.5
 21
420.0
 31
0.0
  0
LINE
  8
DUN
 10
-190.0
 20
410.0
 30
0.0
 11
-190.0
 21
420.0
 31
0.0
  0
ENDBLK
  8
0
  0
BLOCK
  8
0
  2
A3L
 70
     2
 10
0.0
 20
0.0
 30
0.0
  3
A3L
  0
LINE
  8
DUN
 10
-420.0
 20
297.0
 30
0.0
 11
0.0
 21
297.0
 31
0.0
  0
LINE
  8
DUN
 10
0.0
 20
0.0
 30
0.0
 11
-420.0
 21
0.0
 31
0.0
  0
LINE
  8
DIK
 10
-400.0
 20
287.0
 30
0.0
 11
-10.0
 21
287.0
 31
0.0
  0
LINE
  8
DIK
 10
-10.0
 20
10.0
 30
0.0
 11
-400.0
 21
10.0
 31
0.0
  0
LINE
  8
DUN
 10
-420.0
 20
0.0
 30
0.0
 11
-420.0
 21
297.0
 31
0.0
  0
LINE
  8
DIK
 10
-400.0
 20
10.0
 30
0.0
 11
-400.0
 21
287.0
 31
0.0
  0
INSERT
  8
0
  2
TEKENH
 10
-10.0
 20
10.0
 30
0.0
  0
LINE
  8
DUN
 10
-295.0
 20
10.0
 30
0.0
 11
-295.0
 21
0.0
 31
0.0
  0
LINE
  8
DUN
 10
-190.0
 20
10.0
 30
0.0
 11
-190.0
 21
0.0
 31
0.0
  0
ATTDEF
  8
DUN
 10
-127.797619047619
 20
40.25
 30
0.0
 40
2.5
  1

  3

  2
DATUM
 70
     0
  7
ROMANS
 72
     2
 11
-116.25
 21
40.25
 31
0.0
  0
ATTDEF
  8
DUN
 10
-129.940476190476
 20
52.25
 30
0.0
 40
2.5
  1

  3

  2
SCHAAL
 70
     0
  7
ROMANS
 72
     2
 11
-116.25
 21
52.25
 31
0.0
  0
ATTDEF
  8
DUN
 10
-140.416666666667
 20
46.25
 30
0.0
 40
2.5
  1
mm
  3

  2
MAATEENHEID
 70
     8
  7
ROMANS
 72
     2
 11
-116.25
 21
46.25
 31
0.0
  0
LINE
  8
DUN
 10
-295.0
 20
297.0
 30
0.0
 11
-295.0
 21
287.0
 31
0.0
  0
LINE
  8
DUN
 10
-190.0
 20
297.0
 30
0.0
 11
-190.0
 21
287.0
 31
0.0
  0
LINE
  8
DUN
 10
0.0
 20
297.0
 30
0.0
 11
0.0
 21
0.0
 31
0.0
  0
LINE
  8
DIK
 10
-10.0
 20
287.0
 30
0.0
 11
-10.0
 21
10.0
 31
0.0
  0
ATTDEF
  8
DUN
 10
-69.916666666667
 20
16.25
 30
0.0
 40
3.5
  1

  3

  2
TEKENINGNUMMER
 70
     0
  7
ROMANS
 72
     2
 11
-23.75
 21
16.25
 31
0.0
  0
ATTDEF
  8
DUN
 10
-93.083333333333
 20
16.25
 30
0.0
 40
3.5
  1

  3

  2
OPDRACHT
 70
     0
  7
ROMANS
 72
     2
 11
-66.25
 21
16.25
 31
0.0
  0
ATTDEF
  8
DIK
 10
-48.690476190476
 20
27.5
 30
0.0
 40
5.0
  1

  3

  2
BENAMING
 70
     0
  7
ROMANS
 72
     2
 11
-12.5
 21
27.5
 31
0.0
  0
TEXT
  8
DUN
 10
-20.0
 20
18.5
 30
0.0
 40
3.0
  1
A3
 72
     2
 11
-15.0
 21
18.5
 31
0.0
  0
ATTDEF
  8
DUN
 10
-74.702380952381
 20
52.25
 30
0.0
 40
2.5
  1

  3

  2
GETEKEND
 70
     0
  7
ROMANS
 72
     2
 11
-56.25
 21
52.25
 31
0.0
  0
ATTDEF
  8
DUN
 10
-74.702380952381
 20
46.25
 30
0.0
 40
2.5
  1

  3

  2
SEMESTER
 70
     0
  7
ROMANS
 72
     2
 11
-56.25
 21
46.25
 31
0.0
  0
ENDBLK
  8
0
  0
BLOCK
  8
0
  2
PIJLP
 70
     0
 10
0.0
 20
0.0
 30
0.0
  3
PIJLP
  0
LINE
  8
0
  6
BYBLOCK
 62
     0
 10
0.0
 20
0.0
 30
0.0
 11
-1.0
 21
0.1666665
 31
0.0
  0
LINE
  8
0
  6
BYBLOCK
 62
     0
 10
0.0
 20
0.0
 30
0.0
 11
-1.0
 21
-0.1666665
 31
0.0
  0
LINE
  8
0
  6
BYBLOCK
 62
     0
 10
-1.0
 20
0.1666665
 30
0.0
 11
-1.0
 21
-0.1666665
 31
0.0
  0
ENDBLK
  8
0
  0
BLOCK
  8
0
  2
ACAD1306
 70
     0
 10
0.0
 20
0.0
 30
0.0
  3
ACAD1306
  0
INSERT
  8
DUN
 66
     1
  2
A4S
 10
7457.848178303282
 20
6816.897785734175
 30
0.0
 41
25.0
 42
25.0
 43
25.0
  0
ATTRIB
  8
DUN
 10
11154.48996100214
 20
7377.74799558328
 30
0.0
 40
62.5
  1
1:25
  2
SCHAAL
 70
     0
  7
ROMANS
  0
ATTRIB
  8
DUN
 10
11098.75761846189
 20
7034.400627185726
 30
0.0
 40
62.5
  1
april 1997
  2
DATUM
 70
     0
  7
ROMANS
  0
ATTRIB
  8
DUN
 10
11368.98417968597
 20
6861.507596353924
 30
0.0
 40
62.5
  1
S. van Leeuwen
  2
GETEKEND
 70
     0
  7
ROMANS
  0
ATTRIB
  8
DUN
 10
11411.51068645641
 20
7209.321572272068
 30
0.0
 40
62.5
  1
mm
  2
MAATEENHEID
 70
     0
  7
ROMANS
  0
ATTRIB
  8
DUN
 10
8032.598600701128
 20
7390.299809756555
 30
0.0
 40
62.5
  1
Plaatsing ROOS 
  2
BENAMING
 70
     0
  7
ROMANS
  0
ATTRIB
  8
DUN
 10
9400.140563283381
 20
6910.344474767492
 30
0.0
 40
62.5
  1
AK 714
  2
TEK.NR.
 70
     0
  7
ROMANS
  0
SEQEND
  8
DUN
  0
TEXT
  8
DIK
 10
8195.958343086131
 20
7890.141580783528
 30
0.0
 40
50.0
  1
Dubbele BETONFUNDERING
  7
ROMANS
  0
TEXT
  8
DIK
 10
8188.538938690973
 20
7813.77459110361
 30
0.0
 40
50.0
  1
Kuil: 300x600 mm
  7
ROMANS
  0
TEXT
  8
DIK
 10
8188.538938690973
 20
7732.822210151229
 30
0.0
 40
50.0
  1
Diepte: 500 mm
  7
ROMANS
  0
LINE
  8
DIK
 10
9178.384225652456
 20
9815.159022176267
 30
0.0
 11
7997.594811847393
 21
9815.159022176267
 31
0.0
  0
TEXT
  8
DIK
 10
8027.115647627375
 20
9846.294230061396
 30
0.0
 40
60.0
  1
Kijkrichting
  7
ROMANS
 11
8027.115647627375
 21
9876.294230061397
 31
0.0
 73
     2
  0
TEXT
  8
DIK
 10
7930.73692130013
 20
9293.788181623819
 30
0.0
 40
50.0
  1
BETONFUNDERING
  7
ROMANS
  0
TEXT
  8
DIK
 10
7923.317516904972
 20
9136.468810991519
 30
0.0
 40
50.0
  1
Diepte: 500 mm
  7
ROMANS
  0
TEXT
  8
DIK
 10
7923.317516904972
 20
9217.4211919439
 30
0.0
 40
50.0
  1
Kuil: 300x600 mm
  7
ROMANS
  0
SOLID
  8
DIK
 10
9130.770616435905
 20
9820.086749340978
 30
0.0
 11
9130.770616435905
 21
9796.753416007646
 31
0.0
 12
9200.770616435905
 22
9808.420082674313
 32
0.0
 13
9200.770616435905
 23
9808.420082674313
 33
0.0
  0
INSERT
  8
DIK
  2
ACAD162F
 10
-526335.8633804267
 20
-349753.4138942679
 30
0.0
 41
15.0
 42
15.0
 43
15.0
  0
INSERT
  8
DUN
 66
     1
  2
A4S
 10
14423.61064056095
 20
5065.407958029315
 30
0.0
 41
50.0
 42
50.0
 43
50.0
  0
ATTRIB
  8
DUN
 10
21816.89420595867
 20
6187.108377727525
 30
0.0
 40
125.0
  1
1:50
  2
SCHAAL
 70
     0
  7
ROMANS
  0
ATTRIB
  8
DUN
 10
21705.42952087817
 20
5500.413640932418
 30
0.0
 40
125.0
  1
april 1997
  2
DATUM
 70
     0
  7
ROMANS
  0
ATTRIB
  8
DUN
 10
22245.88264332633
 20
5154.627579268815
 30
0.0
 40
125.0
  1
S. van Leeuwen
  2
GETEKEND
 70
     0
  7
ROMANS
  0
ATTRIB
  8
DUN
 10
22330.93565686722
 20
5850.255531105101
 30
0.0
 40
125.0
  1
mm
  2
MAATEENHEID
 70
     0
  7
ROMANS
  0
ATTRIB
  8
DUN
 10
15573.11148535664
 20
6212.212006074076
 30
0.0
 40
125.0
  1
Obstakelvrije-ruimte ROOS 
  2
BENAMING
 70
     0
  7
ROMANS
  0
ATTRIB
  8
DUN
 10
18308.19541052115
 20
5252.30133609595
 30
0.0
 40
125.0
  1
AK 714a
  2
TEK.NR.
 70
     0
  7
ROMANS
  0
SEQEND
  8
DUN
  0
TEXT
  8
DIK
 10
14593.98285948564
 20
18100.34735629979
 30
0.0
 40
100.0
  1
Veilige ondergrond in de gehele obstakelvrije-ruimte.
  7
ROMANS
  0
ENDBLK
  8
0
  0
BLOCK
  8
0
  2
A4S
 70
    66
 10
0.0
 20
0.0
 30
0.0
  3
A4S
  0
LINE
  8
DIK
 62
     7
 10
200.0
 20
265.0
 30
0.0
 11
0.0
 21
265.0
 31
0.0
  0
LINE
  8
DIK
 62
     7
 10
200.0
 20
0.0
 30
0.0
 11
200.0
 21
265.0
 31
0.0
  0
LINE
  8
DIK
 62
     7
 10
0.0
 20
265.0
 30
0.0
 11
0.0
 21
0.0
 31
0.0
  0
LINE
  8
DIK
 62
     7
 10
0.0
 20
0.0
 30
0.0
 11
200.0
 21
0.0
 31
0.0
  0
ATTDEF
  8
DUN
 10
147.865671307955
 20
22.434008393964
 30
0.0
 40
2.5
  1

  3
ENTER SCHAAL
  2
SCHAAL
 70
     0
  7
ROMANS
  0
ATTDEF
  8
DUN
 10
145.636377606345
 20
8.700113658062
 30
0.0
 40
2.5
  1

  3
ENTER DATUM
  2
DATUM
 70
     0
  7
ROMANS
  0
ATTDEF
  8
DUN
 10
156.445440055308
 20
1.78439242479
 30
0.0
 40
2.5
  1

  3
ENTER GETEKEND
  2
GETEKEND
 70
     0
  7
ROMANS
  0
ATTDEF
  8
DUN
 10
158.146500326126
 20
15.696951461516
 30
0.0
 40
2.5
  1

  3
ENTER MAATEENHEID
  2
MAATEENHEID
 70
     0
  7
ROMANS
  0
LINE
  8
DUN
 10
175.484930200881
 20
7.0
 30
0.0
 11
175.484930200888
 21
28.086824045226
 31
0.0
  0
TEXT
  8
DUN
 10
183.535447511735
 20
14.274654940444
 30
0.0
 40
6.0
  1
A4
 72
     2
 11
193.535447511735
 21
14.274654940444
 31
0.0
  0
LINE
  8
HARTLIJN
 10
99.397680541595
 20
9.205368291648
 30
0.0
 11
129.463468913906
 21
9.205368291648
 31
0.0
  0
TEXT
  8
DUN
 10
97.533769335721
 20
17.224758628468
 30
0.0
 40
2.5
  1
Amerik. proj.
  7
ROMANS
  0
LINE
  8
HARTLIJN
 10
104.272293720125
 20
14.279512514899
 30
0.0
 11
104.272293720125
 21
4.131224068395
 31
0.0
  0
LINE
  8
DIK
 10
123.833626955384
 20
12.705368291648
 30
0.0
 11
123.833626955384
 21
5.705368291648
 31
0.0
  0
LINE
  8
DIK
 10
113.833626955384
 20
9.205368291648
 30
0.0
 11
113.833626955384
 21
7.705368291648
 31
0.0
  0
CIRCLE
  8
DIK
 10
104.272293720125
 20
9.205368291648
 30
0.0
 40
1.5
  0
CIRCLE
  8
DIK
 10
104.272293720125
 20
9.205368291648
 30
0.0
 40
3.5
  0
LINE
  8
DIK
 10
123.833626955384
 20
5.705368291648
 30
0.0
 11
113.833626955384
 21
7.705368291648
 31
0.0
  0
LINE
  8
DIK
 10
113.833626955384
 20
10.705368291648
 30
0.0
 11
123.833626955384
 21
12.705368291648
 31
0.0
  0
LINE
  8
DIK
 10
113.833626955384
 20
9.205368291648
 30
0.0
 11
113.833626955384
 21
10.705368291648
 31
0.0
  0
ATTDEF
  8
DUN
 10
22.990016895914
 20
22.936080960895
 30
0.0
 40
2.5
  1

  3
ENTER BENAMING
  2
BENAMING
 70
     0
  7
ROMANS
  0
LINE
  8
DUN
 10
95.000000000007
 20
28.0
 30
0.0
 11
95.0
 21
0.0
 31
0.0
  0
LINE
  8
DIK
 10
72.961352999424
 20
21.0
 30
0.0
 11
75.000000000007
 21
15.11418104776
 31
0.0
  0
LINE
  8
DIK
 10
71.903066960927
 20
21.0
 30
0.0
 11
75.000000000007
 21
12.058782040262
 31
0.0
  0
LINE
  8
DIK
 10
70.844780922431
 20
21.0
 30
0.0
 11
75.000000000007
 21
9.003383032734
 31
0.0
  0
LINE
  8
DIK
 10
74.019639037913
 20
21.0
 30
0.0
 11
75.000000000007
 21
18.169580055273
 31
0.0
  0
LINE
  8
DUN
 10
75.000000000007
 20
21.0
 30
0.0
 11
65.55335072997
 21
21.0
 31
0.0
  0
LINE
  8
DIK
 10
68.728208845452
 20
21.0
 30
0.0
 11
75.000000000007
 21
2.8925850177
 31
0.0
  0
LINE
  8
DIK
 10
66.611636768466
 20
21.0
 30
0.0
 11
73.885320746791
 21
0.0
 31
0.0
  0
LINE
  8
DIK
 10
65.55335072997
 20
21.0
 30
0.0
 11
72.827034708302
 21
0.0
 31
0.0
  0
LINE
  8
DIK
 10
69.786494883942
 20
21.0
 30
0.0
 11
75.0
 21
5.947984025228
 31
0.0
  0
LINE
  8
DIK
 10
67.669922806963
 20
21.0
 30
0.0
 11
74.943606785295
 21
-0.000000000004
 31
0.0
  0
LINE
  8
DIK
 10
1.463804241401
 20
0.0
 30
0.0
 11
0.0
 21
5.316870944927
 31
0.0
  0
LINE
  8
DIK
 10
2.50101073242
 20
0.0
 30
0.0
 11
0.0
 21
9.084241540022
 31
0.0
  0
LINE
  8
DIK
 10
3.538217223446
 20
0.0
 30
0.0
 11
0.0
 21
12.851612135131
 31
0.0
  0
LINE
  8
DIK
 10
4.575423714472
 20
0.0
 30
0.0
 11
0.0
 21
16.618982730237
 31
0.0
  0
LINE
  8
DIK
 10
6.649836696524
 20
0.0
 30
0.0
 11
0.868261520503
 21
21.0
 31
0.0
  0
LINE
  8
DIK
 10
7.68704318755
 20
0.0
 30
0.0
 11
1.905468011537
 21
21.0
 31
0.0
  0
LINE
  8
DIK
 10
5.612630205498
 20
0.0
 30
0.0
 11
0.0
 21
20.38635332535
 31
0.0
  0
TEXT
  8
DIK
 10
2.433881911842
 20
11.266736841375
 30
0.0
 40
10.0
  1
WICO COMFA
  7
SANSSERIFBOLD
  0
TEXT
  8
DUN
 10
8.276180271525
 20
2.267660635709
 30
0.0
 40
2.5344
  1
SPEEL- EN SPORTTOESTELLEN
  7
ROMANS
  0
TEXT
  8
DUN
 10
1.851294722146
 20
23.170176683692
 30
0.0
 40
2.5
  1
Benaming
  7
ROMANS
  0
LINE
  8
DUN
 10
95.0
 20
21.0
 30
0.0
 11
0.0
 21
21.0
 31
0.0
  0
TEXT
  8
DUN
 10
78.169817738555
 20
15.777124798966
 30
0.0
 40
2.5
  1
Tek.nr
  7
ROMANS
  0
ATTDEF
  8
DUN
 10
77.691695399204
 20
3.737867561333
 30
0.0
 40
2.5
  1

  3
ENTER TEK.NR.
  2
TEK.NR.
 70
     0
  7
ROMANS
  0
LINE
  8
DUN
 10
75.0
 20
21.0
 30
0.0
 11
75.0
 21
0.0
 31
0.0
  0
LINE
  8
DUN
 10
131.283769335722
 20
28.086824045226
 30
0.0
 11
131.283769335722
 21
0.0
 31
0.0
  0
LINE
  8
0
 62
     7
 10
200.0
 20
28.0
 30
0.0
 11
0.0
 21
28.0
 31
0.0
  0
LINE
  8
DUN
 10
200.0
 20
7.0
 30
0.0
 11
131.283769335722
 21
7.0
 31
0.0
  0
TEXT
  8
DUN
 10
132.236321313925
 20
15.843244574979
 30
0.0
 40
2.5
  1
Maateenheid
  7
ROMANS
  0
TEXT
  8
DUN
 10
132.388336007127
 20
1.767244013554
 30
0.0
 40
2.5
  1
Getekend
  7
ROMANS
  0
TEXT
  8
DUN
 10
132.319605468445
 20
22.496726978341
 30
0.0
 40
2.5
  1
Schaal
  7
ROMANS
  0
TEXT
  8
DUN
 10
132.236321313925
 20
8.678189956896
 30
0.0
 40
2.5
  1
Datum
  7
ROMANS
  0
LINE
  8
DUN
 10
175.484930200888
 20
14.0
 30
0.0
 11
131.283769335722
 21
14.0
 31
0.0
  0
LINE
  8
DUN
 10
175.484930200888
 20
21.0
 30
0.0
 11
131.283769335722
 21
21.0
 31
0.0
  0
ENDBLK
  8
0
  0
BLOCK
  8
0
  2
ACAD162F
 70
    64
 10
0.0
 20
0.0
 30
0.0
  3
ACAD162F
  0
TEXT
  8
DUN
 62
     2
 10
35594.66690434648
 20
24198.56074463023
 30
0.0
 40
3.2
  1
Bij plaatsing, nummers op staanders naar kijkrichting toe houden.
  7
ROMANS
  0
TEXT
  8
DIK
 10
35594.59745236317
 20
24204.76535227344
 30
0.0
 40
3.2
  1
Maten hart op hart kuilen.
  7
ROMANS
  0
ENDBLK
  8
0
  0
BLOCK
  8
0
  2
ACAD287A
 70
     0
 10
0.0
 20
0.0
 30
0.0
  3
ACAD287A
  0
INSERT
  8
DUN
 66
     1
  2
A4S
 10
7457.848178303282
 20
6816.897785734175
 30
0.0
 41
25.0
 42
25.0
 43
25.0
  0
ATTRIB
  8
DUN
 10
11154.48996100214
 20
7377.74799558328
 30
0.0
 40
62.5
  1
1:25
  2
SCHAAL
 70
     0
  7
ROMANS
  0
ATTRIB
  8
DUN
 10
11098.75761846189
 20
7034.400627185726
 30
0.0
 40
62.5
  1
april 1997
  2
DATUM
 70
     0
  7
ROMANS
  0
ATTRIB
  8
DUN
 10
11368.98417968597
 20
6861.507596353924
 30
0.0
 40
62.5
  1
S. van Leeuwen
  2
GETEKEND
 70
     0
  7
ROMANS
  0
ATTRIB
  8
DUN
 10
11411.51068645641
 20
7209.321572272068
 30
0.0
 40
62.5
  1
mm
  2
MAATEENHEID
 70
     0
  7
ROMANS
  0
ATTRIB
  8
DUN
 10
8032.598600701128
 20
7390.299809756555
 30
0.0
 40
62.5
  1
Plaatsing ROOS 
  2
BENAMING
 70
     0
  7
ROMANS
  0
ATTRIB
  8
DUN
 10
9400.140563283381
 20
6910.344474767492
 30
0.0
 40
62.5
  1
AK 714
  2
TEK.NR.
 70
     0
  7
ROMANS
  0
SEQEND
  8
DUN
  0
TEXT
  8
DIK
 10
8195.958343086131
 20
7890.141580783528
 30
0.0
 40
50.0
  1
Dubbele BETONFUNDERING
  7
ROMANS
  0
TEXT
  8
DIK
 10
8188.538938690973
 20
7813.77459110361
 30
0.0
 40
50.0
  1
Kuil: 300x600 mm
  7
ROMANS
  0
TEXT
  8
DIK
 10
8188.538938690973
 20
7732.822210151229
 30
0.0
 40
50.0
  1
Diepte: 500 mm
  7
ROMANS
  0
LINE
  8
DIK
 10
9178.384225652456
 20
9815.159022176267
 30
0.0
 11
7997.594811847393
 21
9815.159022176267
 31
0.0
  0
TEXT
  8
DIK
 10
8027.115647627375
 20
9846.294230061396
 30
0.0
 40
60.0
  1
Kijkrichting
  7
ROMANS
 11
8027.115647627375
 21
9876.294230061397
 31
0.0
 73
     2
  0
TEXT
  8
DIK
 10
7930.73692130013
 20
9293.788181623819
 30
0.0
 40
50.0
  1
BETONFUNDERING
  7
ROMANS
  0
TEXT
  8
DIK
 10
7923.317516904972
 20
9136.468810991519
 30
0.0
 40
50.0
  1
Diepte: 500 mm
  7
ROMANS
  0
TEXT
  8
DIK
 10
7923.317516904972
 20
9217.4211919439
 30
0.0
 40
50.0
  1
Kuil: 300x600 mm
  7
ROMANS
  0
SOLID
  8
DIK
 10
9130.770616435905
 20
9820.086749340978
 30
0.0
 11
9130.770616435905
 21
9796.753416007646
 31
0.0
 12
9200.770616435905
 22
9808.420082674313
 32
0.0
 13
9200.770616435905
 23
9808.420082674313
 33
0.0
  0
INSERT
  8
DIK
  2
ACAD162F
 10
-526335.8633804267
 20
-349753.4138942679
 30
0.0
 41
15.0
 42
15.0
 43
15.0
  0
INSERT
  8
DUN
 66
     1
  2
A4S
 10
14423.61064056095
 20
5065.407958029315
 30
0.0
 41
50.0
 42
50.0
 43
50.0
  0
ATTRIB
  8
DUN
 10
21816.89420595867
 20
6187.108377727525
 30
0.0
 40
125.0
  1
1:50
  2
SCHAAL
 70
     0
  7
ROMANS
  0
ATTRIB
  8
DUN
 10
21705.42952087817
 20
5500.413640932418
 30
0.0
 40
125.0
  1
april 1997
  2
DATUM
 70
     0
  7
ROMANS
  0
ATTRIB
  8
DUN
 10
22245.88264332633
 20
5154.627579268815
 30
0.0
 40
125.0
  1
S. van Leeuwen
  2
GETEKEND
 70
     0
  7
ROMANS
  0
ATTRIB
  8
DUN
 10
22330.93565686722
 20
5850.255531105101
 30
0.0
 40
125.0
  1
mm
  2
MAATEENHEID
 70
     0
  7
ROMANS
  0
ATTRIB
  8
DUN
 10
15573.11148535664
 20
6212.212006074076
 30
0.0
 40
125.0
  1
Obstakelvrije-ruimte ROOS 
  2
BENAMING
 70
     0
  7
ROMANS
  0
ATTRIB
  8
DUN
 10
18308.19541052115
 20
5252.30133609595
 30
0.0
 40
125.0
  1
AK 714a
  2
TEK.NR.
 70
     0
  7
ROMANS
  0
SEQEND
  8
DUN
  0
TEXT
  8
DIK
 10
14593.98285948564
 20
18100.34735629979
 30
0.0
 40
100.0
  1
Veilige ondergrond in de gehele obstakelvrije-ruimte.
  7
ROMANS
  0
ENDBLK
  8
0
  0
BLOCK
  8
0
  2
*X15
 70
    65
 10
0.0
 20
0.0
 30
0.0
  3
*X
  0
LINE
  8
0
 62
     0
 10
28849.11391907908
 20
7700.610753961231
 30
0.0
 11
29849.11391907908
 21
8700.61075396123
 31
0.0
  0
LINE
  8
0
 62
     0
 10
30759.11391907908
 20
9610.610753961228
 30
0.0
 11
32156.72056940247
 21
11008.21740428462
 31
0.0
  0
LINE
  8
0
 62
     0
 10
30369.11391907907
 20
9220.610753961226
 30
0.0
 11
30697.92189962174
 21
9549.418734503889
 31
0.0
  0
LINE
  8
0
 62
     0
 10
28849.11391907908
 20
7835.314595777267
 30
0.0
 11
29849.11391907908
 21
8835.314595777267
 31
0.0
  0
LINE
  8
0
 62
     0
 10
30759.11391907908
 20
9745.314595777266
 30
0.0
 11
32126.55565272606
 21
11112.75632942424
 31
0.0
  0
LINE
  8
0
 62
     0
 10
30369.11391907907
 20
9355.314595777263
 30
0.0
 11
30563.2180578057
 21
9549.418734503889
 31
0.0
  0
LINE
  8
0
 62
     0
 10
28849.11391907908
 20
7970.018437593306
 30
0.0
 11
29849.11391907908
 21
8970.018437593305
 31
0.0
  0
LINE
  8
0
 62
     0
 10
30759.11391907908
 20
9880.018437593303
 30
0.0
 11
32091.03354094788
 21
11211.9380594621
 31
0.0
  0
LINE
  8
0
 62
     0
 10
30369.11391907907
 20
9490.018437593301
 30
0.0
 11
30428.51421598967
 21
9549.418734503888
 31
0.0
  0
LINE
  8
0
 62
     0
 10
28849.11391907908
 20
8104.722279409342
 30
0.0
 11
29849.11391907908
 21
9104.722279409342
 31
0.0
  0
LINE
  8
0
 62
     0
 10
30759.11391907908
 20
10014.72227940934
 30
0.0
 11
32050.60737166988
 21
11306.21573200014
 31
0.0
  0
LINE
  8
0
 62
     0
 10
28849.11391907908
 20
8239.426121225379
 30
0.0
 11
29849.11391907908
 21
9239.426121225381
 31
0.0
  0
LINE
  8
0
 62
     0
 10
30759.11391907908
 20
10149.42612122538
 30
0.0
 11
32005.62121064434
 21
11395.93341279064
 31
0.0
  0
LINE
  8
0
 62
     0
 10
28774.42075674981
 20
8299.436800712141
 30
0.0
 11
29849.11391907908
 21
9374.129963041417
 31
0.0
  0
LINE
  8
0
 62
     0
 10
30759.11391907908
 20
10284.12996304141
 30
0.0
 11
31956.33668827673
 21
11481.35273223906
 31
0.0
  0
LINE
  8
0
 62
     0
 10
28695.17446716939
 20
8354.894352947763
 30
0.0
 11
29849.11391907908
 21
9508.833804857456
 31
0.0
  0
LINE
  8
0
 62
     0
 10
30759.11391907908
 20
10418.83380485745
 30
0.0
 11
31902.95067088043
 21
11562.67055665879
 31
0.0
  0
LINE
  8
0
 62
     0
 10
28619.82898758068
 20
8414.252715175091
 30
0.0
 11
29754.99500690948
 21
9549.418734503889
 31
0.0
  0
LINE
  8
0
 62
     0
 10
30759.11391907908
 20
10553.53764667349
 30
0.0
 11
31845.60714340065
 21
11640.03087099505
 31
0.0
  0
LINE
  8
0
 62
     0
 10
28548.30645266262
 20
8477.434022073072
 30
0.0
 11
29620.29116509344
 21
9549.418734503889
 31
0.0
  0
LINE
  8
0
 62
     0
 10
30759.11391907908
 20
10688.24148848952
 30
0.0
 11
31784.40515526665
 21
11713.5327246771
 31
0.0
  0
LINE
  8
0
 62
     0
 10
28480.56706084573
 20
8544.398472072211
 30
0.0
 11
29459.11391907907
 21
9522.945330305564
 31
0.0
  0
LINE
  8
0
 62
     0
 10
30755.58732327741
 20
10819.41873450389
 30
0.0
 11
31719.40392978752
 21
11783.235341014
 31
0.0
  0
LINE
  8
0
 62
     0
 10
28416.60714256106
 20
8615.142395603585
 30
0.0
 11
29459.11391907908
 21
9657.649172121601
 31
0.0
  0
LINE
  8
0
 62
     0
 10
30590.88348146137
 20
10789.41873450389
 30
0.0
 11
31650.62578263392
 21
11849.16103567644
 31
0.0
  0
LINE
  8
0
 62
     0
 10
28356.45898443158
 20
8689.698079290144
 30
0.0
 11
29459.11391907908
 21
9792.35301393764
 31
0.0
  0
LINE
  8
0
 62
     0
 10
30456.17963964533
 20
10789.41873450389
 30
0.0
 11
31578.05719531642
 21
11911.29629017497
 31
0.0
  0
LINE
  8
0
 62
     0
 10
28300.19238938857
 20
8768.135326063166
 30
0.0
 11
29459.11391907908
 21
9927.056855753678
 31
0.0
  0
LINE
  8
0
 62
     0
 10
30321.47579782929
 20
10789.41873450389
 30
0.0
 11
31501.64816659577
 21
11969.59110327036
 31
0.0
  0
LINE
  8
0
 62
     0
 10
28247.91815253176
 20
8850.564931022399
 30
0.0
 11
29459.11391907908
 21
10061.76069756971
 31
0.0
  0
LINE
  8
0
 62
     0
 10
30186.77195601326
 20
10789.41873450389
 30
0.0
 11
31421.30976782778
 21
12023.95654631841
 31
0.0
  0
LINE
  8
0
 62
     0
 10
29528.99500202205
 20
10131.64178051268
 30
0.0
 11
29542.2195838035
 21
10144.86636229413
 31
0.0
  0
LINE
  8
0
 62
     0
 10
28199.79387080432
 20
8937.144491110991
 30
0.0
 11
29509.11391907908
 21
10246.46453938575
 31
0.0
  0
LINE
  8
0
 62
     0
 10
30052.06811419722
 20
10789.41873450389
 30
0.0
 11
31336.90961571531
 21
12074.26023602198
 31
0.0
  0
LINE
  8
0
 62
     0
 10
28156.03283723571
 20
9028.087299358423
 30
0.0
 11
29509.11391907908
 21
10381.16838120178
 31
0.0
  0
LINE
  8
0
 62
     0
 10
29917.36427238118
 20
10789.41873450389
 30
0.0
 11
31248.26470083269
 21
12120.31916295539
 31
0.0
  0
LINE
  8
0
 62
     0
 10
28116.91728889877
 20
9123.675592837518
 30
0.0
 11
29509.11391907908
 21
10515.87222301782
 31
0.0
  0
LINE
  8
0
 62
     0
 10
29782.66043056514
 20
10789.41873450389
 30
0.0
 11
31155.1306032025
 21
12161.88890714124
 31
0.0
  0
LINE
  8
0
 62
     0
 10
28082.81815048348
 20
9224.280296238267
 30
0.0
 11
29509.11391907908
 21
10650.57606483386
 31
0.0
  0
LINE
  8
0
 62
     0
 10
29647.95658874911
 20
10789.41873450389
 30
0.0
 11
31057.18546601797
 21
12198.64761177275
 31
0.0
  0
LINE
  8
0
 62
     0
 10
28054.2249810106
 20
9330.39096858142
 30
0.0
 11
29509.11391907908
 21
10785.2799066499
 31
0.0
  0
LINE
  8
0
 62
     0
 10
29513.25274693307
 20
10789.41873450389
 30
0.0
 11
30954.00595178569
 21
12230.17193935651
 31
0.0
  0
LINE
  8
0
 62
     0
 10
28031.79282001666
 20
9442.662649403517
 30
0.0
 11
30845.03028640078
 21
12255.90011578763
 31
0.0
  0
LINE
  8
0
 62
     0
 10
28016.41874447148
 20
9561.992415674378
 30
0.0
 11
30729.49932050718
 21
12275.07299171008
 31
0.0
  0
LINE
  8
0
 62
     0
 10
28009.37454350352
 20
9689.652056522449
 30
0.0
 11
30606.35766437067
 21
12286.6351773896
 31
0.0
  0
LINE
  8
0
 62
     0
 10
28009.11391907908
 20
9824.095273914052
 30
0.0
 11
30474.43737966892
 21
12289.41873450389
 31
0.0
  0
LINE
  8
0
 62
     0
 10
28009.11391907908
 20
9958.799115730087
 30
0.0
 11
30339.73353785289
 21
12289.41873450389
 31
0.0
  0
LINE
  8
0
 62
     0
 10
28009.11391907908
 20
10093.50295754612
 30
0.0
 11
30205.02969603685
 21
12289.41873450389
 31
0.0
  0
LINE
  8
0
 62
     0
 10
28009.11391907908
 20
10228.20679936216
 30
0.0
 11
30070.32585422081
 21
12289.41873450389
 31
0.0
  0
LINE
  8
0
 62
     0
 10
28009.11391907908
 20
10362.9106411782
 30
0.0
 11
29935.62201240477
 21
12289.41873450389
 31
0.0
  0
LINE
  8
0
 62
     0
 10
28009.11391907908
 20
10497.61448299423
 30
0.0
 11
29800.91817058874
 21
12289.41873450389
 31
0.0
  0
LINE
  8
0
 62
     0
 10
28009.66940502519
 20
10632.87381075638
 30
0.0
 11
29665.65884282659
 21
12288.86324855778
 31
0.0
  0
LINE
  8
0
 62
     0
 10
28019.54503676689
 20
10777.45328431412
 30
0.0
 11
29521.07936926884
 21
12278.98761681607
 31
0.0
  0
LINE
  8
0
 62
     0
 10
28045.195233773
 20
10937.80732313626
 30
0.0
 11
29360.7253304467
 21
12253.33741980997
 31
0.0
  0
LINE
  8
0
 62
     0
 10
28094.69633766505
 20
11122.01226884436
 30
0.0
 11
29176.52038473861
 21
12203.83631591791
 31
0.0
  0
LINE
  8
0
 62
     0
 10
28189.51614259668
 20
11351.53591559202
 30
0.0
 11
28946.99673799095
 21
12109.01651098629
 31
0.0
  0
LINE
  8
0
 62
     0
 10
28849.11391907908
 20
7565.906912145193
 30
0.0
 11
29849.11391907908
 21
8565.906912145193
 31
0.0
  0
LINE
  8
0
 62
     0
 10
30369.11391907907
 20
9085.906912145189
 30
0.0
 11
32180.9248174041
 21
10897.7178104702
 31
0.0
  0
LINE
  8
0
 62
     0
 10
28849.11391907908
 20
7431.203070329156
 30
0.0
 11
29849.11391907908
 21
8431.203070329155
 31
0.0
  0
LINE
  8
0
 62
     0
 10
30369.11391907907
 20
8951.203070329151
 30
0.0
 11
32198.34804901443
 21
10780.4372002645
 31
0.0
  0
LINE
  8
0
 62
     0
 10
28849.11391907908
 20
7296.499228513118
 30
0.0
 11
29849.11391907908
 21
8296.499228513118
 31
0.0
  0
LINE
  8
0
 62
     0
 10
30369.11391907907
 20
8816.499228513114
 30
0.0
 11
32207.83977237454
 21
10655.22508180857
 31
0.0
  0
LINE
  8
0
 62
     0
 10
28849.11391907908
 20
7161.795386697082
 30
0.0
 11
29849.11391907908
 21
8161.795386697079
 31
0.0
  0
LINE
  8
0
 62
     0
 10
30369.11391907907
 20
8681.795386697077
 30
0.0
 11
32209.11391907908
 21
10521.79538669708
 31
0.0
  0
LINE
  8
0
 62
     0
 10
28849.11391907908
 20
7027.091544881043
 30
0.0
 11
29849.11391907908
 21
8027.091544881043
 31
0.0
  0
LINE
  8
0
 62
     0
 10
30369.11391907907
 20
8547.091544881039
 30
0.0
 11
32209.11391907908
 21
10387.09154488104
 31
0.0
  0
LINE
  8
0
 62
     0
 10
28849.11391907908
 20
6892.387703065007
 30
0.0
 11
29849.11391907908
 21
7892.387703065005
 31
0.0
  0
LINE
  8
0
 62
     0
 10
30369.11391907907
 20
8412.387703065002
 30
0.0
 11
32209.11391907908
 21
10252.387703065
 31
0.0
  0
LINE
  8
0
 62
     0
 10
28849.11391907908
 20
6757.683861248969
 30
0.0
 11
29849.11391907908
 21
7757.683861248969
 31
0.0
  0
LINE
  8
0
 62
     0
 10
30369.11391907907
 20
8277.683861248965
 30
0.0
 11
32209.11391907908
 21
10117.68386124896
 31
0.0
  0
LINE
  8
0
 62
     0
 10
28849.11391907908
 20
6622.980019432932
 30
0.0
 11
29849.11391907907
 21
7622.98001943293
 31
0.0
  0
LINE
  8
0
 62
     0
 10
30369.11391907907
 20
8142.980019432927
 30
0.0
 11
32209.11391907908
 21
9982.980019432933
 31
0.0
  0
LINE
  8
0
 62
     0
 10
28849.11391907908
 20
6488.276177616894
 30
0.0
 11
29849.11391907907
 21
7488.276177616893
 31
0.0
  0
LINE
  8
0
 62
     0
 10
30369.11391907907
 20
8008.27617761689
 30
0.0
 11
32209.11391907908
 21
9848.276177616895
 31
0.0
  0
LINE
  8
0
 62
     0
 10
28856.59162586797
 20
6361.05004258975
 30
0.0
 11
29979.46031778211
 21
7483.918734503892
 31
0.0
  0
LINE
  8
0
 62
     0
 10
30369.11391907907
 20
7873.572335800854
 30
0.0
 11
32209.10383127437
 21
9713.562247996149
 31
0.0
  0
LINE
  8
0
 62
     0
 10
28877.36049303305
 20
6247.115067938792
 30
0.0
 11
30114.16415959815
 21
7483.918734503892
 31
0.0
  0
LINE
  8
0
 62
     0
 10
30369.11391907907
 20
7738.868493984817
 30
0.0
 11
32202.75422024042
 21
9572.508795146159
 31
0.0
  0
LINE
  8
0
 62
     0
 10
28908.52243667895
 20
6143.573169768661
 30
0.0
 11
30248.86800141419
 21
7483.918734503892
 31
0.0
  0
LINE
  8
0
 62
     0
 10
30369.11391907907
 20
7604.164652168779
 30
0.0
 11
32182.00939491629
 21
9417.060128005998
 31
0.0
  0
LINE
  8
0
 62
     0
 10
28948.3850010098
 20
6048.731892283462
 30
0.0
 11
30333.57184323023
 21
7433.918734503893
 31
0.0
  0
LINE
  8
0
 62
     0
 10
30369.11391907907
 20
7469.460810352742
 30
0.0
 11
32140.30411809639
 21
9240.65100937006
 31
0.0
  0
LINE
  8
0
 62
     0
 10
28995.90355280334
 20
5961.546602260971
 30
0.0
 11
32061.99490263315
 21
9027.637952090783
 31
0.0
  0
LINE
  8
0
 62
     0
 10
29050.42723103462
 20
5881.366438676208
 30
0.0
 11
31369.11391907907
 21
8200.053126720666
 31
0.0
  0
LINE
  8
0
 62
     0
 10
31526.590956155
 20
8357.530163796592
 30
0.0
 11
31871.00248978638
 21
8701.941697427967
 31
0.0
  0
LINE
  8
0
 62
     0
 10
29111.57430446718
 20
5807.809670292733
 30
0.0
 11
31369.11391907907
 21
8065.34928490463
 31
0.0
  0
LINE
  8
0
 62
     0
 10
29179.17016167243
 20
5740.701685681949
 30
0.0
 11
31369.11391907907
 21
7930.645443088593
 31
0.0
  0
LINE
  8
0
 62
     0
 10
29253.22154947051
 20
5680.049231663993
 30
0.0
 11
31369.11391907907
 21
7795.941601272557
 31
0.0
  0
LINE
  8
0
 62
     0
 10
29333.91753867747
 20
5626.041379054915
 30
0.0
 11
31369.11391907907
 21
7661.237759456518
 31
0.0
  0
LINE
  8
0
 62
     0
 10
29421.65755821146
 20
5579.077556772865
 30
0.0
 11
31369.11391907907
 21
7526.533917640482
 31
0.0
  0
LINE
  8
0
 62
     0
 10
29517.11693582601
 20
5539.83309257138
 30
0.0
 11
31369.11391907907
 21
7391.830075824444
 31
0.0
  0
LINE
  8
0
 62
     0
 10
29621.37823659162
 20
5509.390551520951
 30
0.0
 11
31369.11391907907
 21
7257.126234008407
 31
0.0
  0
LINE
  8
0
 62
     0
 10
29736.20026330643
 20
5489.508736419722
 30
0.0
 11
31369.11391907907
 21
7122.422392192369
 31
0.0
  0
LINE
  8
0
 62
     0
 10
29864.50890902591
 20
5483.113540323167
 30
0.0
 11
31369.11391907907
 21
6987.718550376333
 31
0.0
  0
LINE
  8
0
 62
     0
 10
30000.01794502268
 20
5483.918734503894
 30
0.0
 11
31369.11391907907
 21
6853.014708560294
 31
0.0
  0
LINE
  8
0
 62
     0
 10
30134.72178683871
 20
5483.918734503894
 30
0.0
 11
31369.11391907907
 21
6718.310866744258
 31
0.0
  0
LINE
  8
0
 62
     0
 10
30269.42562865475
 20
5483.918734503894
 30
0.0
 11
31369.11391907907
 21
6583.60702492822
 31
0.0
  0
LINE
  8
0
 62
     0
 10
30403.93055929763
 20
5483.719823330741
 30
0.0
 11
31368.5076360715
 21
6448.296900104608
 31
0.0
  0
LINE
  8
0
 62
     0
 10
30555.56360807329
 20
5500.649030290357
 30
0.0
 11
31351.57842911188
 21
6296.663851328955
 31
0.0
  0
LINE
  8
0
 62
     0
 10
30746.79705437272
 20
5557.178634773747
 30
0.0
 11
31295.0488246285
 21
6105.430405029528
 31
0.0
  0
ENDBLK
  8
0
  0
BLOCK
  8
0
  2
*D16
 70
    65
 10
0.0
 20
0.0
 30
0.0
  3
*D
  0
LINE
  8
0
  6
BYBLOCK
 10
30112.23529209658
 20
7483.918734503893
 30
0.0
 11
30118.93563102762
 21
7483.918734503893
 31
0.0
  0
LINE
  8
0
  6
BYBLOCK
 10
30137.88691245005
 20
5483.918734503892
 30
0.0
 11
30116.93563102762
 21
5483.918734503892
 31
0.0
  0
LINE
  8
0
  6
BYBLOCK
 10
30117.93563102763
 20
7383.918734503893
 30
0.0
 11
30117.93563102763
 21
5583.918734503892
 31
0.0
  0
SOLID
  8
0
  6
BYBLOCK
 10
30101.26896436096
 20
7383.918734503893
 30
0.0
 11
30134.60229769429
 21
7383.918734503893
 31
0.0
 12
30117.93563102763
 22
7483.918734503893
 32
0.0
 13
30117.93563102763
 23
7483.918734503893
 33
0.0
  0
SOLID
  8
0
  6
BYBLOCK
 10
30101.26896436096
 20
5583.918734503892
 30
0.0
 11
30134.60229769429
 21
5583.918734503892
 31
0.0
 12
30117.93563102763
 22
5483.918734503892
 32
0.0
 13
30117.93563102763
 23
5483.918734503892
 33
0.0
  0
TEXT
  8
0
  6
BYBLOCK
 10
30077.93563102763
 20
6331.53778212294
 30
0.0
 40
80.0
  1
2000
 50
90.0
  7
ROMANS
 72
     1
 11
30037.93563102763
 21
6483.918734503893
 31
0.0
 73
     2
  0
POINT
  8
DEFPOINTS
  6
BYBLOCK
 62
     0
 10
30112.23529209658
 20
7483.918734503893
 30
0.0
  0
POINT
  8
DEFPOINTS
  6
BYBLOCK
 62
     0
 10
30137.88691245005
 20
5483.918734503892
 30
0.0
  0
POINT
  8
DEFPOINTS
  6
BYBLOCK
 62
     0
 10
30117.93563102763
 20
5483.918734503892
 30
0.0
  0
ENDBLK
  8
0
  0
BLOCK
  8
0
  2
*D17
 70
    65
 10
0.0
 20
0.0
 30
0.0
  3
*D
  0
LINE
  8
0
  6
BYBLOCK
 10
29849.11391907908
 20
7508.354335094403
 30
0.0
 11
29849.11391907908
 21
7298.064396104313
 31
0.0
  0
LINE
  8
0
  6
BYBLOCK
 10
28849.11391907908
 20
7497.339076596679
 30
0.0
 11
28849.11391907908
 21
7298.064396104313
 31
0.0
  0
LINE
  8
0
  6
BYBLOCK
 10
29749.11391907908
 20
7299.064396104313
 30
0.0
 11
28949.11391907908
 21
7299.064396104313
 31
0.0
  0
SOLID
  8
0
  6
BYBLOCK
 10
29749.11391907908
 20
7315.731062770979
 30
0.0
 11
29749.11391907908
 21
7282.397729437647
 31
0.0
 12
29849.11391907908
 22
7299.064396104313
 32
0.0
 13
29849.11391907908
 23
7299.064396104313
 33
0.0
  0
SOLID
  8
0
  6
BYBLOCK
 10
28949.11391907908
 20
7315.731062770979
 30
0.0
 11
28949.11391907908
 21
7282.397729437647
 31
0.0
 12
28849.11391907908
 22
7299.064396104313
 32
0.0
 13
28849.11391907908
 23
7299.064396104313
 33
0.0
  0
TEXT
  8
0
  6
BYBLOCK
 10
29191.01868098384
 20
7339.064396104313
 30
0.0
 40
80.0
  1
1000
  7
ROMANS
 72
     1
 11
29349.11391907908
 21
7379.064396104314
 31
0.0
 73
     2
  0
POINT
  8
DEFPOINTS
  6
BYBLOCK
 62
     0
 10
29849.11391907908
 20
7508.354335094403
 30
0.0
  0
POINT
  8
DEFPOINTS
  6
BYBLOCK
 62
     0
 10
28849.11391907908
 20
7497.339076596679
 30
0.0
  0
POINT
  8
DEFPOINTS
  6
BYBLOCK
 62
     0
 10
28849.11391907908
 20
7299.064396104313
 30
0.0
  0
ENDBLK
  8
0
  0
BLOCK
  8
0
  2
*D18
 70
    65
 10
0.0
 20
0.0
 30
0.0
  3
*D
  0
LINE
  8
0
  6
BYBLOCK
 10
29509.11391907908
 20
10122.10515186509
 30
0.0
 11
29509.11391907908
 21
10165.89645597989
 31
0.0
  0
LINE
  8
0
  6
BYBLOCK
 10
28009.11391907908
 20
10201.10448550219
 30
0.0
 11
28009.11391907908
 21
10163.89645597989
 31
0.0
  0
LINE
  8
0
  6
BYBLOCK
 10
29409.11391907908
 20
10164.89645597989
 30
0.0
 11
28109.11391907908
 21
10164.89645597989
 31
0.0
  0
SOLID
  8
0
  6
BYBLOCK
 10
29409.11391907908
 20
10181.56312264655
 30
0.0
 11
29409.11391907908
 21
10148.22978931322
 31
0.0
 12
29509.11391907908
 22
10164.89645597989
 32
0.0
 13
29509.11391907908
 23
10164.89645597989
 33
0.0
  0
SOLID
  8
0
  6
BYBLOCK
 10
28109.11391907908
 20
10181.56312264655
 30
0.0
 11
28109.11391907908
 21
10148.22978931322
 31
0.0
 12
28009.11391907908
 22
10164.89645597989
 32
0.0
 13
28009.11391907908
 23
10164.89645597989
 33
0.0
  0
TEXT
  8
0
  6
BYBLOCK
 10
28601.01868098384
 20
10204.89645597989
 30
0.0
 40
80.0
  1
1500
  7
ROMANS
 72
     1
 11
28759.11391907908
 21
10244.89645597989
 31
0.0
 73
     2
  0
POINT
  8
DEFPOINTS
  6
BYBLOCK
 62
     0
 10
29509.11391907908
 20
10122.10515186509
 30
0.0
  0
POINT
  8
DEFPOINTS
  6
BYBLOCK
 62
     0
 10
28009.11391907908
 20
10201.10448550219
 30
0.0
  0
POINT
  8
DEFPOINTS
  6
BYBLOCK
 62
     0
 10
28009.11391907908
 20
10164.89645597989
 30
0.0
  0
ENDBLK
  8
0
  0
BLOCK
  8
0
  2
*D19
 70
    65
 10
0.0
 20
0.0
 30
0.0
  3
*D
  0
LINE
  8
0
  6
BYBLOCK
 10
30118.64819718494
 20
12289.41873450389
 30
0.0
 11
30116.93563102761
 21
12289.41873450389
 31
0.0
  0
LINE
  8
0
  6
BYBLOCK
 10
30137.88691245005
 20
10789.41873450389
 30
0.0
 11
30116.93563102761
 21
10789.41873450389
 31
0.0
  0
LINE
  8
0
  6
BYBLOCK
 10
30117.93563102762
 20
12189.41873450389
 30
0.0
 11
30117.93563102762
 21
10889.41873450389
 31
0.0
  0
SOLID
  8
0
  6
BYBLOCK
 10
30101.26896436095
 20
12189.41873450389
 30
0.0
 11
30134.60229769429
 21
12189.41873450389
 31
0.0
 12
30117.93563102762
 22
12289.41873450389
 32
0.0
 13
30117.93563102762
 23
12289.41873450389
 33
0.0
  0
SOLID
  8
0
  6
BYBLOCK
 10
30101.26896436095
 20
10889.41873450389
 30
0.0
 11
30134.60229769429
 21
10889.41873450389
 31
0.0
 12
30117.93563102762
 22
10789.41873450389
 32
0.0
 13
30117.93563102762
 23
10789.41873450389
 33
0.0
  0
TEXT
  8
0
  6
BYBLOCK
 10
30077.93563102762
 20
11381.32349640865
 30
0.0
 40
80.0
  1
1500
 50
90.0
  7
ROMANS
 72
     1
 11
30037.93563102762
 21
11539.41873450389
 31
0.0
 73
     2
  0
POINT
  8
DEFPOINTS
  6
BYBLOCK
 62
     0
 10
30118.64819718494
 20
12289.41873450389
 30
0.0
  0
POINT
  8
DEFPOINTS
  6
BYBLOCK
 62
     0
 10
30137.88691245005
 20
10789.41873450389
 30
0.0
  0
POINT
  8
DEFPOINTS
  6
BYBLOCK
 62
     0
 10
30117.93563102762
 20
10789.41873450389
 30
0.0
  0
ENDBLK
  8
0
  0
BLOCK
  8
0
  2
*D20
 70
    65
 10
0.0
 20
0.0
 30
0.0
  3
*D
  0
LINE
  8
0
  6
BYBLOCK
 10
28009.11391907908
 20
12289.41873450389
 30
0.0
 11
28009.11391907908
 21
12785.88240724975
 31
0.0
  0
LINE
  8
0
  6
BYBLOCK
 10
32209.11391907908
 20
12289.41873450389
 30
0.0
 11
32209.11391907908
 21
12785.88240724975
 31
0.0
  0
LINE
  8
0
  6
BYBLOCK
 10
28109.11391907908
 20
12784.88240724975
 30
0.0
 11
32109.11391907908
 21
12784.88240724975
 31
0.0
  0
SOLID
  8
0
  6
BYBLOCK
 10
28109.11391907908
 20
12801.54907391642
 30
0.0
 11
28109.11391907908
 21
12768.21574058308
 31
0.0
 12
28009.11391907908
 22
12784.88240724975
 32
0.0
 13
28009.11391907908
 23
12784.88240724975
 33
0.0
  0
SOLID
  8
0
  6
BYBLOCK
 10
32109.11391907908
 20
12801.54907391642
 30
0.0
 11
32109.11391907908
 21
12768.21574058308
 31
0.0
 12
32209.11391907908
 22
12784.88240724975
 32
0.0
 13
32209.11391907908
 23
12784.88240724975
 33
0.0
  0
TEXT
  8
0
  6
BYBLOCK
 10
29956.73296669812
 20
12824.88240724975
 30
0.0
 40
80.0
  1
4200
  7
ROMANS
 72
     1
 11
30109.11391907908
 21
12864.88240724975
 31
0.0
 73
     2
  0
POINT
  8
DEFPOINTS
  6
BYBLOCK
 62
     0
 10
28009.11391907908
 20
12289.41873450389
 30
0.0
  0
POINT
  8
DEFPOINTS
  6
BYBLOCK
 62
     0
 10
32209.11391907908
 20
12289.41873450389
 30
0.0
  0
POINT
  8
DEFPOINTS
  6
BYBLOCK
 62
     0
 10
32209.11391907908
 20
12784.88240724975
 30
0.0
  0
ENDBLK
  8
0
  0
BLOCK
  8
0
  2
*D21
 70
    65
 10
0.0
 20
0.0
 30
0.0
  3
*D
  0
LINE
  8
0
  6
BYBLOCK
 10
32209.11391907908
 20
8252.994512118023
 30
0.0
 11
32209.11391907908
 21
7831.713296572869
 31
0.0
  0
LINE
  8
0
  6
BYBLOCK
 10
31369.11391907908
 20
8200.053126720669
 30
0.0
 11
31369.11391907908
 21
7831.713296572869
 31
0.0
  0
LINE
  8
0
  6
BYBLOCK
 10
32109.11391907908
 20
7832.713296572867
 30
0.0
 11
31469.11391907908
 21
7832.713296572867
 31
0.0
  0
SOLID
  8
0
  6
BYBLOCK
 10
32109.11391907908
 20
7849.379963239535
 30
0.0
 11
32109.11391907908
 21
7816.046629906201
 31
0.0
 12
32209.11391907908
 22
7832.713296572867
 32
0.0
 13
32209.11391907908
 23
7832.713296572867
 33
0.0
  0
SOLID
  8
0
  6
BYBLOCK
 10
31469.11391907908
 20
7849.379963239535
 30
0.0
 11
31469.11391907908
 21
7816.046629906201
 31
0.0
 12
31369.11391907908
 22
7832.713296572867
 32
0.0
 13
31369.11391907908
 23
7832.713296572867
 33
0.0
  0
TEXT
  8
0
  6
BYBLOCK
 10
31674.82820479337
 20
7872.713296572868
 30
0.0
 40
80.0
  1
840
  7
ROMANS
 72
     1
 11
31789.11391907908
 21
7912.713296572868
 31
0.0
 73
     2
  0
POINT
  8
DEFPOINTS
  6
BYBLOCK
 62
     0
 10
32209.11391907908
 20
8252.994512118023
 30
0.0
  0
POINT
  8
DEFPOINTS
  6
BYBLOCK
 62
     0
 10
31369.11391907908
 20
8200.053126720669
 30
0.0
  0
POINT
  8
DEFPOINTS
  6
BYBLOCK
 62
     0
 10
31369.11391907908
 20
7832.713296572867
 30
0.0
  0
ENDBLK
  8
0
  0
BLOCK
  8
0
  2
*D22
 70
    65
 10
0.0
 20
0.0
 30
0.0
  3
*D
  0
LINE
  8
0
  6
BYBLOCK
 10
28849.11391907908
 20
5483.113540323167
 30
0.0
 11
28849.11391907908
 21
4942.947972064055
 31
0.0
  0
LINE
  8
0
  6
BYBLOCK
 10
31369.11391907908
 20
5483.113540323165
 30
0.0
 11
31369.11391907908
 21
4942.947972064055
 31
0.0
  0
LINE
  8
0
  6
BYBLOCK
 10
28949.11391907908
 20
4943.947972064055
 30
0.0
 11
31269.11391907908
 21
4943.947972064055
 31
0.0
  0
SOLID
  8
0
  6
BYBLOCK
 10
28949.11391907908
 20
4960.614638730722
 30
0.0
 11
28949.11391907908
 21
4927.281305397388
 31
0.0
 12
28849.11391907908
 22
4943.947972064055
 32
0.0
 13
28849.11391907908
 23
4943.947972064055
 33
0.0
  0
SOLID
  8
0
  6
BYBLOCK
 10
31269.11391907908
 20
4960.614638730722
 30
0.0
 11
31269.11391907908
 21
4927.281305397388
 31
0.0
 12
31369.11391907908
 22
4943.947972064055
 32
0.0
 13
31369.11391907908
 23
4943.947972064055
 33
0.0
  0
TEXT
  8
0
  6
BYBLOCK
 10
29956.73296669812
 20
4983.947972064055
 30
0.0
 40
80.0
  1
2520
  7
ROMANS
 72
     1
 11
30109.11391907908
 21
5023.947972064054
 31
0.0
 73
     2
  0
POINT
  8
DEFPOINTS
  6
BYBLOCK
 62
     0
 10
28849.11391907908
 20
5483.113540323167
 30
0.0
  0
POINT
  8
DEFPOINTS
  6
BYBLOCK
 62
     0
 10
31369.11391907908
 20
5483.113540323165
 30
0.0
  0
POINT
  8
DEFPOINTS
  6
BYBLOCK
 62
     0
 10
31369.11391907908
 20
4943.947972064055
 30
0.0
  0
ENDBLK
  8
0
  0
BLOCK
  8
0
  2
*D23
 70
    65
 10
0.0
 20
0.0
 30
0.0
  3
*D
  0
LINE
  8
0
  6
BYBLOCK
 10
31369.11391907908
 20
5483.113540323165
 30
0.0
 11
33297.46884186962
 21
5483.113540323165
 31
0.0
  0
LINE
  8
0
  6
BYBLOCK
 10
32209.11391907908
 20
12289.41873450389
 30
0.0
 11
33297.46884186962
 21
12289.41873450389
 31
0.0
  0
LINE
  8
0
  6
BYBLOCK
 10
33296.46884186962
 20
5583.113540323165
 30
0.0
 11
33296.46884186962
 21
12189.41873450389
 31
0.0
  0
SOLID
  8
0
  6
BYBLOCK
 10
33279.80217520296
 20
5583.113540323165
 30
0.0
 11
33313.13550853629
 21
5583.113540323165
 31
0.0
 12
33296.46884186962
 22
5483.113540323165
 32
0.0
 13
33296.46884186962
 23
5483.113540323165
 33
0.0
  0
SOLID
  8
0
  6
BYBLOCK
 10
33279.80217520296
 20
12189.41873450389
 30
0.0
 11
33313.13550853629
 21
12189.41873450389
 31
0.0
 12
33296.46884186962
 22
12289.41873450389
 32
0.0
 13
33296.46884186962
 23
12289.41873450389
 33
0.0
  0
TEXT
  8
0
  6
BYBLOCK
 10
33256.46884186962
 20
8731.980423127813
 30
0.0
 40
80.0
  1
6800
 50
90.0
  7
ROMANS
 72
     1
 11
33216.46884186962
 21
8886.266137413528
 31
0.0
 73
     2
  0
POINT
  8
DEFPOINTS
  6
BYBLOCK
 62
     0
 10
31369.11391907908
 20
5483.113540323165
 30
0.0
  0
POINT
  8
DEFPOINTS
  6
BYBLOCK
 62
     0
 10
32209.11391907908
 20
12289.41873450389
 30
0.0
  0
POINT
  8
DEFPOINTS
  6
BYBLOCK
 62
     0
 10
33296.46884186962
 20
12289.41873450389
 30
0.0
  0
ENDBLK
  8
0
  0
BLOCK
  8
0
  2
*D24
 70
    65
 10
0.0
 20
0.0
 30
0.0
  3
*D
  0
LINE
  8
0
  6
BYBLOCK
 10
32209.11391907908
 20
8252.994512118023
 30
0.0
 11
32813.88260849758
 21
8252.994512118023
 31
0.0
  0
LINE
  8
0
  6
BYBLOCK
 10
32209.11391907908
 20
12289.41873450389
 30
0.0
 11
32813.88260849758
 21
12289.41873450389
 31
0.0
  0
LINE
  8
0
  6
BYBLOCK
 10
32812.88260849759
 20
8352.994512118023
 30
0.0
 11
32812.88260849759
 21
12189.41873450389
 31
0.0
  0
SOLID
  8
0
  6
BYBLOCK
 10
32796.21594183092
 20
8352.994512118023
 30
0.0
 11
32829.54927516425
 21
8352.994512118023
 31
0.0
 12
32812.88260849759
 22
8252.994512118023
 32
0.0
 13
32812.88260849759
 23
8252.994512118023
 33
0.0
  0
SOLID
  8
0
  6
BYBLOCK
 10
32796.21594183092
 20
12189.41873450389
 30
0.0
 11
32829.54927516425
 21
12189.41873450389
 31
0.0
 12
32812.88260849759
 22
12289.41873450389
 32
0.0
 13
32812.88260849759
 23
12289.41873450389
 33
0.0
  0
TEXT
  8
0
  6
BYBLOCK
 10
32772.88260849759
 20
10118.82567093
 30
0.0
 40
80.0
  1
4035
 50
90.0
  7
ROMANS
 72
     1
 11
32732.88260849759
 21
10271.20662331095
 31
0.0
 73
     2
  0
POINT
  8
DEFPOINTS
  6
BYBLOCK
 62
     0
 10
32209.11391907908
 20
8252.994512118023
 30
0.0
  0
POINT
  8
DEFPOINTS
  6
BYBLOCK
 62
     0
 10
32209.11391907908
 20
12289.41873450389
 30
0.0
  0
POINT
  8
DEFPOINTS
  6
BYBLOCK
 62
     0
 10
32812.88260849759
 20
12289.41873450389
 30
0.0
  0
ENDBLK
  8
0
  0
BLOCK
  8
0
  2
AAAK00
 70
     0
 10
0.0
 20
0.0
 30
0.0
  3
AAAK00
  0
LINE
  8
STREEPLIJN
 10
41288.3743923103
 20
30213.04295098595
 30
0.0
 11
41288.3743923103
 21
26713.04295098597
 31
0.0
  0
LINE
  8
STREEPLIJN
 10
40288.3743923103
 20
30213.04295098595
 30
0.0
 11
40288.3743923103
 21
26713.04295098596
 31
0.0
  0
LINE
  8
STREEPLIJN
 10
42288.3743923103
 20
30213.04295098596
 30
0.0
 11
42288.3743923103
 21
26713.04295098597
 31
0.0
  0
LINE
  8
STREEPLIJN
 10
43288.3743923103
 20
30213.04295098596
 30
0.0
 11
43288.3743923103
 21
26713.04295098597
 31
0.0
  0
LINE
  8
STREEPLIJN
 10
44288.3743923103
 20
30213.04295098596
 30
0.0
 11
44288.3743923103
 21
26713.04295098597
 31
0.0
  0
LINE
  8
STREEPLIJN
 10
39288.3743923103
 20
30213.04295098595
 30
0.0
 11
39288.3743923103
 21
26713.04295098596
 31
0.0
  0
LINE
  8
STREEPLIJN
 10
38288.37439231029
 20
30213.04295098595
 30
0.0
 11
38288.37439231029
 21
26713.04295098596
 31
0.0
  0
LINE
  8
STREEPLIJN
 10
37288.3743923103
 20
30213.04295098596
 30
0.0
 11
37288.3743923103
 21
26713.04295098596
 31
0.0
  0
LINE
  8
STREEPLIJN
 10
37288.3743923103
 20
26713.04295098596
 30
0.0
 11
44288.3743923103
 21
26713.04295098597
 31
0.0
  0
LINE
  8
STREEPLIJN
 10
37288.3743923103
 20
30213.04295098595
 30
0.0
 11
44288.3743923103
 21
30213.04295098595
 31
0.0
  0
LINE
  8
STREEPLIJN
 10
37288.3743923103
 20
27213.04295098596
 30
0.0
 11
44288.3743923103
 21
27213.04295098597
 31
0.0
  0
LINE
  8
STREEPLIJN
 10
37288.3743923103
 20
28213.04295098596
 30
0.0
 11
44288.3743923103
 21
28213.04295098597
 31
0.0
  0
LINE
  8
STREEPLIJN
 10
37288.3743923103
 20
29213.04295098596
 30
0.0
 11
44288.3743923103
 21
29213.04295098597
 31
0.0
  0
TEXT
  8
DIK
 10
42966.9401188307
 20
24156.21017759142
 30
0.0
 40
150.0
  1
afgerond= 25 tegels
  7
ROMANS
  0
POLYLINE
  8
DUN
 66
     1
 10
0.0
 20
0.0
 30
0.0
 70
     1
  0
VERTEX
  8
DUN
 10
36315.9248380172
 20
31303.03037889501
 30
0.0
  0
VERTEX
  8
DUN
 10
36315.9248380172
 20
23911.06625624618
 30
0.0
  0
VERTEX
  8
DUN
 10
45541.82596216184
 20
23911.06625624618
 30
0.0
  0
VERTEX
  8
DUN
 10
45541.82596216184
 20
31303.03037889501
 30
0.0
  0
SEQEND
  8
DUN
  0
POLYLINE
  8
DUN
 66
     1
 10
0.0
 20
0.0
 30
0.0
 70
     1
  0
VERTEX
  8
DUN
 10
36313.62476294596
 20
39538.30058482854
 30
0.0
  0
VERTEX
  8
DUN
 10
36313.62476294596
 20
31958.1151791251
 30
0.0
  0
VERTEX
  8
DUN
 10
45573.75935590491
 20
31958.1151791251
 30
0.0
  0
VERTEX
  8
DUN
 10
45573.75935590491
 20
39538.30058482854
 30
0.0
  0
SEQEND
  8
DUN
  0
ARC
  8
DIK
  6
DASHED
 10
44212.37045137268
 20
46588.50931616347
 30
0.0
 40
500.0
 50
0.0
 51
90.0
  0
ARC
  8
DIK
  6
DASHED
 10
44212.37045137268
 20
42488.50931616348
 30
0.0
 40
500.0
 50
270.0
 51
0.0
  0
ARC
  8
DIK
  6
DASHED
 10
37232.37045137269
 20
42488.50931616348
 30
0.0
 40
500.0
 50
180.0
 51
270.0
  0
ARC
  8
DIK
  6
DASHED
 10
37232.37045137268
 20
46588.50931616347
 30
0.0
 40
500.0
 50
90.0
 51
180.0
  0
POLYLINE
  8
DUN
 66
     1
 10
0.0
 20
0.0
 30
0.0
 70
     1
  0
VERTEX
  8
DUN
 10
36313.62476294596
 20
47758.39918209797
 30
0.0
  0
VERTEX
  8
DUN
 10
36313.62476294596
 20
40178.21377639453
 30
0.0
  0
VERTEX
  8
DUN
 10
45573.75935590491
 20
40178.21377639453
 30
0.0
  0
VERTEX
  8
DUN
 10
45573.75935590491
 20
47758.39918209797
 30
0.0
  0
SEQEND
  8
DUN
  0
DIMENSION
  8
DUN
  2
*D42
 10
44712.37045137268
 20
41243.29335851303
 30
0.0
 11
40722.37045137268
 21
41323.29335851303
 31
0.0
 12
11068.57457453656
 22
17686.04901289893
 32
0.0
 13
36732.37045137268
 23
41988.50931616348
 33
0.0
 14
44712.37045137268
 24
41988.50931616348
 34
0.0
  3
STANDAARD
  0
DIMENSION
  8
DUN
  2
*D41
 10
45231.08045013874
 20
47088.50931616348
 30
0.0
 11
45151.08045013874
 21
44538.50931616348
 31
0.0
 12
11068.57457453656
 22
17686.04901289893
 32
0.0
 13
45212.3704513727
 23
41988.50931616349
 33
0.0
 14
45212.3704513727
 24
47088.50931616348
 34
0.0
 50
90.0
  3
STANDAARD
  0
LINE
  8
DUN
 10
45112.3704513727
 20
41988.50931616348
 30
0.0
 11
45312.37045137269
 21
41988.50931616349
 31
0.0
  0
LINE
  8
DUN
 10
45112.3704513727
 20
47088.50931616348
 30
0.0
 11
45312.37045137269
 21
47088.50931616348
 31
0.0
  0
DIMENSION
  8
DUN
  2
*D40
 10
45023.14580922857
 20
46113.50931616348
 30
0.0
 11
44943.14580922857
 21
44538.50931616348
 31
0.0
 12
11068.57457453656
 22
17686.04901289893
 32
0.0
 13
45012.3704513727
 23
42963.50931616347
 33
0.0
 14
45012.3704513727
 24
46113.50931616348
 34
0.0
 50
90.0
  3
STANDAARD
  0
LINE
  8
DUN
 10
44912.37045137268
 20
42963.50931616347
 30
0.0
 11
45112.3704513727
 21
42963.50931616348
 31
0.0
  0
LINE
  8
DUN
 10
44912.37045137268
 20
46113.50931616348
 30
0.0
 11
45112.3704513727
 21
46113.50931616348
 31
0.0
  0
LINE
  8
DIK
  6
DASHED
 10
44212.37045137268
 20
41988.50931616348
 30
0.0
 11
37232.37045137269
 21
41988.50931616348
 31
0.0
  0
LINE
  8
DIK
  6
DASHED
 10
44712.37045137268
 20
46588.50931616347
 30
0.0
 11
44712.37045137268
 21
42488.50931616348
 31
0.0
  0
LINE
  8
DIK
  6
DASHED
 10
37232.37045137268
 20
47088.50931616348
 30
0.0
 11
44212.37045137268
 21
47088.50931616348
 31
0.0
  0
LINE
  8
DIK
  6
DASHED
 10
36732.37045137269
 20
42488.50931616348
 30
0.0
 11
36732.37045137268
 21
46588.50931616347
 31
0.0
  0
TEXT
  8
DUN
 10
38131.29304223059
 20
40503.39846431577
 30
0.0
 40
200.0
  1
Obstakelvrijeruimte
  7
ROMANS
  0
TEXT
  8
DUN
 10
38210.8989548121
 20
32200.60070369698
 30
0.0
 40
200.0
  1
Valdempende ondergrond
  7
ROMANS
  0
TEXT
  8
DUN
 10
38172.37992403711
 20
24312.81435947616
 30
0.0
 40
200.0
  1
rubbertegels 1mx1m
  7
ROMANS
  0
POLYLINE
  8
STREEPLIJN
 66
     1
 10
0.0
 20
0.0
 30
0.0
 70
     1
  0
VERTEX
  8
STREEPLIJN
 10
37006.14629365369
 20
33153.16284231617
 30
0.0
  0
VERTEX
  8
STREEPLIJN
 10
37006.14629365369
 20
32153.16284231619
 30
0.0
  0
VERTEX
  8
STREEPLIJN
 10
38006.14629365369
 20
32153.16284231619
 30
0.0
  0
VERTEX
  8
STREEPLIJN
 10
38006.14629365369
 20
33153.16284231617
 30
0.0
  0
SEQEND
  8
STREEPLIJN
  0
POLYLINE
  8
STREEPLIJN
 66
     1
 10
0.0
 20
0.0
 30
0.0
 70
     1
  0
VERTEX
  8
STREEPLIJN
 10
37006.14629365369
 20
25246.55125802577
 30
0.0
  0
VERTEX
  8
STREEPLIJN
 10
37006.14629365369
 20
24246.55125802579
 30
0.0
  0
VERTEX
  8
STREEPLIJN
 10
38006.14629365369
 20
24246.55125802579
 30
0.0
  0
VERTEX
  8
STREEPLIJN
 10
38006.14629365369
 20
25246.55125802577
 30
0.0
  0
SEQEND
  8
STREEPLIJN
  0
INSERT
  8
STREEPLIJN
  2
*X43
 10
0.0
 20
0.0
 30
0.0
1001
ACAD
1000
HATCH
1002
{
1070
    16
1000
ANSI31
1040
40.0
1040
0.0
1002
}
  0
ENDBLK
  8
0
  0
BLOCK
  8
0
  2
ACAD1B78
 70
     0
 10
0.0
 20
0.0
 30
0.0
  3
ACAD1B78
  0
INSERT
  8
DUN
 66
     1
  2
A4S
 10
17969.1431073978
 20
2957.184935128287
 30
0.0
 41
40.0
 42
40.0
 43
40.0
  0
ATTRIB
  8
DUN
 10
23883.76995971598
 20
3854.545270886855
 30
0.0
 40
100.0
  1
1:40
  2
SCHAAL
 70
     0
  7
ROMANS
  0
ATTRIB
  8
DUN
 10
23794.59821165158
 20
3305.189481450769
 30
0.0
 40
100.0
  1
april 1997
  2
DATUM
 70
     0
  7
ROMANS
  0
ATTRIB
  8
DUN
 10
24226.96070961011
 20
3028.560632119887
 30
0.0
 40
100.0
  1
S. van Leeuwen
  2
GETEKEND
 70
     0
  7
ROMANS
  0
ATTRIB
  8
DUN
 10
24295.00312044282
 20
3585.062993588916
 30
0.0
 40
100.0
  1
mm
  2
MAATEENHEID
 70
     0
  7
ROMANS
  0
ATTRIB
  8
DUN
 10
18888.74378323435
 20
3874.628173564095
 30
0.0
 40
100.0
  1
Obstakelvrije-ruimte ANEMONE
  2
BENAMING
 70
     0
  7
ROMANS
  0
ATTRIB
  8
DUN
 10
21076.81092336596
 20
3106.699637581594
 30
0.0
 40
100.0
  1
AK 731
  2
TEK.NR.
 70
     0
  7
ROMANS
  0
SEQEND
  8
DUN
  0
DIMENSION
  8
DUN
  2
*D31
 10
21920.39984446363
 20
4818.918734503893
 30
0.0
 11
21840.39984446363
 21
5818.918734503893
 31
0.0
 12
21118.93523406079
 22
9300.663864716559
 32
0.0
 13
21914.6995055326
 23
6818.918734503893
 33
0.0
 14
21940.35112588606
 24
4818.918734503893
 34
0.0
 50
90.0
  3
STANDAARD
  0
DIMENSION
  8
DUN
  2
*D33
 10
24669.23678582999
 20
4818.918734503893
 30
0.0
 11
24589.23678582999
 21
8544.168734503891
 31
0.0
 13
23947.35248426107
 23
12269.41873450388
 33
0.0
 14
23104.78348420327
 24
4818.918734503893
 34
0.0
 50
90.0
  3
STANDAARD
  0
LINE
  8
DIK
 10
20651.57813251509
 20
8252.994512118004
 30
0.0
 11
20651.57813251509
 21
5619.418734503892
 31
0.0
  0
LINE
  8
DIK
 10
23171.57813251509
 20
8252.994512118039
 30
0.0
 11
23171.57813251509
 21
5619.418734503891
 31
0.0
  0
LINE
  8
DIK
 10
21651.57813251509
 20
9549.418734503889
 30
0.0
 11
21651.57813251509
 21
6768.918734503892
 31
0.0
  0
LINE
  8
DIK
 10
22171.57813251509
 20
9549.418734503889
 30
0.0
 11
22171.57813251509
 21
6768.918734503892
 31
0.0
  0
LINE
  8
DIK
 10
21701.57813251509
 20
9549.418734503889
 30
0.0
 11
21701.57813251509
 21
6768.918734503892
 31
0.0
  0
LINE
  8
DIK
 10
22121.57813251509
 20
9549.418734503889
 30
0.0
 11
22121.57813251509
 21
6768.918734503892
 31
0.0
  0
DIMENSION
  8
DUN
  2
*D30
 10
20651.57813251509
 20
4524.343558120358
 30
0.0
 11
21911.57813251509
 21
4604.343558120358
 31
0.0
 12
21118.93523406079
 22
9475.057133380067
 32
0.0
 13
23171.57813251509
 23
6110.541139725922
 33
0.0
 14
20651.57813251509
 24
6209.67846620544
 34
0.0
  3
STANDAARD
  0
LINE
  8
STREEPLIJN
 10
21654.50662297535
 20
4818.113540323165
 30
0.0
 11
20654.50662297535
 21
4818.113540323165
 31
0.0
  0
ARC
  8
DIK
 10
21654.50662297535
 20
5818.113540323166
 30
0.0
 40
1000.0
 50
180.0
 51
270.0
  0
LINE
  8
STREEPLIJN
 10
20651.57813251508
 20
5953.189197915397
 30
0.0
 11
20651.57813251508
 21
4893.812003167398
 31
0.0
  0
ARC
  8
DIK
 10
22174.50662297535
 20
5818.113540323165
 30
0.0
 40
1000.0
 50
270.0
 51
0.0
  0
LINE
  8
STREEPLIJN
 10
22174.50662297534
 20
4818.113540323165
 30
0.0
 11
23174.50662297535
 21
4818.113540323165
 31
0.0
  0
LINE
  8
DIK
 10
22121.57813251509
 20
4818.918734503893
 30
0.0
 11
21701.57813251508
 21
4818.918734503893
 31
0.0
  0
LINE
  8
DIK
 10
22118.80625685465
 20
4818.918734503893
 30
0.0
 11
21698.80625685465
 21
4818.918734503893
 31
0.0
  0
LINE
  8
DIK
 10
22118.80625685465
 20
4818.918734503893
 30
0.0
 11
21698.80625685465
 21
4818.918734503893
 31
0.0
  0
LINE
  8
DIK
 10
22174.50662297534
 20
4818.113540323165
 30
0.0
 11
21654.50662297534
 21
4818.113540323168
 31
0.0
  0
LINE
  8
DIK
 10
21701.57813251509
 20
6768.918734503892
 30
0.0
 11
21651.57813251509
 21
6768.918734503892
 31
0.0
  0
LINE
  8
DIK
 10
22171.57813251509
 20
6768.918734503892
 30
0.0
 11
22121.57813251509
 21
6768.918734503892
 31
0.0
  0
LINE
  8
STREEPLIJN
 10
23171.57813251509
 20
5953.189197915397
 30
0.0
 11
23171.57813251509
 21
4893.812003167398
 31
0.0
  0
TEXT
  8
DIK
 10
18277.13352821414
 20
13183.00695056774
 30
0.0
 40
100.0
  1
Veilige ondergrond in het gearceerde gedeelte.
  7
ROMANS
  0
LINE
  8
DIK
 10
20651.57813251509
 20
8252.994512118023
 30
0.0
 11
21651.57813251509
 21
8252.994512118023
 31
0.0
  0
DIMENSION
  8
DUN
  2
*D29
 10
20651.57813251509
 20
7070.719744127971
 30
0.0
 11
21151.57813251509
 21
7150.719744127971
 31
0.0
 12
21118.93523406079
 22
9300.663864716559
 32
0.0
 13
21651.57813251509
 23
7280.00968311806
 33
0.0
 14
20651.57813251509
 24
7268.994424620336
 34
0.0
  3
STANDAARD
  0
DIMENSION
  8
DUN
  2
*D35
 10
24011.57813251509
 20
12569.7680862713
 30
0.0
 11
21911.57813251508
 21
12649.7680862713
 31
0.0
 13
19811.57813251509
 23
10421.24626046339
 33
0.0
 14
24011.57813251509
 24
10387.80932693116
 34
0.0
  3
STANDAARD
  0
LINE
  8
STREEPLIJN
 10
21546.95216642195
 20
12269.41873450389
 30
0.0
 11
19811.57813251509
 21
12269.41873450389
 31
0.0
  0
ARC
  8
DIK
 10
21511.57813251509
 20
10569.41873450389
 30
0.0
 40
1700.0
 50
90.0
 51
180.0
  0
DIMENSION
  8
DUN
  2
*D27
 10
19811.57813251509
 20
10164.89645597989
 30
0.0
 11
20561.57813251509
 21
10244.89645597989
 31
0.0
 12
21168.93523406079
 22
9300.663864716559
 32
0.0
 13
21311.57813251509
 23
10122.10515186509
 33
0.0
 14
19811.57813251509
 24
10201.10448550219
 34
0.0
  3
STANDAARD
  0
LINE
  8
STREEPLIJN
 10
19811.57813251509
 20
10490.59669943615
 30
0.0
 11
19811.57813251509
 21
12269.41873450389
 31
0.0
  0
ARC
  8
DIK
 10
21511.57813251509
 20
9719.418734503889
 30
0.0
 40
1700.0
 50
180.0
 51
239.610057550673
  0
LINE
  8
STREEPLIJN
 10
19811.57813251509
 20
9848.240769571624
 30
0.0
 11
19811.57813251509
 21
8252.994512118023
 31
0.0
  0
LINE
  8
STREEPLIJN
 10
20701.57813251509
 20
8252.994512118025
 30
0.0
 11
19811.57813251509
 21
8252.994512118023
 31
0.0
  0
LINE
  8
DIK
 10
19811.57813251509
 20
10619.41873450389
 30
0.0
 11
19811.57813251509
 21
9719.418734503889
 31
0.0
  0
DIMENSION
  8
DUN
  2
*D34
 10
24363.5558379434
 20
8252.994512118023
 30
0.0
 11
24283.5558379434
 21
10261.20662331095
 31
0.0
 13
23892.99368944891
 23
12269.41873450388
 33
0.0
 14
23916.98324248612
 24
8252.994512118023
 34
0.0
 50
90.0
  3
STANDAARD
  0
ARC
  8
DIK
 10
22311.57813251509
 20
10569.41873450389
 30
0.0
 40
1700.0
 50
0.0
 51
90.0
  0
LINE
  8
STREEPLIJN
 10
24011.57813251509
 20
10490.59669943615
 30
0.0
 11
24011.57813251509
 21
12269.41873450388
 31
0.0
  0
DIMENSION
  8
DUN
  2
*D28
 10
21805.04240931767
 20
12269.41873450388
 30
0.0
 11
21725.04240931767
 21
11519.41873450389
 31
0.0
 12
21162.99784788534
 22
9250.66386471656
 32
0.0
 13
21325.62050067778
 23
10769.41873450389
 33
0.0
 14
21859.04323187276
 24
12269.41873450388
 34
0.0
 50
90.0
  3
STANDAARD
  0
LINE
  8
STREEPLIJN
 10
24011.57813251509
 20
9848.240769571624
 30
0.0
 11
24011.57813251509
 21
8224.795036043303
 31
0.0
  0
ARC
  8
DIK
 10
22311.57813251509
 20
9719.418734503893
 30
0.0
 40
1700.0
 50
300.389942449328
 51
0.0
  0
LINE
  8
DIK
 10
22171.57813251509
 20
8252.994512118023
 30
0.0
 11
23171.57813251509
 21
8252.994512118025
 31
0.0
  0
LINE
  8
DIK
 10
22121.57813251509
 20
6818.918734503893
 30
0.0
 11
21701.57813251509
 21
6818.918734503893
 31
0.0
  0
DIMENSION
  8
DUN
  2
*D32
 10
24011.57813251509
 20
7819.757459639864
 30
0.0
 11
23591.57813251509
 21
7899.757459639863
 31
0.0
 13
23171.57813251509
 23
7819.757459639864
 33
0.0
 14
24011.57813251509
 24
8381.164472108125
 34
0.0
  3
STANDAARD
  0
LINE
  8
STREEPLIJN
 10
23171.57813251509
 20
8252.994512118023
 30
0.0
 11
24061.57813251509
 21
8252.994512118023
 31
0.0
  0
POLYLINE
  8
DIK
 66
     1
 10
0.0
 20
0.0
 30
0.0
  0
VERTEX
  8
DIK
 10
22511.57813251509
 20
10819.41873450389
 30
0.0
  0
VERTEX
  8
DIK
 10
22561.57813251509
 20
10819.41873450389
 30
0.0
  0
VERTEX
  8
DIK
 10
22561.57813251509
 20
9519.41873450389
 30
0.0
  0
VERTEX
  8
DIK
 10
22511.57813251509
 20
9519.418734503892
 30
0.0
  0
SEQEND
  8
DIK
  0
POLYLINE
  8
DIK
 66
     1
 10
0.0
 20
0.0
 30
0.0
  0
VERTEX
  8
DIK
 10
21261.57813251509
 20
9519.41873450389
 30
0.0
  0
VERTEX
  8
DIK
 10
21261.57813251509
 20
10819.41873450389
 30
0.0
  0
VERTEX
  8
DIK
 10
21296.57813251509
 20
10819.41873450389
 30
0.0
  0
SEQEND
  8
DIK
  0
LINE
  8
DIK
 10
22511.57813251509
 20
10819.41873450389
 30
0.0
 11
22511.57813251509
 21
9519.41873450389
 31
0.0
  0
LINE
  8
DIK
 10
21311.57813251509
 20
9519.41873450389
 30
0.0
 11
21311.57813251509
 21
10819.41873450389
 31
0.0
  0
LINE
  8
DIK
 10
22511.57813251509
 20
9549.418734503889
 30
0.0
 11
21311.57813251509
 21
9549.418734503889
 31
0.0
  0
POLYLINE
  8
STREEPLIJN
 66
     1
 10
0.0
 20
0.0
 30
0.0
 70
     1
  0
VERTEX
  8
STREEPLIJN
 10
21311.57813251509
 20
9569.418734503893
 30
0.0
  0
VERTEX
  8
STREEPLIJN
 10
21311.57813251509
 20
9669.418734503892
 30
0.0
  0
VERTEX
  8
STREEPLIJN
 10
21411.57813251509
 20
9669.418734503892
 30
0.0
  0
VERTEX
  8
STREEPLIJN
 10
21411.57813251509
 20
9569.418734503893
 30
0.0
  0
SEQEND
  8
STREEPLIJN
  0
TEXT
  8
DIK
 10
21114.10699222011
 20
9429.109193188864
 30
0.0
 40
100.0
  1
2
  7
ROMANS
  0
POLYLINE
  8
DIK
 66
     1
 10
0.0
 20
0.0
 30
0.0
  0
VERTEX
  8
DIK
 10
21311.57813251509
 20
9519.41873450389
 30
0.0
  0
VERTEX
  8
DIK
 10
21261.57813251509
 20
9519.41873450389
 30
0.0
  0
SEQEND
  8
DIK
  0
TEXT
  8
DIK
 10
22553.3160494282
 20
9407.964231532139
 30
0.0
 40
100.0
  1
1
  7
ROMANS
  0
POLYLINE
  8
STREEPLIJN
 66
     1
 10
0.0
 20
0.0
 30
0.0
 70
     1
  0
VERTEX
  8
STREEPLIJN
 10
22411.57813251509
 20
9569.418734503893
 30
0.0
  0
VERTEX
  8
STREEPLIJN
 10
22411.57813251509
 20
9669.418734503892
 30
0.0
  0
VERTEX
  8
STREEPLIJN
 10
22511.57813251509
 20
9669.418734503892
 30
0.0
  0
VERTEX
  8
STREEPLIJN
 10
22511.57813251509
 20
9569.418734503893
 30
0.0
  0
SEQEND
  8
STREEPLIJN
  0
POLYLINE
  8
DIK
 66
     1
 10
0.0
 20
0.0
 30
0.0
 70
     1
  0
VERTEX
  8
DIK
 10
22091.09680028939
 20
10142.52800376497
 30
0.0
 42
-0.168849830484
  0
VERTEX
  8
DIK
 10
22093.13956848871
 20
10148.40461119305
 30
0.0
 42
-0.105184028713
  0
VERTEX
  8
DIK
 10
22098.31114254314
 20
10152.69128072635
 30
0.0
 42
-0.067315372571
 70
     2
 50
27.645975363739
  0
VERTEX
  8
DIK
 10
22104.27022668681
 20
10154.85359543492
 30
0.0
 42
-0.053465209097
  0
VERTEX
  8
DIK
 10
22111.57813251509
 20
10155.63727302605
 30
0.0
 42
-0.053465209097
  0
VERTEX
  8
DIK
 10
22118.88603834336
 20
10154.85359543492
 30
0.0
 42
-0.067315372571
  0
VERTEX
  8
DIK
 10
22124.84512248704
 20
10152.69128072635
 30
0.0
 42
-0.105184028713
 70
     2
 50
332.354024636262
  0
VERTEX
  8
DIK
 10
22130.01669654147
 20
10148.40461119305
 30
0.0
 42
-0.168849830484
  0
VERTEX
  8
DIK
 10
22132.05946474079
 20
10142.52800376497
 30
0.0
 42
-0.168849830484
  0
VERTEX
  8
DIK
 10
22130.01669654147
 20
10136.65139633688
 30
0.0
 42
-0.105184028713
  0
VERTEX
  8
DIK
 10
22124.84512248704
 20
10132.36472680359
 30
0.0
 42
-0.067315372571
 70
     2
 50
207.645975363739
  0
VERTEX
  8
DIK
 10
22118.88603834335
 20
10130.20241209502
 30
0.0
 42
-0.053465209097
  0
VERTEX
  8
DIK
 10
22111.57813251509
 20
10129.41873450389
 30
0.0
 42
-0.053465209097
  0
VERTEX
  8
DIK
 10
22104.27022668682
 20
10130.20241209502
 30
0.0
 42
-0.067315372571
  0
VERTEX
  8
DIK
 10
22098.31114254314
 20
10132.36472680359
 30
0.0
 42
-0.105184028713
 70
     2
 50
152.354024636262
  0
VERTEX
  8
DIK
 10
22093.13956848871
 20
10136.65139633688
 30
0.0
 42
-0.168849830484
  0
SEQEND
  8
DIK
  0
POLYLINE
  8
DIK
 66
     1
 10
0.0
 20
0.0
 30
0.0
 70
     1
  0
VERTEX
  8
DIK
 10
22096.09680028938
 20
10138.10623858405
 30
0.0
 42
-0.168849830484
  0
VERTEX
  8
DIK
 10
22097.06150586834
 20
10140.88149031016
 30
0.0
 42
-0.105184028713
  0
VERTEX
  8
DIK
 10
22100.6311775165
 20
10143.84035786903
 30
0.0
 42
-0.067315372571
 70
     2
 50
27.645975363739
  0
VERTEX
  8
DIK
 10
22105.33040447227
 20
10145.54552049476
 30
0.0
 42
-0.053465209097
  0
VERTEX
  8
DIK
 10
22111.57813251509
 20
10146.21550784513
 30
0.0
 42
-0.053465209097
  0
VERTEX
  8
DIK
 10
22117.8258605579
 20
10145.54552049476
 30
0.0
 42
-0.067315372571
  0
VERTEX
  8
DIK
 10
22122.52508751368
 20
10143.84035786903
 30
0.0
 42
-0.105184028713
 70
     2
 50
332.354024636262
  0
VERTEX
  8
DIK
 10
22126.09475916184
 20
10140.88149031016
 30
0.0
 42
-0.168849830484
  0
VERTEX
  8
DIK
 10
22127.05946474079
 20
10138.10623858405
 30
0.0
 42
-0.168849830484
  0
VERTEX
  8
DIK
 10
22126.09475916184
 20
10135.33098685795
 30
0.0
 42
-0.105184028713
  0
VERTEX
  8
DIK
 10
22122.52508751368
 20
10132.37211929908
 30
0.0
 42
-0.067315372571
 70
     2
 50
207.645975363739
  0
VERTEX
  8
DIK
 10
22117.8258605579
 20
10130.66695667335
 30
0.0
 42
-0.053465209097
  0
VERTEX
  8
DIK
 10
22111.57813251509
 20
10129.99696932297
 30
0.0
 42
-0.053465209097
  0
VERTEX
  8
DIK
 10
22105.33040447227
 20
10130.66695667335
 30
0.0
 42
-0.067315372571
  0
VERTEX
  8
DIK
 10
22100.6311775165
 20
10132.37211929908
 30
0.0
 42
-0.105184028713
 70
     2
 50
152.354024636262
  0
VERTEX
  8
DIK
 10
22097.06150586834
 20
10135.33098685795
 30
0.0
 42
-0.168849830484
  0
SEQEND
  8
DIK
  0
POLYLINE
  8
DIK
 66
     1
 10
0.0
 20
0.0
 30
0.0
 70
     1
  0
VERTEX
  8
DIK
 10
22096.09680028938
 20
10200.73123042372
 30
0.0
 42
0.168849830484
  0
VERTEX
  8
DIK
 10
22097.06150586834
 20
10197.95597869762
 30
0.0
 42
0.105184028713
  0
VERTEX
  8
DIK
 10
22100.6311775165
 20
10194.99711113874
 30
0.0
 42
0.067315372571
 70
     2
 50
332.354024636261
  0
VERTEX
  8
DIK
 10
22105.33040447227
 20
10193.29194851301
 30
0.0
 42
0.053465209097
 50
332.354024636261
  0
VERTEX
  8
DIK
 10
22111.57813251509
 20
10192.62196116264
 30
0.0
 42
0.053465209097
  0
VERTEX
  8
DIK
 10
22117.8258605579
 20
10193.29194851301
 30
0.0
 42
0.067315372571
  0
VERTEX
  8
DIK
 10
22122.52508751368
 20
10194.99711113874
 30
0.0
 42
0.105184028713
 70
     2
 50
27.645975363739
  0
VERTEX
  8
DIK
 10
22126.09475916184
 20
10197.95597869762
 30
0.0
 42
0.168849830484
 50
27.645975363739
  0
VERTEX
  8
DIK
 10
22127.05946474079
 20
10200.73123042372
 30
0.0
 42
0.168849830484
  0
VERTEX
  8
DIK
 10
22126.09475916184
 20
10203.50648214982
 30
0.0
 42
0.105184028713
  0
VERTEX
  8
DIK
 10
22122.52508751368
 20
10206.4653497087
 30
0.0
 42
0.067315372571
 70
     2
 50
152.354024636261
  0
VERTEX
  8
DIK
 10
22117.8258605579
 20
10208.17051233443
 30
0.0
 42
0.053465209097
 50
152.354024636261
  0
VERTEX
  8
DIK
 10
22111.57813251509
 20
10208.8404996848
 30
0.0
 42
0.053465209097
  0
VERTEX
  8
DIK
 10
22105.33040447227
 20
10208.17051233443
 30
0.0
 42
0.067315372571
  0
VERTEX
  8
DIK
 10
22100.6311775165
 20
10206.4653497087
 30
0.0
 42
0.105184028713
 70
     2
 50
207.645975363739
  0
VERTEX
  8
DIK
 10
22097.06150586834
 20
10203.50648214982
 30
0.0
 42
0.168849830484
 50
207.645975363739
  0
SEQEND
  8
DIK
  0
POLYLINE
  8
DIK
 66
     1
 10
0.0
 20
0.0
 30
0.0
 70
     1
  0
VERTEX
  8
DIK
 10
22091.09680028939
 20
10196.3094652428
 30
0.0
 42
0.168849830484
  0
VERTEX
  8
DIK
 10
22093.13956848871
 20
10190.43285781472
 30
0.0
 42
0.105184028713
  0
VERTEX
  8
DIK
 10
22098.31114254314
 20
10186.14618828143
 30
0.0
 42
0.067315372571
 70
     2
 50
332.354024636261
  0
VERTEX
  8
DIK
 10
22104.27022668681
 20
10183.98387357286
 30
0.0
 42
0.053465209097
 50
332.354024636261
  0
VERTEX
  8
DIK
 10
22111.57813251509
 20
10183.20019598172
 30
0.0
 42
0.053465209097
  0
VERTEX
  8
DIK
 10
22118.88603834336
 20
10183.98387357286
 30
0.0
 42
0.067315372571
  0
VERTEX
  8
DIK
 10
22124.84512248704
 20
10186.14618828143
 30
0.0
 42
0.105184028713
 70
     2
 50
27.645975363739
  0
VERTEX
  8
DIK
 10
22130.01669654147
 20
10190.43285781472
 30
0.0
 42
0.168849830484
 50
27.645975363739
  0
VERTEX
  8
DIK
 10
22132.05946474079
 20
10196.3094652428
 30
0.0
 42
0.168849830484
  0
VERTEX
  8
DIK
 10
22130.01669654147
 20
10202.18607267089
 30
0.0
 42
0.105184028713
  0
VERTEX
  8
DIK
 10
22124.84512248704
 20
10206.47274220418
 30
0.0
 42
0.067315372571
 70
     2
 50
152.354024636261
  0
VERTEX
  8
DIK
 10
22118.88603834335
 20
10208.63505691275
 30
0.0
 42
0.053465209097
 50
152.354024636261
  0
VERTEX
  8
DIK
 10
22111.57813251509
 20
10209.41873450389
 30
0.0
 42
0.053465209097
  0
VERTEX
  8
DIK
 10
22104.27022668682
 20
10208.63505691275
 30
0.0
 42
0.067315372571
  0
VERTEX
  8
DIK
 10
22098.31114254314
 20
10206.47274220418
 30
0.0
 42
0.105184028713
 70
     2
 50
207.645975363739
  0
VERTEX
  8
DIK
 10
22093.13956848871
 20
10202.18607267089
 30
0.0
 42
0.168849830484
 50
207.645975363739
  0
SEQEND
  8
DIK
  0
LINE
  8
DIK
 10
21311.57813251509
 20
10789.41873450389
 30
0.0
 11
22511.57813251509
 21
10789.41873450389
 31
0.0
  0
LINE
  8
DIK
 10
22511.57813251509
 20
10129.41873450389
 30
0.0
 11
21311.57813251509
 21
10129.41873450388
 31
0.0
  0
LINE
  8
DIK
 10
22511.57813251509
 20
10209.41873450389
 30
0.0
 11
21311.57813251509
 21
10209.41873450389
 31
0.0
  0
LINE
  8
DIK
 10
22561.57813251509
 20
10169.41873450389
 30
0.0
 11
21261.57813251509
 21
10169.41873450389
 31
0.0
  0
POLYLINE
  8
DIK
 66
     1
 10
0.0
 20
0.0
 30
0.0
 70
     1
  0
VERTEX
  8
DIK
 10
21357.05946474079
 20
10142.52800376497
 30
0.0
 42
0.168849830484
  0
VERTEX
  8
DIK
 10
21355.01669654147
 20
10148.40461119305
 30
0.0
 42
0.105184028713
  0
VERTEX
  8
DIK
 10
21349.84512248703
 20
10152.69128072635
 30
0.0
 42
0.067315372571
 70
     2
 50
152.354024636261
  0
VERTEX
  8
DIK
 10
21343.88603834336
 20
10154.85359543492
 30
0.0
 42
0.053465209097
  0
VERTEX
  8
DIK
 10
21336.57813251509
 20
10155.63727302605
 30
0.0
 42
0.053465209097
  0
VERTEX
  8
DIK
 10
21329.27022668682
 20
10154.85359543492
 30
0.0
 42
0.067315372571
  0
VERTEX
  8
DIK
 10
21323.31114254314
 20
10152.69128072635
 30
0.0
 42
0.105184028713
 70
     2
 50
207.645975363739
  0
VERTEX
  8
DIK
 10
21318.1395684887
 20
10148.40461119306
 30
0.0
 42
0.168849830484
  0
VERTEX
  8
DIK
 10
21316.09680028939
 20
10142.52800376497
 30
0.0
 42
0.168849830484
  0
VERTEX
  8
DIK
 10
21318.1395684887
 20
10136.65139633688
 30
0.0
 42
0.105184028713
  0
VERTEX
  8
DIK
 10
21323.31114254314
 20
10132.36472680359
 30
0.0
 42
0.067315372571
 70
     2
 50
332.354024636261
  0
VERTEX
  8
DIK
 10
21329.27022668682
 20
10130.20241209502
 30
0.0
 42
0.053465209097
  0
VERTEX
  8
DIK
 10
21336.57813251509
 20
10129.41873450389
 30
0.0
 42
0.053465209097
  0
VERTEX
  8
DIK
 10
21343.88603834335
 20
10130.20241209502
 30
0.0
 42
0.067315372571
  0
VERTEX
  8
DIK
 10
21349.84512248703
 20
10132.36472680359
 30
0.0
 42
0.105184028713
 70
     2
 50
27.645975363739
  0
VERTEX
  8
DIK
 10
21355.01669654147
 20
10136.65139633688
 30
0.0
 42
0.168849830484
  0
SEQEND
  8
DIK
  0
POLYLINE
  8
DIK
 66
     1
 10
0.0
 20
0.0
 30
0.0
 70
     1
  0
VERTEX
  8
DIK
 10
21352.05946474079
 20
10138.10623858405
 30
0.0
 42
0.168849830484
  0
VERTEX
  8
DIK
 10
21351.09475916184
 20
10140.88149031016
 30
0.0
 42
0.105184028713
  0
VERTEX
  8
DIK
 10
21347.52508751368
 20
10143.84035786904
 30
0.0
 42
0.067315372571
 70
     2
 50
152.354024636261
  0
VERTEX
  8
DIK
 10
21342.8258605579
 20
10145.54552049476
 30
0.0
 42
0.053465209097
  0
VERTEX
  8
DIK
 10
21336.57813251509
 20
10146.21550784514
 30
0.0
 42
0.053465209097
  0
VERTEX
  8
DIK
 10
21330.33040447227
 20
10145.54552049476
 30
0.0
 42
0.067315372571
  0
VERTEX
  8
DIK
 10
21325.63117751649
 20
10143.84035786904
 30
0.0
 42
0.105184028713
 70
     2
 50
207.645975363739
  0
VERTEX
  8
DIK
 10
21322.06150586834
 20
10140.88149031016
 30
0.0
 42
0.168849830484
  0
VERTEX
  8
DIK
 10
21321.09680028939
 20
10138.10623858405
 30
0.0
 42
0.168849830484
  0
VERTEX
  8
DIK
 10
21322.06150586834
 20
10135.33098685795
 30
0.0
 42
0.105184028713
  0
VERTEX
  8
DIK
 10
21325.63117751649
 20
10132.37211929908
 30
0.0
 42
0.067315372571
 70
     2
 50
332.354024636261
  0
VERTEX
  8
DIK
 10
21330.33040447227
 20
10130.66695667335
 30
0.0
 42
0.053465209097
  0
VERTEX
  8
DIK
 10
21336.57813251509
 20
10129.99696932298
 30
0.0
 42
0.053465209097
  0
VERTEX
  8
DIK
 10
21342.8258605579
 20
10130.66695667335
 30
0.0
 42
0.067315372571
  0
VERTEX
  8
DIK
 10
21347.52508751368
 20
10132.37211929908
 30
0.0
 42
0.105184028713
 70
     2
 50
27.645975363739
  0
VERTEX
  8
DIK
 10
21351.09475916184
 20
10135.33098685796
 30
0.0
 42
0.168849830484
  0
SEQEND
  8
DIK
  0
POLYLINE
  8
DIK
 66
     1
 10
0.0
 20
0.0
 30
0.0
 70
     1
  0
VERTEX
  8
DIK
 10
21696.09680028939
 20
10138.10623858405
 30
0.0
 42
-0.168849830484
  0
VERTEX
  8
DIK
 10
21697.06150586834
 20
10140.88149031015
 30
0.0
 42
-0.105184028713
  0
VERTEX
  8
DIK
 10
21700.6311775165
 20
10143.84035786903
 30
0.0
 42
-0.067315372571
 70
     2
 50
27.645975363739
  0
VERTEX
  8
DIK
 10
21705.33040447227
 20
10145.54552049476
 30
0.0
 42
-0.053465209097
  0
VERTEX
  8
DIK
 10
21711.57813251509
 20
10146.21550784513
 30
0.0
 42
-0.053465209097
  0
VERTEX
  8
DIK
 10
21717.8258605579
 20
10145.54552049476
 30
0.0
 42
-0.067315372571
  0
VERTEX
  8
DIK
 10
21722.52508751368
 20
10143.84035786903
 30
0.0
 42
-0.105184028713
 70
     2
 50
332.354024636262
  0
VERTEX
  8
DIK
 10
21726.09475916184
 20
10140.88149031015
 30
0.0
 42
-0.168849830484
  0
VERTEX
  8
DIK
 10
21727.05946474079
 20
10138.10623858405
 30
0.0
 42
-0.168849830484
  0
VERTEX
  8
DIK
 10
21726.09475916184
 20
10135.33098685795
 30
0.0
 42
-0.105184028713
  0
VERTEX
  8
DIK
 10
21722.52508751368
 20
10132.37211929908
 30
0.0
 42
-0.067315372571
 70
     2
 50
207.645975363739
  0
VERTEX
  8
DIK
 10
21717.8258605579
 20
10130.66695667334
 30
0.0
 42
-0.053465209097
  0
VERTEX
  8
DIK
 10
21711.57813251509
 20
10129.99696932297
 30
0.0
 42
-0.053465209097
  0
VERTEX
  8
DIK
 10
21705.33040447227
 20
10130.66695667334
 30
0.0
 42
-0.067315372571
  0
VERTEX
  8
DIK
 10
21700.6311775165
 20
10132.37211929908
 30
0.0
 42
-0.105184028713
 70
     2
 50
152.354024636262
  0
VERTEX
  8
DIK
 10
21697.06150586834
 20
10135.33098685795
 30
0.0
 42
-0.168849830484
  0
SEQEND
  8
DIK
  0
POLYLINE
  8
DIK
 66
     1
 10
0.0
 20
0.0
 30
0.0
 70
     1
  0
VERTEX
  8
DIK
 10
21691.09680028939
 20
10142.52800376497
 30
0.0
 42
-0.168849830484
  0
VERTEX
  8
DIK
 10
21693.13956848871
 20
10148.40461119305
 30
0.0
 42
-0.105184028713
  0
VERTEX
  8
DIK
 10
21698.31114254314
 20
10152.69128072635
 30
0.0
 42
-0.067315372571
 70
     2
 50
27.645975363739
  0
VERTEX
  8
DIK
 10
21704.27022668681
 20
10154.85359543491
 30
0.0
 42
-0.053465209097
  0
VERTEX
  8
DIK
 10
21711.57813251509
 20
10155.63727302605
 30
0.0
 42
-0.053465209097
  0
VERTEX
  8
DIK
 10
21718.88603834336
 20
10154.85359543491
 30
0.0
 42
-0.067315372571
  0
VERTEX
  8
DIK
 10
21724.84512248704
 20
10152.69128072635
 30
0.0
 42
-0.105184028713
 70
     2
 50
332.354024636262
  0
VERTEX
  8
DIK
 10
21730.01669654147
 20
10148.40461119305
 30
0.0
 42
-0.168849830484
  0
VERTEX
  8
DIK
 10
21732.05946474079
 20
10142.52800376497
 30
0.0
 42
-0.168849830484
  0
VERTEX
  8
DIK
 10
21730.01669654147
 20
10136.65139633688
 30
0.0
 42
-0.105184028713
  0
VERTEX
  8
DIK
 10
21724.84512248704
 20
10132.36472680359
 30
0.0
 42
-0.067315372571
 70
     2
 50
207.645975363739
  0
VERTEX
  8
DIK
 10
21718.88603834336
 20
10130.20241209502
 30
0.0
 42
-0.053465209097
  0
VERTEX
  8
DIK
 10
21711.57813251509
 20
10129.41873450388
 30
0.0
 42
-0.053465209097
  0
VERTEX
  8
DIK
 10
21704.27022668682
 20
10130.20241209502
 30
0.0
 42
-0.067315372571
  0
VERTEX
  8
DIK
 10
21698.31114254314
 20
10132.36472680359
 30
0.0
 42
-0.105184028713
 70
     2
 50
152.354024636262
  0
VERTEX
  8
DIK
 10
21693.13956848871
 20
10136.65139633688
 30
0.0
 42
-0.168849830484
  0
SEQEND
  8
DIK
  0
POLYLINE
  8
DIK
 66
     1
 10
0.0
 20
0.0
 30
0.0
 70
     1
  0
VERTEX
  8
DIK
 10
21691.09680028939
 20
10196.3094652428
 30
0.0
 42
0.168849830484
  0
VERTEX
  8
DIK
 10
21693.13956848871
 20
10190.43285781472
 30
0.0
 42
0.105184028713
  0
VERTEX
  8
DIK
 10
21698.31114254314
 20
10186.14618828143
 30
0.0
 42
0.067315372571
 70
     2
 50
332.354024636261
  0
VERTEX
  8
DIK
 10
21704.27022668681
 20
10183.98387357286
 30
0.0
 42
0.053465209097
 50
332.354024636261
  0
VERTEX
  8
DIK
 10
21711.57813251509
 20
10183.20019598172
 30
0.0
 42
0.053465209097
  0
VERTEX
  8
DIK
 10
21718.88603834336
 20
10183.98387357286
 30
0.0
 42
0.067315372571
  0
VERTEX
  8
DIK
 10
21724.84512248704
 20
10186.14618828143
 30
0.0
 42
0.105184028713
 70
     2
 50
27.645975363739
  0
VERTEX
  8
DIK
 10
21730.01669654147
 20
10190.43285781472
 30
0.0
 42
0.168849830484
 50
27.645975363739
  0
VERTEX
  8
DIK
 10
21732.05946474079
 20
10196.3094652428
 30
0.0
 42
0.168849830484
  0
VERTEX
  8
DIK
 10
21730.01669654147
 20
10202.18607267089
 30
0.0
 42
0.105184028713
  0
VERTEX
  8
DIK
 10
21724.84512248704
 20
10206.47274220418
 30
0.0
 42
0.067315372571
 70
     2
 50
152.354024636261
  0
VERTEX
  8
DIK
 10
21718.88603834336
 20
10208.63505691275
 30
0.0
 42
0.053465209097
 50
152.354024636261
  0
VERTEX
  8
DIK
 10
21711.57813251509
 20
10209.41873450389
 30
0.0
 42
0.053465209097
  0
VERTEX
  8
DIK
 10
21704.27022668682
 20
10208.63505691275
 30
0.0
 42
0.067315372571
  0
VERTEX
  8
DIK
 10
21698.31114254314
 20
10206.47274220418
 30
0.0
 42
0.105184028713
 70
     2
 50
207.645975363739
  0
VERTEX
  8
DIK
 10
21693.13956848871
 20
10202.18607267089
 30
0.0
 42
0.168849830484
 50
207.645975363739
  0
SEQEND
  8
DIK
  0
POLYLINE
  8
DIK
 66
     1
 10
0.0
 20
0.0
 30
0.0
 70
     1
  0
VERTEX
  8
DIK
 10
21696.09680028939
 20
10200.73123042372
 30
0.0
 42
0.168849830484
  0
VERTEX
  8
DIK
 10
21697.06150586834
 20
10197.95597869762
 30
0.0
 42
0.105184028713
  0
VERTEX
  8
DIK
 10
21700.6311775165
 20
10194.99711113874
 30
0.0
 42
0.067315372571
 70
     2
 50
332.354024636261
  0
VERTEX
  8
DIK
 10
21705.33040447227
 20
10193.29194851301
 30
0.0
 42
0.053465209097
 50
332.354024636261
  0
VERTEX
  8
DIK
 10
21711.57813251509
 20
10192.62196116264
 30
0.0
 42
0.053465209097
  0
VERTEX
  8
DIK
 10
21717.8258605579
 20
10193.29194851301
 30
0.0
 42
0.067315372571
  0
VERTEX
  8
DIK
 10
21722.52508751368
 20
10194.99711113874
 30
0.0
 42
0.105184028713
 70
     2
 50
27.645975363739
  0
VERTEX
  8
DIK
 10
21726.09475916184
 20
10197.95597869762
 30
0.0
 42
0.168849830484
 50
27.645975363739
  0
VERTEX
  8
DIK
 10
21727.05946474079
 20
10200.73123042372
 30
0.0
 42
0.168849830484
  0
VERTEX
  8
DIK
 10
21726.09475916184
 20
10203.50648214982
 30
0.0
 42
0.105184028713
  0
VERTEX
  8
DIK
 10
21722.52508751368
 20
10206.4653497087
 30
0.0
 42
0.067315372571
 70
     2
 50
152.354024636261
  0
VERTEX
  8
DIK
 10
21717.8258605579
 20
10208.17051233443
 30
0.0
 42
0.053465209097
 50
152.354024636261
  0
VERTEX
  8
DIK
 10
21711.57813251509
 20
10208.8404996848
 30
0.0
 42
0.053465209097
  0
VERTEX
  8
DIK
 10
21705.33040447227
 20
10208.17051233443
 30
0.0
 42
0.067315372571
  0
VERTEX
  8
DIK
 10
21700.6311775165
 20
10206.4653497087
 30
0.0
 42
0.105184028713
 70
     2
 50
207.645975363739
  0
VERTEX
  8
DIK
 10
21697.06150586834
 20
10203.50648214982
 30
0.0
 42
0.168849830484
 50
207.645975363739
  0
SEQEND
  8
DIK
  0
POLYLINE
  8
STREEPLIJN
 66
     1
 10
0.0
 20
0.0
 30
0.0
 70
     1
  0
VERTEX
  8
STREEPLIJN
 10
21311.57813251509
 20
10769.41873450389
 30
0.0
  0
VERTEX
  8
STREEPLIJN
 10
21311.57813251509
 20
10669.41873450389
 30
0.0
  0
VERTEX
  8
STREEPLIJN
 10
21411.57813251509
 20
10669.41873450389
 30
0.0
  0
VERTEX
  8
STREEPLIJN
 10
21411.57813251509
 20
10769.41873450389
 30
0.0
  0
SEQEND
  8
STREEPLIJN
  0
TEXT
  8
DIK
 10
21117.76907875372
 20
10511.94272160555
 30
0.0
 40
100.0
  1
3
  7
ROMANS
  0
POLYLINE
  8
DIK
 66
     1
 10
0.0
 20
0.0
 30
0.0
 70
     1
  0
VERTEX
  8
DIK
 10
22466.09680028939
 20
10196.3094652428
 30
0.0
 42
0.168849830484
  0
VERTEX
  8
DIK
 10
22468.13956848871
 20
10190.43285781472
 30
0.0
 42
0.105184028713
  0
VERTEX
  8
DIK
 10
22473.31114254314
 20
10186.14618828143
 30
0.0
 42
0.067315372571
 70
     2
 50
332.354024636261
  0
VERTEX
  8
DIK
 10
22479.27022668681
 20
10183.98387357286
 30
0.0
 42
0.053465209097
 50
332.354024636261
  0
VERTEX
  8
DIK
 10
22486.57813251509
 20
10183.20019598172
 30
0.0
 42
0.053465209097
  0
VERTEX
  8
DIK
 10
22493.88603834336
 20
10183.98387357286
 30
0.0
 42
0.067315372571
  0
VERTEX
  8
DIK
 10
22499.84512248704
 20
10186.14618828143
 30
0.0
 42
0.105184028713
 70
     2
 50
27.645975363739
  0
VERTEX
  8
DIK
 10
22505.01669654147
 20
10190.43285781472
 30
0.0
 42
0.168849830484
 50
27.645975363739
  0
VERTEX
  8
DIK
 10
22507.05946474079
 20
10196.3094652428
 30
0.0
 42
0.168849830484
  0
VERTEX
  8
DIK
 10
22505.01669654147
 20
10202.18607267089
 30
0.0
 42
0.105184028713
  0
VERTEX
  8
DIK
 10
22499.84512248704
 20
10206.47274220418
 30
0.0
 42
0.067315372571
 70
     2
 50
152.354024636261
  0
VERTEX
  8
DIK
 10
22493.88603834336
 20
10208.63505691275
 30
0.0
 42
0.053465209097
 50
152.354024636261
  0
VERTEX
  8
DIK
 10
22486.57813251509
 20
10209.41873450389
 30
0.0
 42
0.053465209097
  0
VERTEX
  8
DIK
 10
22479.27022668682
 20
10208.63505691275
 30
0.0
 42
0.067315372571
  0
VERTEX
  8
DIK
 10
22473.31114254314
 20
10206.47274220418
 30
0.0
 42
0.105184028713
 70
     2
 50
207.645975363739
  0
VERTEX
  8
DIK
 10
22468.13956848871
 20
10202.18607267089
 30
0.0
 42
0.168849830484
 50
207.645975363739
  0
SEQEND
  8
DIK
  0
POLYLINE
  8
DIK
 66
     1
 10
0.0
 20
0.0
 30
0.0
 70
     1
  0
VERTEX
  8
DIK
 10
22471.09680028938
 20
10200.73123042372
 30
0.0
 42
0.168849830484
  0
VERTEX
  8
DIK
 10
22472.06150586834
 20
10197.95597869762
 30
0.0
 42
0.105184028713
  0
VERTEX
  8
DIK
 10
22475.63117751649
 20
10194.99711113874
 30
0.0
 42
0.067315372571
 70
     2
 50
332.354024636261
  0
VERTEX
  8
DIK
 10
22480.33040447227
 20
10193.29194851301
 30
0.0
 42
0.053465209097
 50
332.354024636261
  0
VERTEX
  8
DIK
 10
22486.57813251509
 20
10192.62196116264
 30
0.0
 42
0.053465209097
  0
VERTEX
  8
DIK
 10
22492.8258605579
 20
10193.29194851301
 30
0.0
 42
0.067315372571
  0
VERTEX
  8
DIK
 10
22497.52508751369
 20
10194.99711113874
 30
0.0
 42
0.105184028713
 70
     2
 50
27.645975363739
  0
VERTEX
  8
DIK
 10
22501.09475916184
 20
10197.95597869762
 30
0.0
 42
0.168849830484
 50
27.645975363739
  0
VERTEX
  8
DIK
 10
22502.05946474079
 20
10200.73123042372
 30
0.0
 42
0.168849830484
  0
VERTEX
  8
DIK
 10
22501.09475916184
 20
10203.50648214982
 30
0.0
 42
0.105184028713
  0
VERTEX
  8
DIK
 10
22497.52508751369
 20
10206.4653497087
 30
0.0
 42
0.067315372571
 70
     2
 50
152.354024636261
  0
VERTEX
  8
DIK
 10
22492.8258605579
 20
10208.17051233443
 30
0.0
 42
0.053465209097
 50
152.354024636261
  0
VERTEX
  8
DIK
 10
22486.57813251509
 20
10208.8404996848
 30
0.0
 42
0.053465209097
  0
VERTEX
  8
DIK
 10
22480.33040447227
 20
10208.17051233443
 30
0.0
 42
0.067315372571
  0
VERTEX
  8
DIK
 10
22475.63117751649
 20
10206.4653497087
 30
0.0
 42
0.105184028713
 70
     2
 50
207.645975363739
  0
VERTEX
  8
DIK
 10
22472.06150586834
 20
10203.50648214982
 30
0.0
 42
0.168849830484
 50
207.645975363739
  0
SEQEND
  8
DIK
  0
POLYLINE
  8
STREEPLIJN
 66
     1
 10
0.0
 20
0.0
 30
0.0
 70
     1
  0
VERTEX
  8
STREEPLIJN
 10
22411.57813251509
 20
10769.41873450389
 30
0.0
  0
VERTEX
  8
STREEPLIJN
 10
22411.57813251509
 20
10669.41873450389
 30
0.0
  0
VERTEX
  8
STREEPLIJN
 10
22511.57813251509
 20
10669.41873450389
 30
0.0
  0
VERTEX
  8
STREEPLIJN
 10
22511.57813251509
 20
10769.41873450389
 30
0.0
  0
SEQEND
  8
STREEPLIJN
  0
TEXT
  8
DIK
 10
22608.24768763909
 20
10511.12173004316
 30
0.0
 40
100.0
  1
4
  7
ROMANS
  0
LINE
  8
DIK
 10
24011.57813251509
 20
10619.41873450389
 30
0.0
 11
24011.57813251509
 21
9719.418734503893
 31
0.0
  0
LINE
  8
STREEPLIJN
 10
22276.20409860822
 20
12269.41873450389
 30
0.0
 11
24061.57813251509
 21
12269.41873450388
 31
0.0
  0
LINE
  8
DIK
 10
21461.57813251509
 20
12269.41873450389
 30
0.0
 11
22361.57813251509
 21
12269.41873450389
 31
0.0
  0
ENDBLK
  8
0
  0
BLOCK
  8
0
  2
*D27
 70
    65
 10
0.0
 20
0.0
 30
0.0
  3
*D
  0
LINE
  8
0
  6
BYBLOCK
 10
142.642898454297
 20
821.441287148535
 30
0.0
 11
142.642898454297
 21
865.23259126333
 31
0.0
  0
LINE
  8
0
  6
BYBLOCK
 10
-1357.357101545703
 20
900.440620785639
 30
0.0
 11
-1357.357101545703
 21
863.23259126333
 31
0.0
  0
LINE
  8
0
  6
BYBLOCK
 10
42.642898454297
 20
864.23259126333
 30
0.0
 11
-1257.357101545703
 21
864.23259126333
 31
0.0
  0
SOLID
  8
0
  6
BYBLOCK
 10
42.642898454297
 20
880.899257929997
 30
0.0
 11
42.642898454297
 21
847.565924596664
 31
0.0
 12
142.642898454297
 22
864.23259126333
 32
0.0
 13
142.642898454297
 23
864.23259126333
 33
0.0
  0
SOLID
  8
0
  6
BYBLOCK
 10
-1257.357101545703
 20
880.899257929997
 30
0.0
 11
-1257.357101545703
 21
847.565924596664
 31
0.0
 12
-1357.357101545703
 22
864.23259126333
 32
0.0
 13
-1357.357101545703
 23
864.23259126333
 33
0.0
  0
TEXT
  8
0
  6
BYBLOCK
 10
-765.452339640941
 20
904.23259126333
 30
0.0
 40
80.0
  1
1500
  7
ROMANS
 72
     1
 11
-607.357101545703
 21
944.23259126333
 31
0.0
 73
     2
  0
POINT
  8
DEFPOINTS
  6
BYBLOCK
 62
     0
 10
142.642898454297
 20
821.441287148535
 30
0.0
  0
POINT
  8
DEFPOINTS
  6
BYBLOCK
 62
     0
 10
-1357.357101545703
 20
900.440620785639
 30
0.0
  0
POINT
  8
DEFPOINTS
  6
BYBLOCK
 62
     0
 10
-1357.357101545703
 20
864.23259126333
 30
0.0
  0
ENDBLK
  8
0
  0
BLOCK
  8
0
  2
*D28
 70
    65
 10
0.0
 20
0.0
 30
0.0
  3
*D
  0
LINE
  8
0
  6
BYBLOCK
 10
162.622652792446
 20
1518.754869787331
 30
0.0
 11
643.044561432329
 21
1518.754869787331
 31
0.0
  0
LINE
  8
0
  6
BYBLOCK
 10
696.045383987419
 20
3018.75486978733
 30
0.0
 11
641.044561432329
 21
3018.75486978733
 31
0.0
  0
LINE
  8
0
  6
BYBLOCK
 10
642.044561432329
 20
1618.754869787331
 30
0.0
 11
642.044561432329
 21
2918.75486978733
 31
0.0
  0
SOLID
  8
0
  6
BYBLOCK
 10
625.377894765662
 20
1618.754869787331
 30
0.0
 11
658.711228098995
 21
1618.754869787331
 31
0.0
 12
642.044561432329
 22
1518.754869787331
 32
0.0
 13
642.044561432329
 23
1518.754869787331
 33
0.0
  0
SOLID
  8
0
  6
BYBLOCK
 10
625.377894765662
 20
2918.75486978733
 30
0.0
 11
658.711228098995
 21
2918.75486978733
 31
0.0
 12
642.044561432329
 22
3018.75486978733
 32
0.0
 13
642.044561432329
 23
3018.75486978733
 33
0.0
  0
TEXT
  8
0
  6
BYBLOCK
 10
602.044561432329
 20
2110.659631692093
 30
0.0
 40
80.0
  1
1500
 50
90.0
  7
ROMANS
 72
     1
 11
562.044561432329
 21
2268.754869787331
 31
0.0
 73
     2
  0
POINT
  8
DEFPOINTS
  6
BYBLOCK
 62
     0
 10
162.622652792446
 20
1518.754869787331
 30
0.0
  0
POINT
  8
DEFPOINTS
  6
BYBLOCK
 62
     0
 10
696.045383987419
 20
3018.75486978733
 30
0.0
  0
POINT
  8
DEFPOINTS
  6
BYBLOCK
 62
     0
 10
642.044561432329
 20
3018.75486978733
 30
0.0
  0
ENDBLK
  8
0
  0
BLOCK
  8
0
  2
*D29
 70
    65
 10
0.0
 20
0.0
 30
0.0
  3
*D
  0
LINE
  8
0
  6
BYBLOCK
 10
532.642898454297
 20
-2020.654181598501
 30
0.0
 11
532.642898454297
 21
-2230.944120588591
 31
0.0
  0
LINE
  8
0
  6
BYBLOCK
 10
-467.357101545703
 20
-2031.669440096225
 30
0.0
 11
-467.357101545703
 21
-2230.944120588591
 31
0.0
  0
LINE
  8
0
  6
BYBLOCK
 10
432.642898454297
 20
-2229.944120588591
 30
0.0
 11
-367.357101545703
 21
-2229.944120588591
 31
0.0
  0
SOLID
  8
0
  6
BYBLOCK
 10
432.642898454297
 20
-2213.277453921924
 30
0.0
 11
432.642898454297
 21
-2246.610787255257
 31
0.0
 12
532.642898454297
 22
-2229.944120588591
 32
0.0
 13
532.642898454297
 23
-2229.944120588591
 33
0.0
  0
SOLID
  8
0
  6
BYBLOCK
 10
-367.357101545703
 20
-2213.277453921924
 30
0.0
 11
-367.357101545703
 21
-2246.610787255257
 31
0.0
 12
-467.357101545703
 22
-2229.944120588591
 32
0.0
 13
-467.357101545703
 23
-2229.944120588591
 33
0.0
  0
TEXT
  8
0
  6
BYBLOCK
 10
-125.452339640941
 20
-2189.944120588591
 30
0.0
 40
80.0
  1
1000
  7
ROMANS
 72
     1
 11
32.642898454297
 21
-2149.944120588591
 31
0.0
 73
     2
  0
POINT
  8
DEFPOINTS
  6
BYBLOCK
 62
     0
 10
532.642898454297
 20
-2020.654181598501
 30
0.0
  0
POINT
  8
DEFPOINTS
  6
BYBLOCK
 62
     0
 10
-467.357101545703
 20
-2031.669440096225
 30
0.0
  0
POINT
  8
DEFPOINTS
  6
BYBLOCK
 62
     0
 10
-467.357101545703
 20
-2229.944120588591
 30
0.0
  0
ENDBLK
  8
0
  0
BLOCK
  8
0
  2
*D30
 70
    65
 10
0.0
 20
0.0
 30
0.0
  3
*D
  0
LINE
  8
0
  6
BYBLOCK
 10
2052.642898454297
 20
-3364.515993654145
 30
0.0
 11
2052.642898454297
 21
-4951.713575259709
 31
0.0
  0
LINE
  8
0
  6
BYBLOCK
 10
-467.357101545704
 20
-3265.378667174627
 30
0.0
 11
-467.357101545704
 21
-4951.713575259709
 31
0.0
  0
LINE
  8
0
  6
BYBLOCK
 10
1952.642898454297
 20
-4950.713575259709
 30
0.0
 11
-367.357101545704
 21
-4950.713575259709
 31
0.0
  0
SOLID
  8
0
  6
BYBLOCK
 10
1952.642898454297
 20
-4934.046908593042
 30
0.0
 11
1952.642898454297
 21
-4967.380241926377
 31
0.0
 12
2052.642898454297
 22
-4950.713575259709
 32
0.0
 13
2052.642898454297
 23
-4950.713575259709
 33
0.0
  0
SOLID
  8
0
  6
BYBLOCK
 10
-367.357101545704
 20
-4934.046908593042
 30
0.0
 11
-367.357101545704
 21
-4967.380241926377
 31
0.0
 12
-467.357101545704
 22
-4950.713575259709
 32
0.0
 13
-467.357101545704
 23
-4950.713575259709
 33
0.0
  0
TEXT
  8
0
  6
BYBLOCK
 10
640.261946073345
 20
-4910.71357525971
 30
0.0
 40
80.0
  1
2520
  7
ROMANS
 72
     1
 11
792.642898454297
 21
-4870.71357525971
 31
0.0
 73
     2
  0
POINT
  8
DEFPOINTS
  6
BYBLOCK
 62
     0
 10
2052.642898454297
 20
-3364.515993654145
 30
0.0
  0
POINT
  8
DEFPOINTS
  6
BYBLOCK
 62
     0
 10
-467.357101545704
 20
-3265.378667174627
 30
0.0
  0
POINT
  8
DEFPOINTS
  6
BYBLOCK
 62
     0
 10
-467.357101545704
 20
-4950.713575259709
 30
0.0
  0
ENDBLK
  8
0
  0
BLOCK
  8
0
  2
*D31
 70
    65
 10
0.0
 20
0.0
 30
0.0
  3
*D
  0
LINE
  8
0
  6
BYBLOCK
 10
795.764271471806
 20
-2481.745130212669
 30
0.0
 11
802.464610402843
 21
-2481.745130212669
 31
0.0
  0
LINE
  8
0
  6
BYBLOCK
 10
821.415891825274
 20
-4481.745130212669
 30
0.0
 11
800.464610402843
 21
-4481.745130212669
 31
0.0
  0
LINE
  8
0
  6
BYBLOCK
 10
801.464610402843
 20
-2581.745130212669
 30
0.0
 11
801.464610402843
 21
-4381.745130212669
 31
0.0
  0
SOLID
  8
0
  6
BYBLOCK
 10
784.797943736176
 20
-2581.745130212669
 30
0.0
 11
818.13127706951
 21
-2581.745130212669
 31
0.0
 12
801.464610402843
 22
-2481.745130212669
 32
0.0
 13
801.464610402843
 23
-2481.745130212669
 33
0.0
  0
SOLID
  8
0
  6
BYBLOCK
 10
784.797943736176
 20
-4381.745130212669
 30
0.0
 11
818.13127706951
 21
-4381.745130212669
 31
0.0
 12
801.464610402843
 22
-4481.745130212669
 32
0.0
 13
801.464610402843
 23
-4481.745130212669
 33
0.0
  0
TEXT
  8
0
  6
BYBLOCK
 10
761.464610402843
 20
-3634.126082593621
 30
0.0
 40
80.0
  1
2000
 50
90.0
  7
ROMANS
 72
     1
 11
721.464610402843
 21
-3481.745130212669
 31
0.0
 73
     2
  0
POINT
  8
DEFPOINTS
  6
BYBLOCK
 62
     0
 10
795.764271471806
 20
-2481.745130212669
 30
0.0
  0
POINT
  8
DEFPOINTS
  6
BYBLOCK
 62
     0
 10
821.415891825274
 20
-4481.745130212669
 30
0.0
  0
POINT
  8
DEFPOINTS
  6
BYBLOCK
 62
     0
 10
801.464610402843
 20
-4481.745130212669
 30
0.0
  0
ENDBLK
  8
0
  0
BLOCK
  8
0
  2
*D32
 70
    65
 10
0.0
 20
0.0
 30
0.0
  3
*D
  0
LINE
  8
0
  6
BYBLOCK
 10
23171.57813251509
 20
7819.757459639864
 30
0.0
 11
23171.57813251509
 21
7820.757459639864
 31
0.0
  0
LINE
  8
0
  6
BYBLOCK
 10
24011.57813251509
 20
8381.164472108125
 30
0.0
 11
24011.57813251509
 21
7818.757459639864
 31
0.0
  0
LINE
  8
0
  6
BYBLOCK
 10
23271.57813251509
 20
7819.757459639864
 30
0.0
 11
23911.57813251509
 21
7819.757459639864
 31
0.0
  0
SOLID
  8
0
  6
BYBLOCK
 10
23271.57813251509
 20
7836.42412630653
 30
0.0
 11
23271.57813251509
 21
7803.090792973196
 31
0.0
 12
23171.57813251509
 22
7819.757459639864
 32
0.0
 13
23171.57813251509
 23
7819.757459639864
 33
0.0
  0
SOLID
  8
0
  6
BYBLOCK
 10
23911.57813251509
 20
7836.42412630653
 30
0.0
 11
23911.57813251509
 21
7803.090792973196
 31
0.0
 12
24011.57813251509
 22
7819.757459639864
 32
0.0
 13
24011.57813251509
 23
7819.757459639864
 33
0.0
  0
TEXT
  8
0
  6
BYBLOCK
 10
23477.29241822937
 20
7859.757459639864
 30
0.0
 40
80.0
  1
840
  7
ROMANS
 72
     1
 11
23591.57813251509
 21
7899.757459639863
 31
0.0
 73
     2
  0
POINT
  8
DEFPOINTS
  6
BYBLOCK
 62
     0
 10
23171.57813251509
 20
7819.757459639864
 30
0.0
  0
POINT
  8
DEFPOINTS
  6
BYBLOCK
 62
     0
 10
24011.57813251509
 20
8381.164472108125
 30
0.0
  0
POINT
  8
DEFPOINTS
  6
BYBLOCK
 62
     0
 10
24011.57813251509
 20
7819.757459639864
 30
0.0
  0
ENDBLK
  8
0
  0
BLOCK
  8
0
  2
*D33
 70
    65
 10
0.0
 20
0.0
 30
0.0
  3
*D
  0
LINE
  8
0
  6
BYBLOCK
 10
23947.35248426107
 20
12269.41873450388
 30
0.0
 11
24670.23678582999
 21
12269.41873450388
 31
0.0
  0
LINE
  8
0
  6
BYBLOCK
 10
23104.78348420327
 20
4818.918734503893
 30
0.0
 11
24670.23678582999
 21
4818.918734503893
 31
0.0
  0
LINE
  8
0
  6
BYBLOCK
 10
24669.23678582999
 20
12169.41873450388
 30
0.0
 11
24669.23678582999
 21
4918.918734503892
 31
0.0
  0
SOLID
  8
0
  6
BYBLOCK
 10
24652.57011916333
 20
12169.41873450388
 30
0.0
 11
24685.90345249666
 21
12169.41873450388
 31
0.0
 12
24669.23678582999
 22
12269.41873450388
 32
0.0
 13
24669.23678582999
 23
12269.41873450388
 33
0.0
  0
SOLID
  8
0
  6
BYBLOCK
 10
24652.57011916333
 20
4918.918734503892
 30
0.0
 11
24685.90345249666
 21
4918.918734503892
 31
0.0
 12
24669.23678582999
 22
4818.918734503893
 32
0.0
 13
24669.23678582999
 23
4818.918734503893
 33
0.0
  0
TEXT
  8
0
  6
BYBLOCK
 10
24629.23678582999
 20
8391.787782122939
 30
0.0
 40
80.0
  1
7450
 50
90.0
  7
ROMANS
 72
     1
 11
24589.23678582999
 21
8544.168734503891
 31
0.0
 73
     2
  0
POINT
  8
DEFPOINTS
  6
BYBLOCK
 62
     0
 10
23947.35248426107
 20
12269.41873450388
 30
0.0
  0
POINT
  8
DEFPOINTS
  6
BYBLOCK
 62
     0
 10
23104.78348420327
 20
4818.918734503893
 30
0.0
  0
POINT
  8
DEFPOINTS
  6
BYBLOCK
 62
     0
 10
24669.23678582999
 20
4818.918734503893
 30
0.0
  0
ENDBLK
  8
0
  0
BLOCK
  8
0
  2
*D34
 70
    65
 10
0.0
 20
0.0
 30
0.0
  3
*D
  0
LINE
  8
0
  6
BYBLOCK
 10
23892.99368944891
 20
12269.41873450388
 30
0.0
 11
24364.5558379434
 21
12269.41873450388
 31
0.0
  0
LINE
  8
0
  6
BYBLOCK
 10
23916.98324248612
 20
8252.994512118023
 30
0.0
 11
24364.5558379434
 21
8252.994512118023
 31
0.0
  0
LINE
  8
0
  6
BYBLOCK
 10
24363.5558379434
 20
12169.41873450388
 30
0.0
 11
24363.5558379434
 21
8352.994512118023
 31
0.0
  0
SOLID
  8
0
  6
BYBLOCK
 10
24346.88917127674
 20
12169.41873450388
 30
0.0
 11
24380.22250461007
 21
12169.41873450388
 31
0.0
 12
24363.5558379434
 22
12269.41873450388
 32
0.0
 13
24363.5558379434
 23
12269.41873450388
 33
0.0
  0
SOLID
  8
0
  6
BYBLOCK
 10
24346.88917127674
 20
8352.994512118023
 30
0.0
 11
24380.22250461007
 21
8352.994512118023
 31
0.0
 12
24363.5558379434
 22
8252.994512118023
 32
0.0
 13
24363.5558379434
 23
8252.994512118023
 33
0.0
  0
TEXT
  8
0
  6
BYBLOCK
 10
24323.5558379434
 20
10108.82567093
 30
0.0
 40
80.0
  1
4016
 50
90.0
  7
ROMANS
 72
     1
 11
24283.5558379434
 21
10261.20662331095
 31
0.0
 73
     2
  0
POINT
  8
DEFPOINTS
  6
BYBLOCK
 62
     0
 10
23892.99368944891
 20
12269.41873450388
 30
0.0
  0
POINT
  8
DEFPOINTS
  6
BYBLOCK
 62
     0
 10
23916.98324248612
 20
8252.994512118023
 30
0.0
  0
POINT
  8
DEFPOINTS
  6
BYBLOCK
 62
     0
 10
24363.5558379434
 20
8252.994512118023
 30
0.0
  0
ENDBLK
  8
0
  0
BLOCK
  8
0
  2
*D35
 70
    65
 10
0.0
 20
0.0
 30
0.0
  3
*D
  0
LINE
  8
0
  6
BYBLOCK
 10
19811.57813251509
 20
10421.24626046339
 30
0.0
 11
19811.57813251509
 21
12570.7680862713
 31
0.0
  0
LINE
  8
0
  6
BYBLOCK
 10
24011.57813251509
 20
10387.80932693116
 30
0.0
 11
24011.57813251509
 21
12570.7680862713
 31
0.0
  0
LINE
  8
0
  6
BYBLOCK
 10
19911.57813251509
 20
12569.7680862713
 30
0.0
 11
23911.57813251509
 21
12569.7680862713
 31
0.0
  0
SOLID
  8
0
  6
BYBLOCK
 10
19911.57813251509
 20
12586.43475293797
 30
0.0
 11
19911.57813251509
 21
12553.10141960463
 31
0.0
 12
19811.57813251509
 22
12569.7680862713
 32
0.0
 13
19811.57813251509
 23
12569.7680862713
 33
0.0
  0
SOLID
  8
0
  6
BYBLOCK
 10
23911.57813251509
 20
12586.43475293797
 30
0.0
 11
23911.57813251509
 21
12553.10141960463
 31
0.0
 12
24011.57813251509
 22
12569.7680862713
 32
0.0
 13
24011.57813251509
 23
12569.7680862713
 33
0.0
  0
TEXT
  8
0
  6
BYBLOCK
 10
21759.19718013413
 20
12609.7680862713
 30
0.0
 40
80.0
  1
4200
  7
ROMANS
 72
     1
 11
21911.57813251508
 21
12649.7680862713
 31
0.0
 73
     2
  0
POINT
  8
DEFPOINTS
  6
BYBLOCK
 62
     0
 10
19811.57813251509
 20
10421.24626046339
 30
0.0
  0
POINT
  8
DEFPOINTS
  6
BYBLOCK
 62
     0
 10
24011.57813251509
 20
10387.80932693116
 30
0.0
  0
POINT
  8
DEFPOINTS
  6
BYBLOCK
 62
     0
 10
24011.57813251509
 20
12569.7680862713
 30
0.0
  0
ENDBLK
  8
0
  0
BLOCK
  8
0
  2
ACAD132E
 70
     0
 10
0.0
 20
0.0
 30
0.0
  3
ACAD132E
  0
LINE
  8
DIK
 10
-4061.835676448856
 20
10058.36048959261
 30
0.0
 11
-961.835676448855
 21
10058.36048959261
 31
0.0
  0
LINE
  8
STREEPLIJN
 10
-961.835676448855
 20
8558.360489592613
 30
0.0
 11
-4061.835676448856
 21
8558.360489592613
 31
0.0
  0
ARC
  8
DIK
 10
-2461.835676448855
 20
10058.36048959261
 30
0.0
 40
1500.0
 50
270.0
 51
0.0
  0
LINE
  8
DIK
 10
-2061.835676448857
 20
13521.10218938957
 30
0.0
 11
-961.835676448855
 21
12421.10218938955
 31
0.0
  0
LINE
  8
DIK
 10
-6747.245793593362
 20
13418.36048959261
 30
0.0
 11
-5161.835676448856
 21
13418.36048959261
 31
0.0
  0
LINE
  8
STREEPLIJN
 10
-5161.835676448856
 20
13418.36048959261
 30
0.0
 11
-7747.245793593371
 21
13418.36048959261
 31
0.0
  0
LINE
  8
DIK
 10
-6747.245793593364
 20
10898.36048959261
 30
0.0
 11
-5148.952690789095
 21
10898.36048959261
 31
0.0
  0
DIMENSION
  8
DUN
  2
*D39
 10
-7747.245793593362
 20
12151.08668474307
 30
0.0
 11
-6747.245793593362
 21
12181.08668474306
 31
0.0
 13
-5747.245793593362
 23
12159.84856262259
 33
0.0
 14
-7747.245793593362
 24
12168.61044050211
 34
0.0
  3
STANDAARD
  0
LINE
  8
STREEPLIJN
 10
-5148.952690789095
 20
10898.36048959261
 30
0.0
 11
-7747.245793593371
 21
10898.36048959261
 31
0.0
  0
LINE
  8
STREEPLIJN
 10
-7747.245793593371
 20
10898.36048959261
 30
0.0
 11
-7747.24579359336
 21
12368.36048959263
 31
0.0
  0
ARC
  8
DIK
 10
-6747.245793593364
 20
11898.36048959261
 30
0.0
 40
1000.0
 50
180.0
 51
270.0
  0
ARC
  8
DIK
 10
-6747.245793593362
 20
12418.36048959261
 30
0.0
 40
1000.0
 50
90.0
 51
180.000000000001
  0
LINE
  8
DIK
 10
-7747.245793593362
 20
12418.3604895926
 30
0.0
 11
-7747.245793593364
 21
11898.36048959262
 31
0.0
  0
LINE
  8
STREEPLIJN
 10
-7747.245793593371
 20
13418.36048959261
 30
0.0
 11
-7747.24579359336
 21
11948.36048959259
 31
0.0
  0
LINE
  8
DIK
 10
-7747.245793593362
 20
12398.3604895926
 30
0.0
 11
-7747.245793593364
 21
11918.36048959262
 31
0.0
  0
LINE
  8
DIK
 10
-2061.835676448855
 20
13858.36048959261
 30
0.0
 11
-2061.835676448857
 21
13521.10218938957
 31
0.0
  0
LINE
  8
STREEPLIJN
 10
-2061.835676448855
 20
13858.3604895926
 30
0.0
 11
-2061.835676448856
 21
13758.3604895926
 31
0.0
  0
LINE
  8
STREEPLIJN
 10
-2061.835676448849
 20
15358.36048959262
 30
0.0
 11
-2061.835676448857
 21
13521.10218938957
 31
0.0
  0
LINE
  8
DIK
 10
-3661.835676448855
 20
13758.36048959261
 30
0.0
 11
-3661.835676448855
 21
13858.36048959261
 31
0.0
  0
LINE
  8
DIK
 10
-3561.835676448855
 20
13858.36048959261
 30
0.0
 11
-3561.835676448856
 21
13758.36048959261
 31
0.0
  0
LINE
  8
DIK
 10
-5161.835676448856
 20
13418.36048959261
 30
0.0
 11
-5161.835676448857
 21
13858.36048959261
 31
0.0
  0
LINE
  8
STREEPLIJN
 10
-5161.835676448856
 20
15358.36048959261
 30
0.0
 11
-5161.835676448856
 21
13418.3604895926
 31
0.0
  0
ARC
  8
DIK
 10
-2561.835676448855
 20
10058.36048959261
 30
0.0
 40
1500.0
 50
180.0
 51
270.0
  0
LINE
  8
DIK
 10
-3632.835676448856
 20
11898.36048959261
 30
0.0
 11
-5797.245793593362
 21
11898.36048959261
 31
0.0
  0
LINE
  8
DIK
 10
-3632.835676448856
 20
11948.36048959261
 30
0.0
 11
-5797.245793593362
 21
11948.36048959261
 31
0.0
  0
LINE
  8
DIK
 10
-3632.835676448856
 20
12368.36048959261
 30
0.0
 11
-5797.245793593362
 21
12368.36048959261
 31
0.0
  0
LINE
  8
DIK
 10
-3632.835676448856
 20
12418.36048959261
 30
0.0
 11
-5797.245793593362
 21
12418.36048959261
 31
0.0
  0
LINE
  8
DIK
 10
-5161.835676448855
 20
11898.36048959261
 30
0.0
 11
-5161.835676448856
 21
10898.36048959261
 31
0.0
  0
ARC
  8
DIK
 10
-4161.835676448855
 20
11058.36048959261
 30
0.0
 40
1000.0
 50
189.206896221346
 51
270.0
  0
LINE
  8
STREEPLIJN
 10
-4061.835676448856
 20
8558.360489592613
 30
0.0
 11
-4061.835676448856
 21
10058.36048959261
 31
0.0
  0
LINE
  8
STREEPLIJN
 10
-4061.835676448856
 20
10058.36048959261
 30
0.0
 11
-5161.835676448856
 21
10058.36048959261
 31
0.0
  0
LINE
  8
STREEPLIJN
 10
-5161.835676448856
 20
10058.36048959261
 30
0.0
 11
-5161.835676448856
 21
10898.36048959261
 31
0.0
  0
LINE
  8
DIK
 10
-5797.24579359336
 20
12368.36048959261
 30
0.0
 11
-5797.24579359336
 21
12418.36048959261
 31
0.0
  0
LINE
  8
DIK
 10
-5797.24579359336
 20
11898.36048959261
 30
0.0
 11
-5797.24579359336
 21
11948.36048959261
 31
0.0
  0
LINE
  8
DIK
 10
-5747.245793593363
 20
11948.3604895926
 30
0.0
 11
-5747.24579359336
 21
12368.36048959261
 31
0.0
  0
LINE
  8
DIK
 10
-5161.835676448856
 20
13418.3604895926
 30
0.0
 11
-5161.835676448855
 21
12418.36048959261
 31
0.0
  0
LINE
  8
DIK
 10
-2490.835676448856
 20
10158.36048959261
 30
0.0
 11
-2490.835676448856
 21
11558.36048959261
 31
0.0
  0
LINE
  8
DIK
 10
-2532.835676448855
 20
10158.36048959261
 30
0.0
 11
-2532.835676448856
 21
11558.36048959261
 31
0.0
  0
LINE
  8
DIK
 10
-2561.835676448855
 20
8558.360489592613
 30
0.0
 11
-2461.835676448855
 21
8558.360489592613
 31
0.0
  0
LINE
  8
DIK
 10
-2461.835676448855
 20
10058.36048959261
 30
0.0
 11
-2561.835676448855
 21
10058.36048959261
 31
0.0
  0
LINE
  8
DIK
 10
-2561.835676448855
 20
10158.36048959261
 30
0.0
 11
-2461.835676448855
 21
10158.36048959261
 31
0.0
  0
ARC
  8
DIK
 10
-2511.835676448856
 20
10058.36048959261
 30
0.0
 40
17.5
 50
180.0
 51
0.0
  0
LINE
  8
DIK
 10
-2561.835676448855
 20
10058.36048959261
 30
0.0
 11
-2561.835676448855
 21
10158.36048959261
 31
0.0
  0
LINE
  8
DIK
 10
-2461.835676448855
 20
10158.36048959261
 30
0.0
 11
-2461.835676448855
 21
10058.36048959261
 31
0.0
  0
LINE
  8
DIK
 10
-3461.835676448855
 20
12658.36048959261
 30
0.0
 11
-2561.835676448855
 21
11758.36048959261
 31
0.0
  0
LINE
  8
DIK
 10
-3561.835676448855
 20
12546.22845523665
 30
0.0
 11
-2673.96771080482
 21
11658.36048959261
 31
0.0
  0
LINE
  8
DIK
 10
-3561.835676448855
 20
11658.36048959261
 30
0.0
 11
-2461.835676448855
 21
11658.36048959261
 31
0.0
  0
LINE
  8
DIK
 10
-2678.788382509992
 20
11975.72235858223
 30
0.0
 11
-3244.473807459228
 21
12541.40778353147
 31
0.0
  0
LINE
  8
DIK
 10
-2708.486867319829
 20
11946.0238737724
 30
0.0
 11
-3274.172292269064
 21
12511.70929872164
 31
0.0
  0
LINE
  8
DIK
 10
-3561.835676448855
 20
12758.36048959261
 30
0.0
 11
-3561.835676448855
 21
11558.36048959261
 31
0.0
  0
LINE
  8
DIK
 10
-3590.835676448855
 20
12515.86048959261
 30
0.0
 11
-3590.835676448855
 21
11800.86048959261
 31
0.0
  0
LINE
  8
DIK
 10
-3632.835676448856
 20
12515.86048959261
 30
0.0
 11
-3632.835676448856
 21
11800.86048959261
 31
0.0
  0
LINE
  8
DIK
 10
-3561.835676448855
 20
11909.83235216876
 30
0.0
 11
-3310.363813872712
 21
11658.36048959261
 31
0.0
  0
LINE
  8
DIK
 10
-3561.835676448855
 20
12121.96438652472
 30
0.0
 11
-3098.231779516748
 21
11658.36048959261
 31
0.0
  0
LINE
  8
DIK
 10
-3561.835676448855
 20
12334.09642088068
 30
0.0
 11
-2886.099745160784
 21
11658.36048959261
 31
0.0
  0
LINE
  8
DIK
 10
-3632.835676448856
 20
11765.86048959261
 30
0.0
 11
-3632.835676448856
 21
11658.36048959261
 31
0.0
  0
LINE
  8
DIK
 10
-3561.835676448855
 20
11697.70031781279
 30
0.0
 11
-3522.495848228675
 21
11658.36048959261
 31
0.0
  0
LINE
  8
DIK
 10
-3561.835676448855
 20
11758.36048959261
 30
0.0
 11
-3561.835676448855
 21
11658.36048959261
 31
0.0
  0
LINE
  8
DIK
 10
-3590.835676448855
 20
11765.86048959261
 30
0.0
 11
-3590.835676448855
 21
11658.36048959261
 31
0.0
  0
POLYLINE
  8
DIK
 66
     1
 10
0.0
 20
0.0
 30
0.0
 70
     1
  0
VERTEX
  8
DIK
 10
-3661.835676448855
 20
11558.36048959261
 30
0.0
  0
VERTEX
  8
DIK
 10
-3661.835676448855
 20
11658.36048959261
 30
0.0
  0
VERTEX
  8
DIK
 10
-3561.835676448855
 20
11658.36048959261
 30
0.0
  0
VERTEX
  8
DIK
 10
-3561.835676448855
 20
11558.36048959261
 30
0.0
  0
SEQEND
  8
DIK
  0
POLYLINE
  8
DIK
 66
     1
 10
0.0
 20
0.0
 30
0.0
 70
     1
  0
VERTEX
  8
DIK
 10
-3661.835676448855
 20
11658.36048959261
 30
0.0
  0
VERTEX
  8
DIK
 10
-3561.835676448855
 20
11658.36048959261
 30
0.0
  0
VERTEX
  8
DIK
 10
-3561.835676448855
 20
11558.36048959261
 30
0.0
  0
VERTEX
  8
DIK
 10
-3661.835676448855
 20
11558.36048959261
 30
0.0
  0
SEQEND
  8
DIK
  0
ARC
  8
DIK
 10
-3661.835676448855
 20
11608.36048959261
 30
0.0
 40
17.5
 50
90.0
 51
270.0
  0
ARC
  8
DIK
 10
-3611.835676448855
 20
11558.36048959261
 30
0.0
 40
17.5
 50
179.999999999988
 51
0.000000000012
  0
LINE
  8
DIK
 10
-3461.835676448855
 20
11558.36048959261
 30
0.0
 11
-3461.835676448855
 21
11658.36048959261
 31
0.0
  0
LINE
  8
DIK
 10
-3561.835676448855
 20
11558.36048959261
 30
0.0
 11
-3461.835676448855
 21
11558.36048959261
 31
0.0
  0
ARC
  8
DIK
 10
-3461.835676448855
 20
11608.36048959261
 30
0.0
 40
17.5
 50
270.0
 51
90.0
  0
POLYLINE
  8
DIK
 66
     1
 10
0.0
 20
0.0
 30
0.0
 70
     1
  0
VERTEX
  8
DIK
 10
-3661.835676448855
 20
11800.86048959261
 30
0.0
  0
VERTEX
  8
DIK
 10
-3561.835676448855
 20
11800.86048959261
 30
0.0
  0
VERTEX
  8
DIK
 10
-3561.835676448855
 20
11765.86048959261
 30
0.0
  0
VERTEX
  8
DIK
 10
-3661.835676448855
 20
11765.86048959261
 30
0.0
  0
SEQEND
  8
DIK
  0
LINE
  8
DIK
 10
-3561.835676448855
 20
11898.36048959261
 30
0.0
 11
-3590.835676448855
 21
11898.36048959261
 31
0.0
  0
LINE
  8
DIK
 10
-3561.835676448855
 20
11948.36048959261
 30
0.0
 11
-3590.835676448855
 21
11948.36048959261
 31
0.0
  0
LINE
  8
DIK
 10
-3561.835676448855
 20
12368.36048959261
 30
0.0
 11
-3590.835676448855
 21
12368.36048959261
 31
0.0
  0
LINE
  8
DIK
 10
-3315.184485577883
 20
12612.11846165013
 30
0.0
 11
-3456.605841815192
 21
12753.53981788744
 31
0.0
  0
LINE
  8
DIK
 10
-3344.882970387718
 20
12582.41997684029
 30
0.0
 11
-3486.304326625026
 21
12723.8413330776
 31
0.0
  0
LINE
  8
DIK
 10
-3590.835676448855
 20
12758.36048959261
 30
0.0
 11
-3590.835676448856
 21
13758.36048959261
 31
0.0
  0
LINE
  8
DIK
 10
-3632.835676448856
 20
12758.36048959261
 30
0.0
 11
-3632.835676448856
 21
13758.36048959261
 31
0.0
  0
ARC
  8
DIK
 10
-3611.835676448855
 20
12758.36048959261
 30
0.0
 40
17.5
 50
0.0
 51
180.0
  0
LINE
  8
DIK
 10
-3661.835676448855
 20
12758.36048959261
 30
0.0
 11
-3561.835676448855
 21
12758.36048959261
 31
0.0
  0
POLYLINE
  8
DIK
 66
     1
 10
0.0
 20
0.0
 30
0.0
 70
     1
  0
VERTEX
  8
DIK
 10
-3661.835676448855
 20
12515.86048959261
 30
0.0
  0
VERTEX
  8
DIK
 10
-3561.835676448855
 20
12515.86048959261
 30
0.0
  0
VERTEX
  8
DIK
 10
-3561.835676448855
 20
12550.86048959261
 30
0.0
  0
VERTEX
  8
DIK
 10
-3661.835676448855
 20
12550.86048959261
 30
0.0
  0
SEQEND
  8
DIK
  0
LINE
  8
DIK
 10
-3561.835676448855
 20
12418.36048959261
 30
0.0
 11
-3590.835676448855
 21
12418.36048959261
 31
0.0
  0
LINE
  8
DIK
 10
-3461.835676448855
 20
12658.36048959261
 30
0.0
 11
-3661.835676448855
 21
12658.36048959261
 31
0.0
  0
POLYLINE
  8
DIK
 66
     1
 10
0.0
 20
0.0
 30
0.0
 70
     1
  0
VERTEX
  8
DIK
 10
-3661.835676448855
 20
12758.36048959261
 30
0.0
  0
VERTEX
  8
DIK
 10
-3561.835676448855
 20
12758.36048959261
 30
0.0
  0
VERTEX
  8
DIK
 10
-3561.835676448855
 20
12658.36048959261
 30
0.0
  0
VERTEX
  8
DIK
 10
-3661.835676448855
 20
12658.36048959261
 30
0.0
  0
SEQEND
  8
DIK
  0
ARC
  8
DIK
 10
-3661.835676448855
 20
12708.36048959261
 30
0.0
 40
17.5
 50
90.0
 51
270.0
  0
LINE
  8
DIK
 10
-3632.835676448856
 20
12658.36048959261
 30
0.0
 11
-3632.835676448856
 21
12550.86048959261
 31
0.0
  0
LINE
  8
DIK
 10
-3590.835676448855
 20
12658.36048959261
 30
0.0
 11
-3590.835676448855
 21
12550.86048959261
 31
0.0
  0
LINE
  8
DIK
 10
-3661.835676448855
 20
12658.36048959261
 30
0.0
 11
-3661.835676448855
 21
12758.36048959261
 31
0.0
  0
LINE
  8
DIK
 10
-3486.304326625027
 20
12723.8413330776
 30
0.0
 11
-3456.605841815191
 21
12753.53981788744
 31
0.0
  0
LINE
  8
DIK
 10
-3461.835676448855
 20
12748.30998325378
 30
0.0
 11
-3461.835676448855
 21
12758.36048959261
 31
0.0
  0
LINE
  8
DIK
 10
-3461.835676448855
 20
12758.36048959261
 30
0.0
 11
-3561.835676448855
 21
12758.36048959261
 31
0.0
  0
LINE
  8
DIK
 10
-3561.835676448855
 20
12758.36048959261
 30
0.0
 11
-3561.835676448855
 21
12658.36048959261
 31
0.0
  0
LINE
  8
DIK
 10
-3461.835676448855
 20
12658.36048959261
 30
0.0
 11
-3461.835676448855
 21
12699.37268290143
 31
0.0
  0
ARC
  8
DIK
 10
-3461.835676448855
 20
12708.36048959261
 30
0.0
 40
17.5
 50
270.0
 51
293.705472997916
  0
LINE
  8
DIK
 10
-3561.835676448856
 20
13758.36048959261
 30
0.0
 11
-3661.835676448855
 21
13758.36048959261
 31
0.0
  0
POLYLINE
  8
DIK
 66
     1
 10
0.0
 20
0.0
 30
0.0
 70
     1
  0
VERTEX
  8
DIK
 10
-3294.678388923472
 20
12491.20320206723
 30
0.0
  0
VERTEX
  8
DIK
 10
-3365.389067042128
 20
12561.91388018588
 30
0.0
  0
VERTEX
  8
DIK
 10
-3294.678388923472
 20
12632.62455830454
 30
0.0
  0
VERTEX
  8
DIK
 10
-3223.967710804819
 20
12561.91388018588
 30
0.0
  0
SEQEND
  8
DIK
  0
LINE
  8
DIK
 10
-2461.835676448855
 20
11658.36048959261
 30
0.0
 11
-2461.835676448856
 21
11758.36048959261
 31
0.0
  0
LINE
  8
DIK
 10
-2561.835676448855
 20
11558.36048959261
 30
0.0
 11
-2561.835676448855
 21
11758.36048959261
 31
0.0
  0
LINE
  8
DIK
 10
-2461.835676448855
 20
11558.36048959261
 30
0.0
 11
-2561.835676448855
 21
11558.36048959261
 31
0.0
  0
LINE
  8
DIK
 10
-2561.835676448855
 20
11658.36048959261
 30
0.0
 11
-2461.835676448855
 21
11658.36048959261
 31
0.0
  0
ARC
  8
DIK
 10
-2511.835676448856
 20
11658.36048959261
 30
0.0
 40
17.5
 50
0.0
 51
180.0
  0
LINE
  8
DIK
 10
-2461.835676448855
 20
11658.36048959261
 30
0.0
 11
-2461.835676448855
 21
11558.36048959261
 31
0.0
  0
LINE
  8
DIK
 10
-2520.82348314004
 20
11758.36048959261
 30
0.0
 11
-2561.835676448855
 21
11758.36048959261
 31
0.0
  0
LINE
  8
DIK
 10
-2466.65634815403
 20
11763.59032422627
 30
0.0
 11
-2608.077704391338
 21
11905.01168046358
 31
0.0
  0
LINE
  8
DIK
 10
-2496.354832963865
 20
11733.89183941643
 30
0.0
 11
-2637.776189201175
 21
11875.31319565374
 31
0.0
  0
POLYLINE
  8
DIK
 66
     1
 10
0.0
 20
0.0
 30
0.0
 70
     1
  0
VERTEX
  8
DIK
 10
-2658.282285855583
 20
11854.80709899934
 30
0.0
  0
VERTEX
  8
DIK
 10
-2728.992963974238
 20
11925.51777711799
 30
0.0
  0
VERTEX
  8
DIK
 10
-2658.282285855583
 20
11996.22845523665
 30
0.0
  0
VERTEX
  8
DIK
 10
-2587.571607736929
 20
11925.51777711799
 30
0.0
  0
SEQEND
  8
DIK
  0
LINE
  8
DIK
 10
-2461.835676448856
 20
11758.36048959261
 30
0.0
 11
-2471.88618278769
 21
11758.36048959261
 31
0.0
  0
LINE
  8
DIK
 10
-2496.354832963866
 20
11733.89183941643
 30
0.0
 11
-2466.656348154029
 21
11763.59032422627
 31
0.0
  0
ARC
  8
DIK
 10
-3661.835676448856
 20
13858.36048959261
 30
0.0
 40
1500.0
 50
90.0
 51
180.0
  0
ARC
  8
DIK
 10
-3561.835676448855
 20
13858.36048959261
 30
0.0
 40
1500.0
 50
0.0
 51
90.0
  0
LINE
  8
DIK
 10
-3661.835676448855
 20
13858.36048959261
 30
0.0
 11
-3561.835676448855
 21
13858.36048959261
 31
0.0
  0
ARC
  8
DIK
 10
-3611.835676448855
 20
13858.36048959261
 30
0.0
 40
17.5
 50
0.000000000006
 51
179.999999999994
  0
LINE
  8
DIK
 10
2249.628394758721
 20
8464.639446811721
 30
0.0
 11
2249.628394758721
 21
7749.639446811722
 31
0.0
  0
LINE
  8
DIK
 10
2207.628394758721
 20
8464.639446811721
 30
0.0
 11
2207.628394758721
 21
7749.639446811722
 31
0.0
  0
LINE
  8
DIK
 10
3131.977203887748
 20
7894.802830991511
 30
0.0
 11
2566.291778938513
 21
8460.488255940751
 31
0.0
  0
LINE
  8
DIK
 10
2278.628394758721
 20
8282.875378099793
 30
0.0
 11
2954.364326046793
 21
7607.139446811722
 31
0.0
  0
LINE
  8
DIK
 10
2278.628394758721
 20
8707.139446811721
 30
0.0
 11
2278.628394758721
 21
7507.139446811723
 31
0.0
  0
LINE
  8
DIK
 10
93.218277614214
 20
7897.139446811718
 30
0.0
 11
93.218277614217
 21
8317.139446811721
 31
0.0
  0
POLYLINE
  8
DIK
 66
     1
 10
0.0
 20
0.0
 30
0.0
  0
VERTEX
  8
DIK
 10
243.218277614214
 20
7847.139446811721
 30
0.0
  0
VERTEX
  8
DIK
 10
243.218277614214
 20
7807.13944681172
 30
0.0
  0
VERTEX
  8
DIK
 10
-56.781722385786
 20
7807.13944681172
 30
0.0
  0
VERTEX
  8
DIK
 10
-56.781722385786
 20
8407.139446811719
 30
0.0
  0
SEQEND
  8
DIK
  0
INSERT
  8
DUN
  2
*X37
 10
-5055.146069728134
 20
24170.6501399675
 30
0.0
 50
270.0
1001
ACAD
1000
HATCH
1002
{
1070
    16
1000
AR-CONC
1040
1.0
1040
0.0
1002
}
  0
INSERT
  8
DUN
  2
*X38
 10
0.0
 20
0.0
 30
0.0
1001
ACAD
1000
HATCH
1002
{
1070
    16
1000
AR-CONC
1040
1.0
1040
0.0
1002
}
  0
LINE
  8
DIK
 10
3270.570133000312
 20
7856.61906480744
 30
0.0
 11
2528.108012754436
 21
8599.081185053313
 31
0.0
  0
LINE
  8
DIK
 10
2598.81869087309
 20
8669.791863171967
 30
0.0
 11
3341.280811118966
 21
7927.329742926091
 31
0.0
  0
LINE
  8
DIK
 10
2616.496360402758
 20
8510.692837404993
 30
0.0
 11
3182.181785351993
 21
7945.007412455757
 31
0.0
  0
LINE
  8
DIK
 10
3161.675688697584
 20
7924.501315801347
 30
0.0
 11
2595.990263748348
 21
8490.186740750585
 31
0.0
  0
LINE
  8
DIK
 10
2278.628394758721
 20
8495.007412455757
 30
0.0
 11
3166.496360402756
 21
7607.139446811722
 31
0.0
  0
LINE
  8
DIK
 10
2378.628394758721
 20
8607.139446811721
 30
0.0
 11
3278.628394758721
 21
7707.139446811723
 31
0.0
  0
POLYLINE
  8
DIK
 66
     1
 10
0.0
 20
0.0
 30
0.0
  0
VERTEX
  8
DIK
 10
3307.628394758721
 20
6207.13944681172
 30
0.0
  0
VERTEX
  8
DIK
 10
3028.628394758721
 20
6207.13944681172
 30
0.0
  0
SEQEND
  8
DIK
  0
POLYLINE
  8
DIK
 66
     1
 10
0.0
 20
0.0
 30
0.0
  0
VERTEX
  8
DIK
 10
3028.628394758721
 20
6207.13944681172
 30
0.0
  0
VERTEX
  8
DIK
 10
3028.628394758721
 20
5907.13944681172
 30
0.0
  0
VERTEX
  8
DIK
 10
3628.628394758721
 20
5907.13944681172
 30
0.0
  0
VERTEX
  8
DIK
 10
3628.628394758721
 20
6207.13944681172
 30
0.0
  0
VERTEX
  8
DIK
 10
3349.62839475872
 20
6207.13944681172
 30
0.0
  0
SEQEND
  8
DIK
  0
POLYLINE
  8
DIK
 66
     1
 10
0.0
 20
0.0
 30
0.0
  0
VERTEX
  8
DIK
 10
3028.628394758721
 20
7607.139446811722
 30
0.0
  0
VERTEX
  8
DIK
 10
3028.628394758721
 20
7407.139446811719
 30
0.0
  0
VERTEX
  8
DIK
 10
3307.62839475872
 20
7407.139446811719
 30
0.0
  0
SEQEND
  8
DIK
  0
POLYLINE
  8
DIK
 66
     1
 10
0.0
 20
0.0
 30
0.0
 70
     1
  0
VERTEX
  8
DIK
 10
3182.181785351993
 20
7803.586056218447
 30
0.0
  0
VERTEX
  8
DIK
 10
3111.471107233338
 20
7874.296734337101
 30
0.0
  0
VERTEX
  8
DIK
 10
3182.181785351993
 20
7945.007412455757
 30
0.0
  0
VERTEX
  8
DIK
 10
3252.892463470647
 20
7874.296734337101
 30
0.0
  0
SEQEND
  8
DIK
  0
LINE
  8
DIK
 10
2278.628394758721
 20
7607.139446811722
 30
0.0
 11
3378.628394758721
 21
7607.139446811722
 31
0.0
  0
LINE
  8
DIK
 10
2207.628394758721
 20
7897.139446811721
 30
0.0
 11
43.218277614217
 21
7897.139446811719
 31
0.0
  0
LINE
  8
DIK
 10
2207.628394758721
 20
7847.139446811721
 30
0.0
 11
43.218277614217
 21
7847.139446811719
 31
0.0
  0
LINE
  8
DIK
 10
43.218277614217
 20
7897.139446811719
 30
0.0
 11
43.218277614217
 21
7847.139446811719
 31
0.0
  0
POLYLINE
  8
DIK
 66
     1
 10
0.0
 20
0.0
 30
0.0
  0
VERTEX
  8
DIK
 10
2207.628394758721
 20
7707.13944681172
 30
0.0
  0
VERTEX
  8
DIK
 10
1928.628394758721
 20
7707.13944681172
 30
0.0
  0
SEQEND
  8
DIK
  0
POLYLINE
  8
DIK
 66
     1
 10
0.0
 20
0.0
 30
0.0
  0
VERTEX
  8
DIK
 10
1928.628394758721
 20
7707.13944681172
 30
0.0
  0
VERTEX
  8
DIK
 10
1928.628394758721
 20
7407.139446811719
 30
0.0
  0
VERTEX
  8
DIK
 10
2528.628394758721
 20
7407.139446811719
 30
0.0
  0
VERTEX
  8
DIK
 10
2528.628394758721
 20
7607.139446811722
 30
0.0
  0
SEQEND
  8
DIK
  0
LINE
  8
DIK
 10
2278.628394758721
 20
8070.743343743831
 30
0.0
 11
2742.232291690829
 21
7607.139446811722
 31
0.0
  0
POLYLINE
  8
DIK
 66
     1
 10
0.0
 20
0.0
 30
0.0
 70
     1
  0
VERTEX
  8
DIK
 10
2178.628394758721
 20
7749.639446811722
 30
0.0
  0
VERTEX
  8
DIK
 10
2278.628394758721
 20
7749.639446811722
 30
0.0
  0
VERTEX
  8
DIK
 10
2278.628394758721
 20
7714.639446811723
 30
0.0
  0
VERTEX
  8
DIK
 10
2178.628394758721
 20
7714.639446811723
 30
0.0
  0
SEQEND
  8
DIK
  0
ARC
  8
DIK
 10
2228.628394758721
 20
7507.139446811723
 30
0.0
 40
17.5
 50
179.999999999988
 51
0.000000000012
  0
POLYLINE
  8
DIK
 66
     1
 10
0.0
 20
0.0
 30
0.0
 70
     1
  0
VERTEX
  8
DIK
 10
2178.628394758721
 20
7507.139446811723
 30
0.0
  0
VERTEX
  8
DIK
 10
2178.628394758721
 20
7607.139446811722
 30
0.0
  0
VERTEX
  8
DIK
 10
2278.628394758721
 20
7607.139446811722
 30
0.0
  0
VERTEX
  8
DIK
 10
2278.628394758721
 20
7507.139446811723
 30
0.0
  0
SEQEND
  8
DIK
  0
POLYLINE
  8
DIK
 66
     1
 10
0.0
 20
0.0
 30
0.0
 70
     1
  0
VERTEX
  8
DIK
 10
2178.628394758721
 20
7607.139446811724
 30
0.0
  0
VERTEX
  8
DIK
 10
2278.628394758721
 20
7607.139446811724
 30
0.0
  0
VERTEX
  8
DIK
 10
2278.628394758721
 20
7507.139446811724
 30
0.0
  0
VERTEX
  8
DIK
 10
2178.628394758721
 20
7507.139446811724
 30
0.0
  0
SEQEND
  8
DIK
  0
ARC
  8
DIK
 10
2178.628394758721
 20
7557.139446811724
 30
0.0
 40
17.5
 50
90.0
 51
270.0
  0
LINE
  8
DIK
 10
2207.628394758721
 20
7714.639446811723
 30
0.0
 11
2207.628394758721
 21
7607.139446811724
 31
0.0
  0
LINE
  8
DIK
 10
2278.628394758721
 20
7858.611309387868
 30
0.0
 11
2530.100257334865
 21
7607.139446811722
 31
0.0
  0
ARC
  8
DIK
 10
2378.628394758721
 20
7557.139446811723
 30
0.0
 40
17.5
 50
270.0
 51
90.0
  0
POLYLINE
  8
DIK
 66
     1
 10
0.0
 20
0.0
 30
0.0
  0
VERTEX
  8
DIK
 10
2278.628394758721
 20
7707.13944681172
 30
0.0
  0
VERTEX
  8
DIK
 10
2249.628394758721
 20
7707.13944681172
 30
0.0
  0
SEQEND
  8
DIK
  0
LINE
  8
DIK
 10
2378.628394758721
 20
7507.139446811723
 30
0.0
 11
2378.628394758721
 21
7607.139446811722
 31
0.0
  0
LINE
  8
DIK
 10
2278.628394758721
 20
7507.139446811723
 30
0.0
 11
2378.628394758721
 21
7507.139446811723
 31
0.0
  0
LINE
  8
DIK
 10
2278.628394758721
 20
7707.139446811723
 30
0.0
 11
2278.628394758721
 21
7607.139446811722
 31
0.0
  0
LINE
  8
DIK
 10
2249.628394758721
 20
7714.639446811723
 30
0.0
 11
2249.628394758721
 21
7607.139446811724
 31
0.0
  0
LINE
  8
DIK
 10
2278.628394758721
 20
7646.479275031905
 30
0.0
 11
2317.968222978902
 21
7607.139446811722
 31
0.0
  0
LINE
  8
DIK
 10
2278.628394758721
 20
7897.139446811721
 30
0.0
 11
2249.628394758721
 21
7897.139446811721
 31
0.0
  0
LINE
  8
DIK
 10
2278.628394758721
 20
7847.139446811722
 30
0.0
 11
2249.628394758721
 21
7847.139446811722
 31
0.0
  0
LINE
  8
DIK
 10
3307.628394758721
 20
6107.139446811722
 30
0.0
 11
3307.628394758721
 21
7507.139446811723
 31
0.0
  0
LINE
  8
DIK
 10
3349.628394758721
 20
6107.139446811722
 30
0.0
 11
3349.62839475872
 21
7507.139446811723
 31
0.0
  0
LINE
  8
DIK
 10
3278.628394758721
 20
6107.139446811722
 30
0.0
 11
3378.628394758721
 21
6107.139446811722
 31
0.0
  0
LINE
  8
DIK
 10
3378.628394758721
 20
6007.139446811722
 30
0.0
 11
3278.628394758721
 21
6007.139446811722
 31
0.0
  0
LINE
  8
DIK
 10
3278.628394758721
 20
6007.139446811722
 30
0.0
 11
3278.628394758721
 21
6107.139446811722
 31
0.0
  0
LINE
  8
DIK
 10
3378.628394758721
 20
6107.139446811722
 30
0.0
 11
3378.628394758721
 21
6007.139446811722
 31
0.0
  0
ARC
  8
DIK
 10
3328.628394758721
 20
6007.139446811722
 30
0.0
 40
17.5
 50
180.0
 51
0.0
  0
POLYLINE
  8
DIK
 66
     1
 10
0.0
 20
0.0
 30
0.0
  0
VERTEX
  8
DIK
 10
3349.62839475872
 20
7407.139446811719
 30
0.0
  0
VERTEX
  8
DIK
 10
3628.628394758721
 20
7407.139446811719
 30
0.0
  0
VERTEX
  8
DIK
 10
3628.628394758721
 20
7707.13944681172
 30
0.0
  0
VERTEX
  8
DIK
 10
3368.577888419886
 20
7707.13944681172
 30
0.0
  0
SEQEND
  8
DIK
  0
LINE
  8
DIK
 10
3344.109238243711
 20
7682.670796635545
 30
0.0
 11
3202.687882006401
 21
7824.092152872855
 31
0.0
  0
LINE
  8
DIK
 10
3373.807723053547
 20
7712.369281445381
 30
0.0
 11
3232.386366816238
 21
7853.790637682692
 31
0.0
  0
POLYLINE
  8
DIK
 66
     1
 10
0.0
 20
0.0
 30
0.0
  0
VERTEX
  8
DIK
 10
3319.640588067536
 20
7707.13944681172
 30
0.0
  0
VERTEX
  8
DIK
 10
3278.628394758721
 20
7707.13944681172
 30
0.0
  0
SEQEND
  8
DIK
  0
LINE
  8
DIK
 10
3319.640588067536
 20
7707.13944681172
 30
0.0
 11
3278.628394758721
 21
7707.139446811723
 31
0.0
  0
LINE
  8
DIK
 10
3278.628394758721
 20
7607.139446811722
 30
0.0
 11
3378.628394758721
 21
7607.139446811722
 31
0.0
  0
LINE
  8
DIK
 10
3378.628394758721
 20
7507.139446811723
 30
0.0
 11
3278.628394758721
 21
7507.139446811723
 31
0.0
  0
LINE
  8
DIK
 10
3278.628394758721
 20
7507.139446811723
 30
0.0
 11
3278.628394758721
 21
7707.139446811723
 31
0.0
  0
LINE
  8
DIK
 10
3378.62839475872
 20
7707.13944681172
 30
0.0
 11
3368.577888419886
 21
7707.13944681172
 31
0.0
  0
LINE
  8
DIK
 10
3344.10923824371
 20
7682.670796635545
 30
0.0
 11
3373.807723053547
 21
7712.369281445381
 31
0.0
  0
LINE
  8
DIK
 10
3378.628394758721
 20
7607.139446811722
 30
0.0
 11
3378.628394758721
 21
7507.139446811723
 31
0.0
  0
ARC
  8
DIK
 10
3328.628394758721
 20
7607.139446811722
 30
0.0
 40
17.5
 50
0.0
 51
180.0
  0
LINE
  8
DIK
 10
3378.628394758721
 20
7607.139446811722
 30
0.0
 11
3378.62839475872
 21
7707.13944681172
 31
0.0
  0
LINE
  8
DIK
 10
3341.280811118967
 20
7927.329742926093
 30
0.0
 11
3270.570133000312
 21
7856.619064807437
 31
0.0
  0
ARC
  8
DIK
 10
3288.247802529973
 20
7980.362751515087
 30
0.0
 40
17.5
 50
314.999999999994
 51
135.000000000006
  0
LINE
  8
DIK
 10
2207.628394758721
 20
8367.139446811719
 30
0.0
 11
43.218277614217
 21
8367.139446811718
 31
0.0
  0
LINE
  8
DIK
 10
2207.628394758721
 20
8317.139446811721
 30
0.0
 11
43.218277614217
 21
8317.139446811719
 31
0.0
  0
LINE
  8
DIK
 10
-961.835676448855
 20
12421.10218938955
 30
0.0
 11
-961.835676448855
 21
10058.36048959261
 31
0.0
  0
LINE
  8
STREEPLIJN
 10
-961.835676448855
 20
10058.36048959261
 30
0.0
 11
-961.835676448855
 21
8558.360489592613
 31
0.0
  0
POLYLINE
  8
DIK
 66
     1
 10
0.0
 20
0.0
 30
0.0
  0
VERTEX
  8
DIK
 10
-56.781722385786
 20
8407.139446811719
 30
0.0
  0
VERTEX
  8
DIK
 10
243.218277614214
 20
8407.139446811719
 30
0.0
  0
VERTEX
  8
DIK
 10
243.218277614214
 20
8367.139446811719
 30
0.0
  0
SEQEND
  8
DIK
  0
LINE
  8
DIK
 10
43.218277614217
 20
8317.139446811721
 30
0.0
 11
43.218277614217
 21
8367.139446811719
 31
0.0
  0
POLYLINE
  8
DIK
 66
     1
 10
0.0
 20
0.0
 30
0.0
 70
     1
  0
VERTEX
  8
DIK
 10
1928.628394758721
 20
9907.139446811722
 30
0.0
  0
VERTEX
  8
DIK
 10
1928.628394758721
 20
9607.139446811721
 30
0.0
  0
VERTEX
  8
DIK
 10
2528.628394758721
 20
9607.139446811721
 30
0.0
  0
VERTEX
  8
DIK
 10
2528.628394758721
 20
9907.139446811722
 30
0.0
  0
SEQEND
  8
DIK
  0
POLYLINE
  8
DIK
 66
     1
 10
0.0
 20
0.0
 30
0.0
  0
VERTEX
  8
DIK
 10
2207.628394758721
 20
8807.139446811724
 30
0.0
  0
VERTEX
  8
DIK
 10
1928.628394758722
 20
8807.139446811724
 30
0.0
  0
VERTEX
  8
DIK
 10
1928.628394758722
 20
8507.139446811725
 30
0.0
  0
VERTEX
  8
DIK
 10
2207.628394758721
 20
8507.139446811725
 30
0.0
  0
SEQEND
  8
DIK
  0
LINE
  8
DIK
 10
2207.62839475872
 20
9215.139446811722
 30
0.0
 11
2207.62839475872
 21
9707.139446811723
 31
0.0
  0
LINE
  8
DIK
 10
2249.628394758721
 20
9215.139446811722
 30
0.0
 11
2249.628394758721
 21
9707.139446811723
 31
0.0
  0
LINE
  8
DIK
 10
2528.108012754437
 20
8599.081185053313
 30
0.0
 11
2598.818690873092
 21
8669.791863171971
 31
0.0
  0
POLYLINE
  8
DIK
 66
     1
 10
0.0
 20
0.0
 30
0.0
 70
     1
  0
VERTEX
  8
DIK
 10
2545.785682284104
 20
8439.982159286341
 30
0.0
  0
VERTEX
  8
DIK
 10
2475.075004165449
 20
8510.692837404995
 30
0.0
  0
VERTEX
  8
DIK
 10
2545.785682284104
 20
8581.403515523652
 30
0.0
  0
VERTEX
  8
DIK
 10
2616.496360402758
 20
8510.692837404995
 30
0.0
  0
SEQEND
  8
DIK
  0
LINE
  8
DIK
 10
2207.628394758721
 20
8707.139446811721
 30
0.0
 11
2207.628394758721
 21
9199.139446811722
 31
0.0
  0
LINE
  8
DIK
 10
2249.628394758721
 20
8707.139446811721
 30
0.0
 11
2249.628394758721
 21
9199.139446811722
 31
0.0
  0
POLYLINE
  8
DIK
 66
     1
 10
0.0
 20
0.0
 30
0.0
  0
VERTEX
  8
DIK
 10
2528.628394758723
 20
8598.560803049025
 30
0.0
  0
VERTEX
  8
DIK
 10
2528.628394758722
 20
8807.139446811724
 30
0.0
  0
VERTEX
  8
DIK
 10
2249.628394758721
 20
8807.139446811724
 30
0.0
  0
SEQEND
  8
DIK
  0
LINE
  8
DIK
 10
2178.628394758721
 20
8707.139446811721
 30
0.0
 11
2278.628394758721
 21
8707.139446811721
 31
0.0
  0
POLYLINE
  8
DIK
 66
     1
 10
0.0
 20
0.0
 30
0.0
 70
     1
  0
VERTEX
  8
DIK
 10
2178.628394758721
 20
8707.139446811721
 30
0.0
  0
VERTEX
  8
DIK
 10
2278.628394758721
 20
8707.139446811721
 30
0.0
  0
VERTEX
  8
DIK
 10
2278.628394758721
 20
8607.139446811721
 30
0.0
  0
VERTEX
  8
DIK
 10
2178.628394758721
 20
8607.139446811721
 30
0.0
  0
SEQEND
  8
DIK
  0
LINE
  8
DIK
 10
2378.628394758721
 20
8607.139446811721
 30
0.0
 11
2178.628394758721
 21
8607.139446811721
 31
0.0
  0
ARC
  8
DIK
 10
2228.628394758721
 20
8707.139446811721
 30
0.0
 40
17.5
 50
0.0
 51
180.0
  0
POLYLINE
  8
DIK
 66
     1
 10
0.0
 20
0.0
 30
0.0
 70
     1
  0
VERTEX
  8
DIK
 10
2178.628394758721
 20
8464.639446811721
 30
0.0
  0
VERTEX
  8
DIK
 10
2278.628394758721
 20
8464.639446811721
 30
0.0
  0
VERTEX
  8
DIK
 10
2278.628394758721
 20
8499.639446811722
 30
0.0
  0
VERTEX
  8
DIK
 10
2178.628394758721
 20
8499.639446811722
 30
0.0
  0
SEQEND
  8
DIK
  0
LINE
  8
DIK
 10
2178.628394758721
 20
8607.139446811721
 30
0.0
 11
2178.628394758721
 21
8707.139446811721
 31
0.0
  0
ARC
  8
DIK
 10
2178.628394758721
 20
8657.139446811722
 30
0.0
 40
17.5
 50
90.0
 51
270.0
  0
LINE
  8
DIK
 10
2207.628394758721
 20
8607.139446811721
 30
0.0
 11
2207.628394758721
 21
8499.639446811722
 31
0.0
  0
LINE
  8
DIK
 10
2278.628394758721
 20
8367.139446811721
 30
0.0
 11
2249.628394758721
 21
8367.139446811721
 31
0.0
  0
LINE
  8
DIK
 10
2278.628394758721
 20
8317.139446811721
 30
0.0
 11
2249.628394758721
 21
8317.139446811721
 31
0.0
  0
LINE
  8
DIK
 10
2525.279585629693
 20
8560.897418869242
 30
0.0
 11
2383.858229392385
 21
8702.318775106551
 31
0.0
  0
LINE
  8
DIK
 10
2495.581100819859
 20
8531.198934059405
 30
0.0
 11
2354.15974458255
 21
8672.620290296714
 31
0.0
  0
POLYLINE
  8
DIK
 66
     1
 10
0.0
 20
0.0
 30
0.0
  0
VERTEX
  8
DIK
 10
2249.628394758721
 20
8507.139446811725
 30
0.0
  0
VERTEX
  8
DIK
 10
2278.628394758721
 20
8507.139446811725
 30
0.0
  0
SEQEND
  8
DIK
  0
LINE
  8
DIK
 10
2378.628394758721
 20
8697.088940472886
 30
0.0
 11
2378.628394758721
 21
8707.139446811721
 31
0.0
  0
LINE
  8
DIK
 10
2378.628394758721
 20
8607.139446811721
 30
0.0
 11
2378.628394758721
 21
8648.151640120543
 31
0.0
  0
LINE
  8
DIK
 10
2354.159744582549
 20
8672.620290296714
 30
0.0
 11
2383.858229392386
 21
8702.318775106551
 31
0.0
  0
ARC
  8
DIK
 10
2378.628394758721
 20
8657.139446811722
 30
0.0
 40
17.5
 50
270.0
 51
293.705472997916
  0
LINE
  8
DIK
 10
2278.628394758721
 20
8707.139446811721
 30
0.0
 11
2278.628394758721
 21
8607.139446811721
 31
0.0
  0
LINE
  8
DIK
 10
2378.628394758721
 20
8707.139446811721
 30
0.0
 11
2278.628394758721
 21
8707.139446811721
 31
0.0
  0
LINE
  8
DIK
 10
2249.628394758721
 20
8607.139446811721
 30
0.0
 11
2249.628394758721
 21
8499.639446811722
 31
0.0
  0
POLYLINE
  8
DIK
 66
     1
 10
0.0
 20
0.0
 30
0.0
  0
VERTEX
  8
DIK
 10
2528.628394758722
 20
8564.246227998271
 30
0.0
  0
VERTEX
  8
DIK
 10
2528.628394758722
 20
8598.560803049029
 30
0.0
  0
SEQEND
  8
DIK
  0
LINE
  8
DIK
 10
2199.62839475872
 20
9215.139446811722
 30
0.0
 11
2257.628394758721
 21
9215.139446811722
 31
0.0
  0
LINE
  8
DIK
 10
2199.62839475872
 20
9199.139446811722
 30
0.0
 11
2257.628394758721
 21
9199.139446811722
 31
0.0
  0
LINE
  8
DIK
 10
2199.628394758721
 20
9199.139446811722
 30
0.0
 11
2199.62839475872
 21
9215.13944681172
 31
0.0
  0
LINE
  8
DIK
 10
2257.628394758721
 20
9199.139446811722
 30
0.0
 11
2257.62839475872
 21
9215.13944681172
 31
0.0
  0
ARC
  8
DIK
 10
2652.390135207675
 20
8616.220418837384
 30
0.0
 40
17.5
 50
314.999999999994
 51
135.000000000006
  0
ARC
  8
DIK
 10
2228.628394758721
 20
9807.139446811724
 30
0.0
 40
17.5
 50
0.000000000006
 51
179.999999999994
  0
LINE
  8
DIK
 10
2178.628394758721
 20
9807.139446811724
 30
0.0
 11
2278.628394758721
 21
9807.139446811724
 31
0.0
  0
LINE
  8
DIK
 10
2278.628394758721
 20
9707.139446811723
 30
0.0
 11
2178.628394758721
 21
9707.139446811723
 31
0.0
  0
LINE
  8
DIK
 10
2178.628394758721
 20
9707.139446811723
 30
0.0
 11
2178.628394758721
 21
9807.139446811724
 31
0.0
  0
LINE
  8
DIK
 10
2278.628394758721
 20
9807.139446811724
 30
0.0
 11
2278.628394758721
 21
9707.139446811723
 31
0.0
  0
LINE
  8
STREEPLIJN
 10
-5161.835676448856
 20
15358.36048959261
 30
0.0
 11
-2061.835676448849
 21
15358.36048959262
 31
0.0
  0
ENDBLK
  8
0
  0
BLOCK
  8
0
  2
*X37
 70
    65
 10
0.0
 20
0.0
 30
0.0
  3
*X
  0
LINE
  8
0
 62
     0
 10
15927.67466792467
 20
4998.364347342348
 30
0.0
 11
15939.32766125242
 21
5012.251844005175
 31
0.0
  0
LINE
  8
0
 62
     0
 10
15941.86220814453
 20
4998.364347342348
 30
0.0
 11
15939.32058127112
 21
5012.143493649947
 31
0.0
  0
LINE
  8
0
 62
     0
 10
16025.8581436559
 20
5056.845299006559
 30
0.0
 11
16043.64285078067
 21
5063.672208445397
 31
0.0
  0
LINE
  8
0
 62
     0
 10
16239.27462915316
 20
5138.768212272615
 30
0.0
 11
16257.05933627794
 21
5145.595121711452
 31
0.0
  0
LINE
  8
0
 62
     0
 10
16025.85011203798
 20
5056.837368184133
 30
0.0
 11
16038.48464464371
 21
5048.315268335239
 31
0.0
  0
LINE
  8
0
 62
     0
 10
16239.26653165449
 20
5138.760136119722
 30
0.0
 11
16251.90106426023
 21
5130.238036270829
 31
0.0
  0
LINE
  8
0
 62
     0
 10
16038.48885695864
 20
5048.322199525956
 30
0.0
 11
16043.63904067698
 21
5063.671196485604
 31
0.0
  0
LINE
  8
0
 62
     0
 10
16251.90534772876
 20
5130.245057242013
 30
0.0
 11
16257.05553144711
 21
5145.594054201661
 31
0.0
  0
LINE
  8
0
 62
     0
 10
15858.67976786629
 20
5018.691868387864
 30
0.0
 11
15858.67976786629
 21
5018.691868387864
 31
0.0
  0
LINE
  8
0
 62
     0
 10
15993.69263931706
 20
5122.290888376568
 30
0.0
 11
15993.69263931706
 21
5122.290888376568
 31
0.0
  0
LINE
  8
0
 62
     0
 10
15861.76837111689
 20
5103.246907261018
 30
0.0
 11
15861.76837111689
 21
5103.246907261018
 31
0.0
  0
LINE
  8
0
 62
     0
 10
15990.60403606647
 20
5037.735849503417
 30
0.0
 11
15990.60403606647
 21
5037.735849503417
 31
0.0
  0
LINE
  8
0
 62
     0
 10
16124.10556940397
 20
5140.175178969859
 30
0.0
 11
16124.10556940397
 21
5140.175178969859
 31
0.0
  0
LINE
  8
0
 62
     0
 10
16121.01696615338
 20
5055.620140096704
 30
0.0
 11
16121.01696615338
 21
5055.620140096704
 31
0.0
  0
LINE
  8
0
 62
     0
 10
16249.31402288174
 20
5071.880863958829
 30
0.0
 11
16249.31402288174
 21
5071.880863958829
 31
0.0
  0
LINE
  8
0
 62
     0
 10
15909.97757324421
 20
5110.247062979855
 30
0.0
 11
15909.97757324421
 21
5110.247062979855
 31
0.0
  0
LINE
  8
0
 62
     0
 10
15973.56388942842
 20
5118.618360317888
 30
0.0
 11
15973.56388942842
 21
5118.618360317888
 31
0.0
  0
LINE
  8
0
 62
     0
 10
16069.76180143779
 20
5131.283055696615
 30
0.0
 11
16069.76180143779
 21
5131.283055696615
 31
0.0
  0
LINE
  8
0
 62
     0
 10
16360.58157581287
 20
5260.953804701587
 30
0.0
 11
16360.58157581287
 21
5260.953804701587
 31
0.0
  0
LINE
  8
0
 62
     0
 10
15787.00519057488
 20
5276.824640388547
 30
0.0
 11
15787.00519057488
 21
5276.824640388547
 31
0.0
  0
LINE
  8
0
 62
     0
 10
15843.1579107339
 20
5010.066488161736
 30
0.0
 11
15843.1579107339
 21
5010.066488161736
 31
0.0
  0
LINE
  8
0
 62
     0
 10
15906.74422691811
 20
5018.437785499769
 30
0.0
 11
15906.74422691811
 21
5018.437785499769
 31
0.0
  0
LINE
  8
0
 62
     0
 10
16002.94213892749
 20
5031.102480878495
 30
0.0
 11
16002.94213892749
 21
5031.102480878495
 31
0.0
  0
LINE
  8
0
 62
     0
 10
16163.35593460805
 20
5052.221357727316
 30
0.0
 11
16163.35593460805
 21
5052.221357727316
 31
0.0
  0
LINE
  8
0
 62
     0
 10
16226.94225079226
 20
5060.59265506535
 30
0.0
 11
16226.94225079226
 21
5060.59265506535
 31
0.0
  0
LINE
  8
0
 62
     0
 10
16323.14016280164
 20
5073.257350444076
 30
0.0
 11
16323.14016280164
 21
5073.257350444076
 31
0.0
  0
LINE
  8
0
 62
     0
 10
16109.08223751946
 20
5105.828284027206
 30
0.0
 11
16109.08223751946
 21
5105.828284027206
 31
0.0
  0
LINE
  8
0
 62
     0
 10
16162.63759432858
 20
5071.709758897184
 30
0.0
 11
16162.63759432858
 21
5071.709758897184
 31
0.0
  0
LINE
  8
0
 62
     0
 10
16244.67283268633
 20
5100.099540034535
 30
0.0
 11
16244.67283268633
 21
5100.099540034535
 31
0.0
  0
LINE
  8
0
 62
     0
 10
16298.22818949545
 20
5065.981014904512
 30
0.0
 11
16298.22818949545
 21
5065.981014904512
 31
0.0
  0
LINE
  8
0
 62
     0
 10
15973.49164235259
 20
5111.557028019881
 30
0.0
 11
15973.49164235259
 21
5111.557028019881
 31
0.0
  0
LINE
  8
0
 62
     0
 10
16027.04699916171
 20
5077.438502889858
 30
0.0
 11
16027.04699916171
 21
5077.438502889858
 31
0.0
  0
LINE
  8
0
 62
     0
 10
15891.45640399484
 20
5083.167246882531
 30
0.0
 11
15891.45640399484
 21
5083.167246882531
 31
0.0
  0
LINE
  8
0
 62
     0
 10
15773.7704791079
 20
5293.735695458747
 30
0.0
 11
15773.7704791079
 21
5293.735695458747
 31
0.0
  0
LINE
  8
0
 62
     0
 10
16069.28008302944
 20
5022.951033163899
 30
0.0
 11
16069.28008302944
 21
5022.951033163899
 31
0.0
  0
LINE
  8
0
 62
     0
 10
16217.40926441546
 20
5048.377524197232
 30
0.0
 11
16217.40926441546
 21
5048.377524197232
 31
0.0
  0
LINE
  8
0
 62
     0
 10
15783.50859563434
 20
5123.650477990334
 30
0.0
 11
15783.50859563434
 21
5123.650477990334
 31
0.0
  0
ENDBLK
  8
0
  0
BLOCK
  8
0
  2
*X38
 70
    65
 10
0.0
 20
0.0
 30
0.0
  3
*X
  0
LINE
  8
0
 62
     0
 10
3109.636446611995
 20
7434.853516199383
 30
0.0
 11
3121.881550576524
 21
7449.4466628408
 31
0.0
  0
LINE
  8
0
 62
     0
 10
3291.821115607999
 20
7418.914430660481
 30
0.0
 11
3304.066219572528
 21
7433.507577301896
 31
0.0
  0
LINE
  8
0
 62
     0
 10
3438.762363182342
 20
7594.032190357479
 30
0.0
 11
3451.00746714687
 21
7608.625336998896
 31
0.0
  0
LINE
  8
0
 62
     0
 10
3477.499880796388
 20
7407.139446811719
 30
0.0
 11
3486.250888568532
 21
7417.568491762993
 31
0.0
  0
LINE
  8
0
 62
     0
 10
3620.947032178346
 20
7578.093104818575
 30
0.0
 11
3628.628394758721
 21
7587.247396269755
 31
0.0
  0
LINE
  8
0
 62
     0
 10
3028.628394758721
 20
5939.961963391319
 30
0.0
 11
3039.459583957805
 21
5952.870072031394
 31
0.0
  0
LINE
  8
0
 62
     0
 10
3174.155727567619
 20
6113.394685086976
 30
0.0
 11
3186.400831532148
 21
6127.987831728393
 31
0.0
  0
LINE
  8
0
 62
     0
 10
3209.399148989281
 20
5922.337839851075
 30
0.0
 11
3221.644252953809
 21
5936.930986492492
 31
0.0
  0
LINE
  8
0
 62
     0
 10
3364.466109230928
 20
6107.139446811722
 30
0.0
 11
3368.585500528152
 21
6112.04874618949
 31
0.0
  0
LINE
  8
0
 62
     0
 10
3392.205332788471
 20
5907.139446811719
 30
0.0
 11
3403.828921949813
 21
5920.991900953588
 31
0.0
  0
LINE
  8
0
 62
     0
 10
3538.525065559627
 20
6081.51651400917
 30
0.0
 11
3550.770169524156
 21
6096.109660650586
 31
0.0
  0
LINE
  8
0
 62
     0
 10
2380.89777062798
 20
7498.609858354996
 30
0.0
 11
2393.142874592508
 21
7513.203004996412
 31
0.0
  0
LINE
  8
0
 62
     0
 10
2016.528432635972
 20
7530.488029432803
 30
0.0
 11
2028.773536600501
 21
7545.08117607422
 31
0.0
  0
LINE
  8
0
 62
     0
 10
2163.469680210315
 20
7705.605789129802
 30
0.0
 11
2164.756571805565
 21
7707.13944681172
 31
0.0
  0
LINE
  8
0
 62
     0
 10
2498.56315866836
 20
8804.129603928499
 30
0.0
 11
2501.088716721577
 21
8807.139446811724
 31
0.0
  0
LINE
  8
0
 62
     0
 10
1987.25257310201
 20
8660.890015309307
 30
0.0
 11
1999.497677066538
 21
8675.483161950724
 31
0.0
  0
LINE
  8
0
 62
     0
 10
2504.530720556058
 20
9743.474744569104
 30
0.0
 11
2516.775824520586
 21
9758.06789121052
 31
0.0
  0
LINE
  8
0
 62
     0
 10
2322.346051560054
 20
9759.413830108009
 30
0.0
 11
2334.591155524582
 21
9774.006976749426
 31
0.0
  0
LINE
  8
0
 62
     0
 10
1999.013522905393
 20
9607.139446811721
 30
0.0
 11
2005.465238954236
 21
9614.828302591329
 31
0.0
  0
LINE
  8
0
 62
     0
 10
2140.16138256405
 20
9775.352915646911
 30
0.0
 11
2152.406486528578
 21
9789.946062288327
 31
0.0
  0
LINE
  8
0
 62
     0
 10
1957.976713568047
 20
9791.292001185814
 30
0.0
 11
1970.221817532575
 21
9805.885147827231
 31
0.0
  0
LINE
  8
0
 62
     0
 10
1987.268906884018
 20
8660.881370788622
 30
0.0
 11
2002.450914082936
 21
8659.553117269148
 31
0.0
  0
LINE
  8
0
 62
     0
 10
2498.578340069407
 20
8804.120886969725
 30
0.0
 11
2513.760347268325
 21
8802.792633450252
 31
0.0
  0
LINE
  8
0
 62
     0
 10
1957.996037417035
 20
9791.282185848011
 30
0.0
 11
1973.178044615953
 21
9789.953932328536
 31
0.0
  0
LINE
  8
0
 62
     0
 10
2140.180123804054
 20
9775.343143614321
 30
0.0
 11
2155.362131002972
 21
9774.014890094846
 31
0.0
  0
LINE
  8
0
 62
     0
 10
2322.364210191072
 20
9759.404101380628
 30
0.0
 11
2337.54621738999
 21
9758.075847861153
 31
0.0
  0
LINE
  8
0
 62
     0
 10
2504.54829657809
 20
9743.465059146936
 30
0.0
 11
2519.730303777008
 21
9742.136805627463
 31
0.0
  0
LINE
  8
0
 62
     0
 10
2163.483036762353
 20
7705.598156377725
 30
0.0
 11
2178.665043961272
 21
7704.26990285825
 31
0.0
  0
LINE
  8
0
 62
     0
 10
3438.771641471482
 20
7594.024860741883
 30
0.0
 11
3453.9536486704
 21
7592.69660722241
 31
0.0
  0
LINE
  8
0
 62
     0
 10
3620.9557278585
 20
7578.085818508192
 30
0.0
 11
3628.62839475872
 21
7577.414547135412
 31
0.0
  0
LINE
  8
0
 62
     0
 10
2016.541776351002
 20
7530.480555729236
 30
0.0
 11
2031.72378354992
 21
7529.152302209763
 31
0.0
  0
LINE
  8
0
 62
     0
 10
2380.909949125038
 20
7498.602471261852
 30
0.0
 11
2396.091956323957
 21
7497.274217742377
 31
0.0
  0
LINE
  8
0
 62
     0
 10
3109.646294673112
 20
7434.846302327085
 30
0.0
 11
3124.82830187203
 21
7433.518048807611
 31
0.0
  0
LINE
  8
0
 62
     0
 10
3291.830381060131
 20
7418.907260093395
 30
0.0
 11
3307.012388259049
 21
7417.57900657392
 31
0.0
  0
LINE
  8
0
 62
     0
 10
3174.161990115763
 20
6113.388844385518
 30
0.0
 11
3189.343997314681
 21
6112.060590866044
 31
0.0
  0
LINE
  8
0
 62
     0
 10
3538.530162889801
 20
6081.510759918134
 30
0.0
 11
3553.712170088719
 21
6080.18250639866
 31
0.0
  0
LINE
  8
0
 62
     0
 10
3028.628394758721
 20
5938.148089002736
 30
0.0
 11
3042.40273690333
 21
5936.942990217556
 31
0.0
  0
LINE
  8
0
 62
     0
 10
3209.40481609143
 20
5922.332201503338
 30
0.0
 11
3224.586823290348
 21
5921.003947983864
 31
0.0
  0
LINE
  8
0
 62
     0
 10
3042.446171195346
 20
5936.925290833195
 30
0.0
 11
3039.509393135998
 21
5952.846705174582
 31
0.0
  0
LINE
  8
0
 62
     0
 10
2337.619436951912
 20
9758.064732766154
 30
0.0
 11
2334.682658892564
 21
9773.986147107541
 31
0.0
  0
LINE
  8
0
 62
     0
 10
2513.826120512771
 20
8802.779872282915
 30
0.0
 11
2513.021976951791
 21
8807.139446811728
 31
0.0
  0
LINE
  8
0
 62
     0
 10
3224.630009573477
 20
5920.985006556838
 30
0.0
 11
3221.693231514129
 21
5936.906420898226
 31
0.0
  0
LINE
  8
0
 62
     0
 10
3189.388672861305
 20
6112.041978653486
 30
0.0
 11
3186.451894801957
 21
6127.963392994873
 31
0.0
  0
LINE
  8
0
 62
     0
 10
2519.803275330043
 20
9742.124448489798
 30
0.0
 11
2516.866497270696
 21
9758.045862831185
 31
0.0
  0
LINE
  8
0
 62
     0
 10
3406.427466383249
 20
5907.139446811719
 30
0.0
 11
3403.87706989226
 21
5920.96613662187
 31
0.0
  0
LINE
  8
0
 62
     0
 10
3124.883154254235
 20
7433.500499053667
 30
0.0
 11
3121.946376194887
 21
7449.421913395054
 31
0.0
  0
LINE
  8
0
 62
     0
 10
3369.536547066947
 20
6107.139446811722
 30
0.0
 11
3368.635733180088
 21
6112.023108718518
 31
0.0
  0
LINE
  8
0
 62
     0
 10
3553.756349617567
 20
6080.161410100775
 30
0.0
 11
3550.819571558219
 21
6096.082824442162
 31
0.0
  0
LINE
  8
0
 62
     0
 10
3307.066992632365
 20
7417.560214777311
 30
0.0
 11
3304.130214573017
 21
7433.481629118698
 31
0.0
  0
LINE
  8
0
 62
     0
 10
3488.232730856068
 20
7407.139446811719
 30
0.0
 11
3486.314052951148
 21
7417.541344842342
 31
0.0
  0
LINE
  8
0
 62
     0
 10
3454.009494298324
 20
7592.676902597602
 30
0.0
 11
3451.072716238976
 21
7608.59831693899
 31
0.0
  0
LINE
  8
0
 62
     0
 10
2155.43559857378
 20
9774.005017042512
 30
0.0
 11
2152.498820514432
 21
9789.926431383898
 31
0.0
  0
LINE
  8
0
 62
     0
 10
2396.14780074171
 20
7497.261636159092
 30
0.0
 11
2393.211022682363
 21
7513.183050500479
 31
0.0
  0
LINE
  8
0
 62
     0
 10
2006.971140341503
 20
9607.139446811721
 30
0.0
 11
2005.556318848474
 21
9614.809743563606
 31
0.0
  0
LINE
  8
0
 62
     0
 10
1973.25176019565
 20
9789.945301318867
 30
0.0
 11
1970.314982136302
 21
9805.866715660254
 31
0.0
  0
LINE
  8
0
 62
     0
 10
2002.515942090549
 20
8659.543753015334
 30
0.0
 11
1999.579164031201
 21
8675.465167356721
 31
0.0
  0
LINE
  8
0
 62
     0
 10
2178.722625651408
 20
7704.258892532095
 30
0.0
 11
2178.191294173829
 21
7707.139446811718
 31
0.0
  0
LINE
  8
0
 62
     0
 10
2031.780123985448
 20
7529.142204711804
 30
0.0
 11
2028.8433459261
 21
7545.063619053192
 31
0.0
  0
LINE
  8
0
 62
     0
 10
3123.288222483376
 20
7525.281751350901
 30
0.0
 11
3143.071900322903
 21
7545.900595065857
 31
0.0
  0
LINE
  8
0
 62
     0
 10
3394.367263375507
 20
7483.239423418174
 30
0.0
 11
3414.150941215034
 21
7503.85826713313
 31
0.0
  0
LINE
  8
0
 62
     0
 10
3028.628394758721
 20
6128.36610108068
 30
0.0
 11
3040.367393519804
 21
6140.600660437548
 31
0.0
  0
LINE
  8
0
 62
     0
 10
3562.741797464538
 20
6035.897160857137
 30
0.0
 11
3582.525475304065
 21
6056.516004572094
 31
0.0
  0
LINE
  8
0
 62
     0
 10
2075.67593438239
 20
7407.139446811721
 30
0.0
 11
2092.430643572189
 21
7424.60145428456
 31
0.0
  0
LINE
  8
0
 62
     0
 10
2038.972058914857
 20
7693.451063081809
 30
0.0
 11
2052.105994920198
 21
7707.13944681172
 31
0.0
  0
LINE
  8
0
 62
     0
 10
2446.430513427893
 20
8767.240217265181
 30
0.0
 11
2466.21419126742
 21
8787.859060980137
 31
0.0
  0
LINE
  8
0
 62
     0
 10
1937.947338461439
 20
8561.856420618429
 30
0.0
 11
1957.731016300966
 21
8582.475264333385
 31
0.0
  0
LINE
  8
0
 62
     0
 10
2345.405792974474
 20
9635.645574801808
 30
0.0
 11
2365.189470814001
 21
9656.264418516762
 31
0.0
  0
LINE
  8
0
 62
     0
 10
2074.326752082345
 20
9677.687902734533
 30
0.0
 11
2094.110429921872
 21
9698.306746449489
 31
0.0
  0
LINE
  8
0
 62
     0
 10
2469.022835749351
 20
8763.717378625058
 30
0.0
 11
2466.21659841465
 21
8787.839697274419
 31
0.0
  0
LINE
  8
0
 62
     0
 10
2367.998291700129
 20
9632.120850002072
 30
0.0
 11
2365.192054365429
 21
9656.243168651432
 31
0.0
  0
LINE
  8
0
 62
     0
 10
3043.175550379658
 20
6116.46469659173
 30
0.0
 11
3040.369313044958
 21
6140.587015241091
 31
0.0
  0
LINE
  8
0
 62
     0
 10
3145.880392780267
 20
7521.761547651131
 30
0.0
 11
3143.074155445566
 21
7545.883866300493
 31
0.0
  0
LINE
  8
0
 62
     0
 10
3585.333715344946
 20
6032.380160787153
 30
0.0
 11
3582.527478010245
 21
6056.502479436514
 31
0.0
  0
LINE
  8
0
 62
     0
 10
3416.95947526291
 20
7479.719279748842
 30
0.0
 11
3414.15323792821
 21
7503.841598398203
 31
0.0
  0
LINE
  8
0
 62
     0
 10
2096.919209217485
 20
9674.16311790436
 30
0.0
 11
2094.112971882785
 21
9698.285436553721
 31
0.0
  0
LINE
  8
0
 62
     0
 10
2197.943753266707
 20
8805.759646527347
 30
0.0
 11
2197.783236065656
 21
8807.139446811724
 31
0.0
  0
LINE
  8
0
 62
     0
 10
2094.462191656637
 20
7407.139446811721
 30
0.0
 11
2092.432673531396
 21
7424.585114117308
 31
0.0
  0
LINE
  8
0
 62
     0
 10
2061.56406284969
 20
7689.930619260285
 30
0.0
 11
2059.562097157121
 21
7707.13944681172
 31
0.0
  0
LINE
  8
0
 62
     0
 10
1960.539518800469
 20
8558.334090637298
 30
0.0
 11
1957.733281465768
 21
8582.456409286658
 31
0.0
  0
LINE
  8
0
 62
     0
 10
1937.961188024127
 20
8561.834169824612
 30
0.0
 11
1960.551111324993
 21
8558.330605174004
 31
0.0
  0
LINE
  8
0
 62
     0
 10
2189.033885486872
 20
8807.139446811724
 30
0.0
 11
2197.955717138927
 21
8805.7557230346
 31
0.0
  0
LINE
  8
0
 62
     0
 10
2446.444873448452
 20
8767.216511877904
 30
0.0
 11
2469.034796749318
 21
8763.712947227295
 31
0.0
  0
LINE
  8
0
 62
     0
 10
2074.342372448689
 20
9677.662968688913
 30
0.0
 11
2096.932295749555
 21
9674.159404038306
 31
0.0
  0
LINE
  8
0
 62
     0
 10
2345.42145205908
 20
9635.62019288161
 30
0.0
 11
2368.011375359946
 21
9632.116628231001
 31
0.0
  0
LINE
  8
0
 62
     0
 10
2038.984609413499
 20
7693.430488820908
 30
0.0
 11
2061.574532714365
 21
7689.926924170299
 31
0.0
  0
LINE
  8
0
 62
     0
 10
3394.380007465454
 20
7483.216609784386
 30
0.0
 11
3416.969930766319
 21
7479.713045133778
 31
0.0
  0
LINE
  8
0
 62
     0
 10
3123.300927855063
 20
7525.259385591691
 30
0.0
 11
3145.890851155929
 21
7521.755820941083
 31
0.0
  0
LINE
  8
0
 62
     0
 10
3028.628394758721
 20
6118.716639231764
 30
0.0
 11
3043.184140527825
 21
6116.459128408878
 31
0.0
  0
LINE
  8
0
 62
     0
 10
3562.752376447741
 20
6035.877141444879
 30
0.0
 11
3585.342299748607
 21
6032.37357679427
 31
0.0
  0
LINE
  8
0
 62
     0
 10
1980.817981307055
 20
7528.245395080195
 30
0.0
 11
1998.602688431827
 21
7535.072304519033
 31
0.0
  0
LINE
  8
0
 62
     0
 10
2194.234466804314
 20
7610.168308346251
 30
0.0
 11
2207.62839475872
 21
7615.309755575803
 31
0.0
  0
LINE
  8
0
 62
     0
 10
2132.432861142438
 20
7425.979876563431
 30
0.0
 11
2150.217568267209
 21
7432.806786002269
 31
0.0
  0
LINE
  8
0
 62
     0
 10
2501.377527440765
 20
7407.139446811719
 30
0.0
 11
2515.248933599854
 21
7412.464180751563
 31
0.0
  0
LINE
  8
0
 62
     0
 10
3075.912077304985
 20
7467.217579328074
 30
0.0
 11
3093.696784429757
 21
7474.044488766912
 31
0.0
  0
LINE
  8
0
 62
     0
 10
3502.745048299506
 20
7631.063405860186
 30
0.0
 11
3520.529755424278
 21
7637.890315299024
 31
0.0
  0
LINE
  8
0
 62
     0
 10
3440.943442637629
 20
7446.874974077368
 30
0.0
 11
3458.728149762401
 21
7453.701883516207
 31
0.0
  0
LINE
  8
0
 62
     0
 10
3159.947082839873
 20
6055.290433080878
 30
0.0
 11
3177.731789964645
 21
6062.117342519717
 31
0.0
  0
LINE
  8
0
 62
     0
 10
3373.363568337133
 20
6137.213346346935
 30
0.0
 11
3391.148275461905
 21
6144.040255785772
 31
0.0
  0
LINE
  8
0
 62
     0
 10
3311.561962675256
 20
5953.024914564115
 30
0.0
 11
3329.346669800028
 21
5959.851824002953
 31
0.0
  0
LINE
  8
0
 62
     0
 10
3524.978448172517
 20
6034.94782783017
 30
0.0
 11
3542.763155297289
 21
6041.774737269008
 31
0.0
  0
LINE
  8
0
 62
     0
 10
2138.211129781056
 20
8551.453072511048
 30
0.0
 11
2155.995836905828
 21
8558.279981949885
 31
0.0
  0
LINE
  8
0
 62
     0
 10
1986.596249945673
 20
8653.718591027809
 30
0.0
 11
2004.380957070445
 21
8660.545500466648
 31
0.0
  0
LINE
  8
0
 62
     0
 10
2200.012735442934
 20
8735.641504293864
 30
0.0
 11
2207.628394758722
 21
8738.564882008279
 31
0.0
  0
LINE
  8
0
 62
     0
 10
2509.020763752319
 20
9656.583663207955
 30
0.0
 11
2526.80547087709
 21
9663.410572646794
 31
0.0
  0
LINE
  8
0
 62
     0
 10
2143.989398419675
 20
9676.926268458664
 30
0.0
 11
2161.774105544446
 21
9683.7531778975
 31
0.0
  0
LINE
  8
0
 62
     0
 10
2357.405883916936
 20
9758.849181724718
 30
0.0
 11
2375.190591041707
 21
9765.676091163555
 31
0.0
  0
LINE
  8
0
 62
     0
 10
1992.374518584292
 20
9779.191786975427
 30
0.0
 11
2010.159225709064
 21
9786.018696414267
 31
0.0
  0
LINE
  8
0
 62
     0
 10
2205.791004081552
 20
9861.114700241483
 30
0.0
 11
2223.575711206324
 21
9867.94160968032
 31
0.0
  0
LINE
  8
0
 62
     0
 10
3440.959175293152
 20
7446.85655232608
 30
0.0
 11
3453.593707898891
 21
7438.334452477185
 31
0.0
  0
LINE
  8
0
 62
     0
 10
1986.617290952139
 20
8653.696500315701
 30
0.0
 11
1999.251823557878
 21
8645.174400466805
 31
0.0
  0
LINE
  8
0
 62
     0
 10
2138.231682221005
 20
8551.431302128969
 30
0.0
 11
2150.866214826744
 21
8542.909202280075
 31
0.0
  0
LINE
  8
0
 62
     0
 10
3502.7612036408
 20
7631.0445184484
 30
0.0
 11
3515.395736246539
 21
7622.522418599506
 31
0.0
  0
LINE
  8
0
 62
     0
 10
2200.033710568652
 20
8735.619268251289
 30
0.0
 11
2207.628394758721
 21
8730.49658908236
 31
0.0
  0
LINE
  8
0
 62
     0
 10
1992.398650152641
 20
9779.166727300754
 30
0.0
 11
2005.03318275838
 21
9770.644627451861
 31
0.0
  0
LINE
  8
0
 62
     0
 10
2144.013041421507
 20
9676.901529114026
 30
0.0
 11
2156.647574027246
 21
9668.379429265129
 31
0.0
  0
LINE
  8
0
 62
     0
 10
2205.815069769153
 20
9861.089495236344
 30
0.0
 11
2218.449602374892
 21
9852.567395387449
 31
0.0
  0
LINE
  8
0
 62
     0
 10
2357.42946103802
 20
9758.824297049613
 30
0.0
 11
2370.063993643759
 21
9750.302197200717
 31
0.0
  0
LINE
  8
0
 62
     0
 10
2509.043852306886
 20
9656.559098862881
 30
0.0
 11
2521.678384912625
 21
9648.036999013987
 31
0.0
  0
LINE
  8
0
 62
     0
 10
3075.928364407773
 20
7467.19898257722
 30
0.0
 11
3088.562897013511
 21
7458.676882728326
 31
0.0
  0
LINE
  8
0
 62
     0
 10
2050.458161786187
 20
7707.13944681172
 30
0.0
 11
2055.272492705022
 21
7703.892139604067
 31
0.0
  0
LINE
  8
0
 62
     0
 10
2194.252351368149
 20
7610.149041266231
 30
0.0
 11
2198.714258637457
 21
7607.139446811722
 31
0.0
  0
LINE
  8
0
 62
     0
 10
2346.97035548873
 20
7507.139446811723
 30
0.0
 11
2358.501275242753
 21
7499.361743230608
 31
0.0
  0
LINE
  8
0
 62
     0
 10
1980.835931751635
 20
7528.226273330642
 30
0.0
 11
1993.470464357374
 21
7519.704173481748
 31
0.0
  0
LINE
  8
0
 62
     0
 10
2132.450323020501
 20
7425.961075143912
 30
0.0
 11
2145.08485562624
 21
7417.438975295018
 31
0.0
  0
LINE
  8
0
 62
     0
 10
3373.375787745002
 20
6137.198359218704
 30
0.0
 11
3386.010320350741
 21
6128.676259369809
 31
0.0
  0
LINE
  8
0
 62
     0
 10
3524.990179013868
 20
6034.933161031973
 30
0.0
 11
3537.624711619607
 21
6026.41106118308
 31
0.0
  0
LINE
  8
0
 62
     0
 10
3159.959368128488
 20
6055.275591283113
 30
0.0
 11
3172.593900734228
 21
6046.75349143422
 31
0.0
  0
LINE
  8
0
 62
     0
 10
3311.573759397355
 20
5953.010393096383
 30
0.0
 11
3324.208292003094
 21
5944.488293247489
 31
0.0
  0
LINE
  8
0
 62
     0
 10
2513.492502849482
 20
7407.139446811719
 30
0.0
 11
2515.27286852371
 21
7412.445437590933
 31
0.0
  0
LINE
  8
0
 62
     0
 10
3088.569952495604
 20
7458.677050263676
 30
0.0
 11
3093.720136213949
 21
7474.026047223324
 31
0.0
  0
LINE
  8
0
 62
     0
 10
3453.60072941572
 20
7438.334802180008
 30
0.0
 11
3458.750913134064
 21
7453.683799139658
 31
0.0
  0
LINE
  8
0
 62
     0
 10
3515.402934035853
 20
7622.522765695791
 30
0.0
 11
3520.553117754198
 21
7637.871762655438
 31
0.0
  0
LINE
  8
0
 62
     0
 10
3172.599583224771
 20
6046.753951769809
 30
0.0
 11
3177.749766943116
 21
6062.102948729457
 31
0.0
  0
LINE
  8
0
 62
     0
 10
3324.213869374761
 20
5944.488845970084
 30
0.0
 11
3329.364053093106
 21
5959.837842929733
 31
0.0
  0
LINE
  8
0
 62
     0
 10
3386.016073994895
 20
6128.676809485868
 30
0.0
 11
3391.16625771324
 21
6144.025806445516
 31
0.0
  0
LINE
  8
0
 62
     0
 10
3537.630360144885
 20
6026.411703686141
 30
0.0
 11
3542.78054386323
 21
6041.76070064579
 31
0.0
  0
LINE
  8
0
 62
     0
 10
2358.508398655375
 20
7499.361546431009
 30
0.0
 11
2361.11818586225
 21
7507.139446811723
 31
0.0
  0
LINE
  8
0
 62
     0
 10
2145.091907885251
 20
7417.438688714952
 30
0.0
 11
2150.242091603596
 21
7432.787685674601
 31
0.0
  0
LINE
  8
0
 62
     0
 10
1993.47762173526
 20
7519.703794514676
 30
0.0
 11
1998.627805453605
 21
7535.052791474325
 31
0.0
  0
LINE
  8
0
 62
     0
 10
2055.279826355395
 20
7703.891758030459
 30
0.0
 11
2056.369551887784
 21
7707.13944681172
 31
0.0
  0
LINE
  8
0
 62
     0
 10
2150.874358685941
 20
8542.908717893311
 30
0.0
 11
2156.024542404285
 21
8558.25771485296
 31
0.0
  0
LINE
  8
0
 62
     0
 10
2521.687586406745
 20
9648.036498988002
 30
0.0
 11
2526.83777012509
 21
9663.38549594765
 31
0.0
  0
LINE
  8
0
 62
     0
 10
1999.26007253595
 20
8645.173823693033
 30
0.0
 11
2004.410256254295
 21
8660.522820652683
 31
0.0
  0
LINE
  8
0
 62
     0
 10
2370.073300256755
 20
9750.301604787729
 30
0.0
 11
2375.2234839751
 21
9765.650601747378
 31
0.0
  0
LINE
  8
0
 62
     0
 10
2156.65680948663
 20
9668.37874707167
 30
0.0
 11
2161.806993204975
 21
9683.727744031317
 31
0.0
  0
LINE
  8
0
 62
     0
 10
2218.459014106765
 20
9852.566710587451
 30
0.0
 11
2223.609197825109
 21
9867.9157075471
 31
0.0
  0
LINE
  8
0
 62
     0
 10
2005.042523336641
 20
9770.643852871396
 30
0.0
 11
2010.192707054985
 21
9785.992849831044
 31
0.0
  0
LINE
  8
0
 62
     0
 10
2215.702551377532
 20
7453.123282072833
 30
0.0
 11
2215.702551377532
 21
7453.123282072833
 31
0.0
  0
LINE
  8
0
 62
     0
 10
2085.289621290616
 20
7435.238991479543
 30
0.0
 11
2085.289621290616
 21
7435.238991479543
 31
0.0
  0
LINE
  8
0
 62
     0
 10
1953.365353090445
 20
7416.195010363993
 30
0.0
 11
1953.365353090445
 21
7416.195010363993
 31
0.0
  0
LINE
  8
0
 62
     0
 10
2088.378224541207
 20
7519.794030352697
 30
0.0
 11
2088.378224541207
 21
7519.794030352697
 31
0.0
  0
LINE
  8
0
 62
     0
 10
1956.453956341037
 20
7500.750049237147
 30
0.0
 11
1956.453956341037
 21
7500.750049237147
 31
0.0
  0
LINE
  8
0
 62
     0
 10
2091.4668277918
 20
7604.349069225849
 30
0.0
 11
2091.4668277918
 21
7604.349069225849
 31
0.0
  0
LINE
  8
0
 62
     0
 10
1959.542559591628
 20
7585.3050881103
 30
0.0
 11
1959.542559591628
 21
7585.3050881103
 31
0.0
  0
LINE
  8
0
 62
     0
 10
2094.55543104239
 20
7688.904108099003
 30
0.0
 11
2094.55543104239
 21
7688.904108099003
 31
0.0
  0
LINE
  8
0
 62
     0
 10
1962.631162842221
 20
7669.860126983452
 30
0.0
 11
1962.631162842221
 21
7669.860126983452
 31
0.0
  0
LINE
  8
0
 62
     0
 10
2516.075718563755
 20
8587.643492401497
 30
0.0
 11
2516.075718563755
 21
8587.643492401497
 31
0.0
  0
LINE
  8
0
 62
     0
 10
2519.164321814346
 20
8672.19853127465
 30
0.0
 11
2519.164321814346
 21
8672.19853127465
 31
0.0
  0
LINE
  8
0
 62
     0
 10
2522.252925064937
 20
8756.753570147806
 30
0.0
 11
2522.252925064937
 21
8756.753570147806
 31
0.0
  0
LINE
  8
0
 62
     0
 10
2255.854393635225
 20
8552.338787423824
 30
0.0
 11
2255.854393635225
 21
8552.338787423824
 31
0.0
  0
LINE
  8
0
 62
     0
 10
2125.441463548309
 20
8534.454496830534
 30
0.0
 11
2125.441463548309
 21
8534.454496830534
 31
0.0
  0
LINE
  8
0
 62
     0
 10
2390.328656864767
 20
8737.709589032252
 30
0.0
 11
2390.328656864767
 21
8737.709589032252
 31
0.0
  0
LINE
  8
0
 62
     0
 10
1993.517195348138
 20
8515.410515714982
 30
0.0
 11
1993.517195348138
 21
8515.410515714982
 31
0.0
  0
LINE
  8
0
 62
     0
 10
2128.530066798901
 20
8619.009535703687
 30
0.0
 11
2128.530066798901
 21
8619.009535703687
 31
0.0
  0
LINE
  8
0
 62
     0
 10
2262.031600136408
 20
8721.448865170129
 30
0.0
 11
2262.031600136408
 21
8721.448865170129
 31
0.0
  0
LINE
  8
0
 62
     0
 10
1996.60579859873
 20
8599.965554588136
 30
0.0
 11
1996.60579859873
 21
8599.965554588136
 31
0.0
  0
LINE
  8
0
 62
     0
 10
2131.618670049492
 20
8703.564574576841
 30
0.0
 11
2131.618670049492
 21
8703.564574576841
 31
0.0
  0
LINE
  8
0
 62
     0
 10
2265.120203387
 20
8806.003904043285
 30
0.0
 11
2265.120203387
 21
8806.003904043285
 31
0.0
  0
LINE
  8
0
 62
     0
 10
1999.694401849323
 20
8684.520593461289
 30
0.0
 11
1999.694401849323
 21
8684.520593461289
 31
0.0
  0
LINE
  8
0
 62
     0
 10
2134.707273300085
 20
8788.119613449993
 30
0.0
 11
2134.707273300085
 21
8788.119613449993
 31
0.0
  0
LINE
  8
0
 62
     0
 10
2002.783005099914
 20
8769.075632334443
 30
0.0
 11
2002.783005099914
 21
8769.075632334443
 31
0.0
  0
LINE
  8
0
 62
     0
 10
2424.303292621277
 20
9667.815016636938
 30
0.0
 11
2424.303292621277
 21
9667.815016636938
 31
0.0
  0
LINE
  8
0
 62
     0
 10
2296.006235892917
 20
9651.554292774815
 30
0.0
 11
2296.006235892917
 21
9651.554292774815
 31
0.0
  0
LINE
  8
0
 62
     0
 10
2427.391895871869
 20
9752.370055510091
 30
0.0
 11
2427.391895871869
 21
9752.370055510091
 31
0.0
  0
LINE
  8
0
 62
     0
 10
2165.593305806003
 20
9633.670002181524
 30
0.0
 11
2165.593305806003
 21
9633.670002181524
 31
0.0
  0
LINE
  8
0
 62
     0
 10
2299.094839143509
 20
9736.109331647968
 30
0.0
 11
2299.094839143509
 21
9736.109331647968
 31
0.0
  0
LINE
  8
0
 62
     0
 10
2430.480499122461
 20
9836.925094383243
 30
0.0
 11
2430.480499122461
 21
9836.925094383243
 31
0.0
  0
LINE
  8
0
 62
     0
 10
2033.669037605832
 20
9614.626021065973
 30
0.0
 11
2033.669037605832
 21
9614.626021065973
 31
0.0
  0
LINE
  8
0
 62
     0
 10
2168.681909056595
 20
9718.225041054678
 30
0.0
 11
2168.681909056595
 21
9718.225041054678
 31
0.0
  0
LINE
  8
0
 62
     0
 10
2302.183442394102
 20
9820.664370521122
 30
0.0
 11
2302.183442394102
 21
9820.664370521122
 31
0.0
  0
LINE
  8
0
 62
     0
 10
2036.757640856424
 20
9699.181059939128
 30
0.0
 11
2036.757640856424
 21
9699.181059939128
 31
0.0
  0
LINE
  8
0
 62
     0
 10
2171.770512307187
 20
9802.780079927831
 30
0.0
 11
2171.770512307187
 21
9802.780079927831
 31
0.0
  0
LINE
  8
0
 62
     0
 10
2305.272045644694
 20
9905.219409394273
 30
0.0
 11
2305.272045644694
 21
9905.219409394273
 31
0.0
  0
LINE
  8
0
 62
     0
 10
2039.846244107015
 20
9783.73609881228
 30
0.0
 11
2039.846244107015
 21
9783.73609881228
 31
0.0
  0
LINE
  8
0
 62
     0
 10
2174.859115557777
 20
9887.335118800983
 30
0.0
 11
2174.859115557777
 21
9887.335118800983
 31
0.0
  0
LINE
  8
0
 62
     0
 10
2042.934847357606
 20
9868.291137685433
 30
0.0
 11
2042.934847357606
 21
9868.291137685433
 31
0.0
  0
LINE
  8
0
 62
     0
 10
2343.999608105891
 20
7469.384005934956
 30
0.0
 11
2343.999608105891
 21
7469.384005934956
 31
0.0
  0
LINE
  8
0
 62
     0
 10
2479.012479556653
 20
7572.98302592366
 30
0.0
 11
2479.012479556653
 21
7572.98302592366
 31
0.0
  0
LINE
  8
0
 62
     0
 10
2475.92387630606
 20
7488.427987050507
 30
0.0
 11
2475.92387630606
 21
7488.427987050507
 31
0.0
  0
LINE
  8
0
 62
     0
 10
3125.26811813678
 20
7575.761997076884
 30
0.0
 11
3125.26811813678
 21
7575.761997076884
 31
0.0
  0
LINE
  8
0
 62
     0
 10
3122.179514886189
 20
7491.20695820373
 30
0.0
 11
3122.179514886189
 21
7491.20695820373
 31
0.0
  0
LINE
  8
0
 62
     0
 10
3257.192386336952
 20
7594.805978192433
 30
0.0
 11
3257.192386336952
 21
7594.805978192433
 31
0.0
  0
LINE
  8
0
 62
     0
 10
3390.69391967446
 20
7697.245307658875
 30
0.0
 11
3390.69391967446
 21
7697.245307658875
 31
0.0
  0
LINE
  8
0
 62
     0
 10
3254.10378308636
 20
7510.25093931928
 30
0.0
 11
3254.10378308636
 21
7510.25093931928
 31
0.0
  0
LINE
  8
0
 62
     0
 10
3387.605316423868
 20
7612.690268785724
 30
0.0
 11
3387.605316423868
 21
7612.690268785724
 31
0.0
  0
LINE
  8
0
 62
     0
 10
3251.015179835768
 20
7425.695900446127
 30
0.0
 11
3251.015179835768
 21
7425.695900446127
 31
0.0
  0
LINE
  8
0
 62
     0
 10
3384.516713173276
 20
7528.135229912571
 30
0.0
 11
3384.516713173276
 21
7528.135229912571
 31
0.0
  0
LINE
  8
0
 62
     0
 10
3515.902373152227
 20
7628.950992647847
 30
0.0
 11
3515.902373152227
 21
7628.950992647847
 31
0.0
  0
LINE
  8
0
 62
     0
 10
3381.428109922684
 20
7443.580191039417
 30
0.0
 11
3381.428109922684
 21
7443.580191039417
 31
0.0
  0
LINE
  8
0
 62
     0
 10
3512.813769901635
 20
7544.395953774693
 30
0.0
 11
3512.813769901635
 21
7544.395953774693
 31
0.0
  0
LINE
  8
0
 62
     0
 10
3509.725166651043
 20
7459.84091490154
 30
0.0
 11
3509.725166651043
 21
7459.84091490154
 31
0.0
  0
LINE
  8
0
 62
     0
 10
3072.76186287672
 20
6138.32633623328
 30
0.0
 11
3072.76186287672
 21
6138.32633623328
 31
0.0
  0
LINE
  8
0
 62
     0
 10
3069.673259626128
 20
6053.771297360126
 30
0.0
 11
3069.673259626128
 21
6053.771297360126
 31
0.0
  0
LINE
  8
0
 62
     0
 10
3204.686131076891
 20
6157.370317348831
 30
0.0
 11
3204.686131076891
 21
6157.370317348831
 31
0.0
  0
LINE
  8
0
 62
     0
 10
3066.584656375537
 20
5969.216258486974
 30
0.0
 11
3066.584656375537
 21
5969.216258486974
 31
0.0
  0
LINE
  8
0
 62
     0
 10
3201.5975278263
 20
6072.815278475677
 30
0.0
 11
3201.5975278263
 21
6072.815278475677
 31
0.0
  0
LINE
  8
0
 62
     0
 10
3198.508924575707
 20
5988.260239602525
 30
0.0
 11
3198.508924575707
 21
5988.260239602525
 31
0.0
  0
LINE
  8
0
 62
     0
 10
3463.396117892166
 20
6191.515331804244
 30
0.0
 11
3463.396117892166
 21
6191.515331804244
 31
0.0
  0
LINE
  8
0
 62
     0
 10
3460.307514641575
 20
6106.96029293109
 30
0.0
 11
3460.307514641575
 21
6106.96029293109
 31
0.0
  0
LINE
  8
0
 62
     0
 10
3325.833251412031
 20
5921.589491322661
 30
0.0
 11
3325.833251412031
 21
5921.589491322661
 31
0.0
  0
LINE
  8
0
 62
     0
 10
3457.218911390981
 20
6022.405254057938
 30
0.0
 11
3457.218911390981
 21
6022.405254057938
 31
0.0
  0
LINE
  8
0
 62
     0
 10
3592.231782841744
 20
6126.004274046642
 30
0.0
 11
3592.231782841744
 21
6126.004274046642
 31
0.0
  0
LINE
  8
0
 62
     0
 10
3454.130308140391
 20
5937.850215184784
 30
0.0
 11
3454.130308140391
 21
5937.850215184784
 31
0.0
  0
LINE
  8
0
 62
     0
 10
3589.143179591153
 20
6041.449235173488
 30
0.0
 11
3589.143179591153
 21
6041.449235173488
 31
0.0
  0
LINE
  8
0
 62
     0
 10
3586.054576340561
 20
5956.894196300336
 30
0.0
 11
3586.054576340561
 21
5956.894196300336
 31
0.0
  0
LINE
  8
0
 62
     0
 10
2171.393339437751
 20
8510.393298843792
 30
0.0
 11
2171.393339437751
 21
8510.393298843792
 31
0.0
  0
LINE
  8
0
 62
     0
 10
2267.591251447129
 20
8523.057994222522
 30
0.0
 11
2267.591251447129
 21
8523.057994222522
 31
0.0
  0
LINE
  8
0
 62
     0
 10
2014.212890083289
 20
8581.08369947506
 30
0.0
 11
2014.212890083289
 21
8581.08369947506
 31
0.0
  0
LINE
  8
0
 62
     0
 10
2174.626685763849
 20
8602.202576323881
 30
0.0
 11
2174.626685763849
 21
8602.202576323881
 31
0.0
  0
LINE
  8
0
 62
     0
 10
2494.824709637996
 20
8644.357445889459
 30
0.0
 11
2494.824709637996
 21
8644.357445889459
 31
0.0
  0
LINE
  8
0
 62
     0
 10
1984.834640584216
 20
8668.599578914452
 30
0.0
 11
1984.834640584216
 21
8668.599578914452
 31
0.0
  0
LINE
  8
0
 62
     0
 10
2081.032552593594
 20
8681.26427429318
 30
0.0
 11
2081.032552593594
 21
8681.26427429318
 31
0.0
  0
LINE
  8
0
 62
     0
 10
2305.032664458364
 20
8710.754448480031
 30
0.0
 11
2305.032664458364
 21
8710.754448480031
 31
0.0
  0
LINE
  8
0
 62
     0
 10
2401.230576467741
 20
8723.419143858759
 30
0.0
 11
2401.230576467741
 21
8723.419143858759
 31
0.0
  0
LINE
  8
0
 62
     0
 10
1988.067986910312
 20
8760.408856394539
 30
0.0
 11
1988.067986910312
 21
8760.408856394539
 31
0.0
  0
LINE
  8
0
 62
     0
 10
2051.654303094522
 20
8768.780153732572
 30
0.0
 11
2051.654303094522
 21
8768.780153732572
 31
0.0
  0
LINE
  8
0
 62
     0
 10
2147.852215103899
 20
8781.4448491113
 30
0.0
 11
2147.852215103899
 21
8781.4448491113
 31
0.0
  0
LINE
  8
0
 62
     0
 10
2308.26601078446
 20
8802.563725960119
 30
0.0
 11
2308.26601078446
 21
8802.563725960119
 31
0.0
  0
LINE
  8
0
 62
     0
 10
2269.246925628918
 20
9619.879160192034
 30
0.0
 11
2269.246925628918
 21
9619.879160192034
 31
0.0
  0
LINE
  8
0
 62
     0
 10
2332.833241813127
 20
9628.250457530066
 30
0.0
 11
2332.833241813127
 21
9628.250457530066
 31
0.0
  0
LINE
  8
0
 62
     0
 10
2429.031153822505
 20
9640.915152908794
 30
0.0
 11
2429.031153822505
 21
9640.915152908794
 31
0.0
  0
LINE
  8
0
 62
     0
 10
2015.868564265077
 20
9677.904865444574
 30
0.0
 11
2015.868564265077
 21
9677.904865444574
 31
0.0
  0
LINE
  8
0
 62
     0
 10
2079.454880449286
 20
9686.276162782606
 30
0.0
 11
2079.454880449286
 21
9686.276162782606
 31
0.0
  0
LINE
  8
0
 62
     0
 10
2175.652792458664
 20
9698.940858161334
 30
0.0
 11
2175.652792458664
 21
9698.940858161334
 31
0.0
  0
LINE
  8
0
 62
     0
 10
2336.066588139224
 20
9720.059735010154
 30
0.0
 11
2336.066588139224
 21
9720.059735010154
 31
0.0
  0
LINE
  8
0
 62
     0
 10
2399.652904323434
 20
9728.431032348188
 30
0.0
 11
2399.652904323434
 21
9728.431032348188
 31
0.0
  0
LINE
  8
0
 62
     0
 10
2495.850816332811
 20
9741.095727726916
 30
0.0
 11
2495.850816332811
 21
9741.095727726916
 31
0.0
  0
LINE
  8
0
 62
     0
 10
2082.688226775383
 20
9778.085440262694
 30
0.0
 11
2082.688226775383
 21
9778.085440262694
 31
0.0
  0
LINE
  8
0
 62
     0
 10
2146.274542959591
 20
9786.456737600728
 30
0.0
 11
2146.274542959591
 21
9786.456737600728
 31
0.0
  0
LINE
  8
0
 62
     0
 10
2402.88625064953
 20
9820.240309828273
 30
0.0
 11
2402.88625064953
 21
9820.240309828273
 31
0.0
  0
LINE
  8
0
 62
     0
 10
2466.472566833739
 20
9828.611607166306
 30
0.0
 11
2466.472566833739
 21
9828.611607166306
 31
0.0
  0
LINE
  8
0
 62
     0
 10
1989.094093605127
 20
9857.147138231994
 30
0.0
 11
1989.094093605127
 21
9857.147138231994
 31
0.0
  0
LINE
  8
0
 62
     0
 10
2149.507889285687
 20
9878.266015080814
 30
0.0
 11
2149.507889285687
 21
9878.266015080814
 31
0.0
  0
LINE
  8
0
 62
     0
 10
2213.094205469896
 20
9886.637312418848
 30
0.0
 11
2213.094205469896
 21
9886.637312418848
 31
0.0
  0
LINE
  8
0
 62
     0
 10
2309.292117479274
 20
9899.302007797574
 30
0.0
 11
2309.292117479274
 21
9899.302007797574
 31
0.0
  0
LINE
  8
0
 62
     0
 10
1986.412312728525
 20
7663.587690425026
 30
0.0
 11
1986.412312728525
 21
7663.587690425026
 31
0.0
  0
LINE
  8
0
 62
     0
 10
2146.826108409085
 20
7684.706567273846
 30
0.0
 11
2146.826108409085
 21
7684.706567273846
 31
0.0
  0
LINE
  8
0
 62
     0
 10
2080.00644589878
 20
7584.525992455726
 30
0.0
 11
2080.00644589878
 21
7584.525992455726
 31
0.0
  0
LINE
  8
0
 62
     0
 10
2143.592762082989
 20
7592.897289793761
 30
0.0
 11
2143.592762082989
 21
7592.897289793761
 31
0.0
  0
LINE
  8
0
 62
     0
 10
2013.186783388475
 20
7484.345417637606
 30
0.0
 11
2013.186783388475
 21
7484.345417637606
 31
0.0
  0
LINE
  8
0
 62
     0
 10
2076.773099572684
 20
7492.71671497564
 30
0.0
 11
2076.773099572684
 21
7492.71671497564
 31
0.0
  0
LINE
  8
0
 62
     0
 10
2172.971011582061
 20
7505.381410354367
 30
0.0
 11
2172.971011582061
 21
7505.381410354367
 31
0.0
  0
LINE
  8
0
 62
     0
 10
3453.76310707865
 20
7674.000888616689
 30
0.0
 11
3453.76310707865
 21
7674.000888616689
 31
0.0
  0
LINE
  8
0
 62
     0
 10
3614.17690275921
 20
7695.119765465508
 30
0.0
 11
3614.17690275921
 21
7695.119765465508
 31
0.0
  0
LINE
  8
0
 62
     0
 10
2396.971123446831
 20
7534.871584541219
 30
0.0
 11
2396.971123446831
 21
7534.871584541219
 31
0.0
  0
LINE
  8
0
 62
     0
 10
2493.169035456209
 20
7547.536279919946
 30
0.0
 11
2493.169035456209
 21
7547.536279919946
 31
0.0
  0
LINE
  8
0
 62
     0
 10
2266.565144752316
 20
7426.319712385068
 30
0.0
 11
2266.565144752316
 21
7426.319712385068
 31
0.0
  0
LINE
  8
0
 62
     0
 10
2330.151460936525
 20
7434.691009723103
 30
0.0
 11
2330.151460936525
 21
7434.691009723103
 31
0.0
  0
LINE
  8
0
 62
     0
 10
2426.349372945903
 20
7447.355705101828
 30
0.0
 11
2426.349372945903
 21
7447.355705101828
 31
0.0
  0
LINE
  8
0
 62
     0
 10
3386.943444568345
 20
7573.820313798568
 30
0.0
 11
3386.943444568345
 21
7573.820313798568
 31
0.0
  0
LINE
  8
0
 62
     0
 10
3547.357240248905
 20
7594.939190647388
 30
0.0
 11
3547.357240248905
 21
7594.939190647388
 31
0.0
  0
LINE
  8
0
 62
     0
 10
3610.943556433114
 20
7603.310487985422
 30
0.0
 11
3610.943556433114
 21
7603.310487985422
 31
0.0
  0
LINE
  8
0
 62
     0
 10
3066.745420694198
 20
7531.665444232989
 30
0.0
 11
3066.745420694198
 21
7531.665444232989
 31
0.0
  0
LINE
  8
0
 62
     0
 10
3227.159216374757
 20
7552.784321081809
 30
0.0
 11
3227.159216374757
 21
7552.784321081809
 31
0.0
  0
LINE
  8
0
 62
     0
 10
3160.339553864451
 20
7452.603746263688
 30
0.0
 11
3160.339553864451
 21
7452.603746263688
 31
0.0
  0
LINE
  8
0
 62
     0
 10
3223.92587004866
 20
7460.975043601721
 30
0.0
 11
3223.92587004866
 21
7460.975043601721
 31
0.0
  0
LINE
  8
0
 62
     0
 10
3480.537577738598
 20
7494.758615829267
 30
0.0
 11
3480.537577738598
 21
7494.758615829267
 31
0.0
  0
LINE
  8
0
 62
     0
 10
3544.123893922807
 20
7503.129913167302
 30
0.0
 11
3544.123893922807
 21
7503.129913167302
 31
0.0
  0
LINE
  8
0
 62
     0
 10
3573.50214342188
 20
7415.614033727909
 30
0.0
 11
3573.50214342188
 21
7415.614033727909
 31
0.0
  0
LINE
  8
0
 62
     0
 10
3185.458350342612
 20
6176.540307506756
 30
0.0
 11
3185.458350342612
 21
6176.540307506756
 31
0.0
  0
LINE
  8
0
 62
     0
 10
3249.044666526822
 20
6184.911604844789
 30
0.0
 11
3249.044666526822
 21
6184.911604844789
 31
0.0
  0
LINE
  8
0
 62
     0
 10
3118.638687832307
 20
6076.359732688636
 30
0.0
 11
3118.638687832307
 21
6076.359732688636
 31
0.0
  0
LINE
  8
0
 62
     0
 10
3182.225004016516
 20
6084.73103002667
 30
0.0
 11
3182.225004016516
 21
6084.73103002667
 31
0.0
  0
LINE
  8
0
 62
     0
 10
3278.422916025894
 20
6097.395725405396
 30
0.0
 11
3278.422916025894
 21
6097.395725405396
 31
0.0
  0
LINE
  8
0
 62
     0
 10
3438.836711706454
 20
6118.514602254216
 30
0.0
 11
3438.836711706454
 21
6118.514602254216
 31
0.0
  0
LINE
  8
0
 62
     0
 10
3502.423027890663
 20
6126.88589959225
 30
0.0
 11
3502.423027890663
 21
6126.88589959225
 31
0.0
  0
LINE
  8
0
 62
     0
 10
3598.620939900041
 20
6139.550594970977
 30
0.0
 11
3598.620939900041
 21
6139.550594970977
 31
0.0
  0
LINE
  8
0
 62
     0
 10
3051.819025322
 20
5976.179157870517
 30
0.0
 11
3051.819025322
 21
5976.179157870517
 31
0.0
  0
LINE
  8
0
 62
     0
 10
3115.405341506209
 20
5984.55045520855
 30
0.0
 11
3115.405341506209
 21
5984.55045520855
 31
0.0
  0
LINE
  8
0
 62
     0
 10
3211.603253515587
 20
5997.215150587277
 30
0.0
 11
3211.603253515587
 21
5997.215150587277
 31
0.0
  0
LINE
  8
0
 62
     0
 10
3435.603365380357
 20
6026.70532477413
 30
0.0
 11
3435.603365380357
 21
6026.70532477413
 31
0.0
  0
LINE
  8
0
 62
     0
 10
3531.801277389734
 20
6039.370020152857
 30
0.0
 11
3531.801277389734
 21
6039.370020152857
 31
0.0
  0
LINE
  8
0
 62
     0
 10
3305.197386685843
 20
5918.153452617977
 30
0.0
 11
3305.197386685843
 21
5918.153452617977
 31
0.0
  0
LINE
  8
0
 62
     0
 10
3368.783702870052
 20
5926.524749956009
 30
0.0
 11
3368.783702870052
 21
5926.524749956009
 31
0.0
  0
LINE
  8
0
 62
     0
 10
3464.98161487943
 20
5939.189445334737
 30
0.0
 11
3464.98161487943
 21
5939.189445334737
 31
0.0
  0
LINE
  8
0
 62
     0
 10
3625.39541055999
 20
5960.308322183557
 30
0.0
 11
3625.39541055999
 21
5960.308322183557
 31
0.0
  0
LINE
  8
0
 62
     0
 10
3385.579249968381
 20
7485.302230524973
 30
0.0
 11
3385.579249968381
 21
7485.302230524973
 31
0.0
  0
LINE
  8
0
 62
     0
 10
3439.134606777499
 20
7451.18370539495
 30
0.0
 11
3439.134606777499
 21
7451.18370539495
 31
0.0
  0
LINE
  8
0
 62
     0
 10
3521.169845135254
 20
7479.5734865323
 30
0.0
 11
3521.169845135254
 21
7479.5734865323
 31
0.0
  0
LINE
  8
0
 62
     0
 10
3574.725201944372
 20
7445.454961402276
 30
0.0
 11
3574.725201944372
 21
7445.454961402276
 31
0.0
  0
LINE
  8
0
 62
     0
 10
1940.846808137979
 20
8567.002287705571
 30
0.0
 11
1940.846808137979
 21
8567.002287705571
 31
0.0
  0
LINE
  8
0
 62
     0
 10
3435.041263112377
 20
7615.095436577919
 30
0.0
 11
3435.041263112377
 21
7615.095436577919
 31
0.0
  0
LINE
  8
0
 62
     0
 10
2022.882046495729
 20
8595.392068842921
 30
0.0
 11
2022.882046495729
 21
8595.392068842921
 31
0.0
  0
LINE
  8
0
 62
     0
 10
2076.437403304848
 20
8561.273543712898
 30
0.0
 11
2076.437403304848
 21
8561.273543712898
 31
0.0
  0
LINE
  8
0
 62
     0
 10
3570.631858279248
 20
7609.366692585248
 30
0.0
 11
3570.631858279248
 21
7609.366692585248
 31
0.0
  0
LINE
  8
0
 62
     0
 10
1936.753464472854
 20
8730.914018888544
 30
0.0
 11
1936.753464472854
 21
8730.914018888544
 31
0.0
  0
LINE
  8
0
 62
     0
 10
2158.472641662604
 20
8589.663324850246
 30
0.0
 11
2158.472641662604
 21
8589.663324850246
 31
0.0
  0
LINE
  8
0
 62
     0
 10
2072.344059639722
 20
8725.185274895872
 30
0.0
 11
2072.344059639722
 21
8725.185274895872
 31
0.0
  0
LINE
  8
0
 62
     0
 10
2429.653831996343
 20
8578.205836864901
 30
0.0
 11
2429.653831996343
 21
8578.205836864901
 31
0.0
  0
LINE
  8
0
 62
     0
 10
2343.525249973467
 20
8713.727786910522
 30
0.0
 11
2343.525249973467
 21
8713.727786910522
 31
0.0
  0
LINE
  8
0
 62
     0
 10
2479.115845140339
 20
8707.999042917849
 30
0.0
 11
2479.115845140339
 21
8707.999042917849
 31
0.0
  0
LINE
  8
0
 62
     0
 10
1934.055556334038
 20
9619.804686096786
 30
0.0
 11
1934.055556334038
 21
9619.804686096786
 31
0.0
  0
LINE
  8
0
 62
     0
 10
2016.090794691791
 20
9648.194467234135
 30
0.0
 11
2016.090794691791
 21
9648.194467234135
 31
0.0
  0
LINE
  8
0
 62
     0
 10
2069.64615150091
 20
9614.075942104115
 30
0.0
 11
2069.64615150091
 21
9614.075942104115
 31
0.0
  0
LINE
  8
0
 62
     0
 10
1929.962212668913
 20
9783.716417279759
 30
0.0
 11
1929.962212668913
 21
9783.716417279759
 31
0.0
  0
LINE
  8
0
 62
     0
 10
2151.681389858663
 20
9642.465723241462
 30
0.0
 11
2151.681389858663
 21
9642.465723241462
 31
0.0
  0
LINE
  8
0
 62
     0
 10
2205.236746667781
 20
9608.347198111438
 30
0.0
 11
2205.236746667781
 21
9608.347198111438
 31
0.0
  0
LINE
  8
0
 62
     0
 10
2065.552807835784
 20
9777.987673287087
 30
0.0
 11
2065.552807835784
 21
9777.987673287087
 31
0.0
  0
LINE
  8
0
 62
     0
 10
2287.271985025533
 20
9636.736979248791
 30
0.0
 11
2287.271985025533
 21
9636.736979248791
 31
0.0
  0
LINE
  8
0
 62
     0
 10
2034.050689758207
 20
9878.708727700086
 30
0.0
 11
2034.050689758207
 21
9878.708727700086
 31
0.0
  0
LINE
  8
0
 62
     0
 10
2422.862580192403
 20
9631.008235256118
 30
0.0
 11
2422.862580192403
 21
9631.008235256118
 31
0.0
  0
LINE
  8
0
 62
     0
 10
2116.085928115961
 20
9907.098508837437
 30
0.0
 11
2116.085928115961
 21
9907.098508837437
 31
0.0
  0
LINE
  8
0
 62
     0
 10
2169.641284925079
 20
9872.979983707415
 30
0.0
 11
2169.641284925079
 21
9872.979983707415
 31
0.0
  0
LINE
  8
0
 62
     0
 10
2336.733998169528
 20
9766.530185301739
 30
0.0
 11
2336.733998169528
 21
9766.530185301739
 31
0.0
  0
LINE
  8
0
 62
     0
 10
2251.67652328283
 20
9901.369764844764
 30
0.0
 11
2251.67652328283
 21
9901.369764844764
 31
0.0
  0
LINE
  8
0
 62
     0
 10
2305.231880091948
 20
9867.25123971474
 30
0.0
 11
2305.231880091948
 21
9867.25123971474
 31
0.0
  0
LINE
  8
0
 62
     0
 10
2472.324593336397
 20
9760.80144130907
 30
0.0
 11
2472.324593336397
 21
9760.80144130907
 31
0.0
  0
LINE
  8
0
 62
     0
 10
2387.267118449703
 20
9895.641020852089
 30
0.0
 11
2387.267118449703
 21
9895.641020852089
 31
0.0
  0
LINE
  8
0
 62
     0
 10
2440.822475258821
 20
9861.522495722066
 30
0.0
 11
2440.822475258821
 21
9861.522495722066
 31
0.0
  0
LINE
  8
0
 62
     0
 10
2522.857713616576
 20
9889.912276859416
 30
0.0
 11
2522.857713616576
 21
9889.912276859416
 31
0.0
  0
LINE
  8
0
 62
     0
 10
3249.988654801511
 20
7491.030974517644
 30
0.0
 11
3249.988654801511
 21
7491.030974517644
 31
0.0
  0
LINE
  8
0
 62
     0
 10
3303.544011610629
 20
7456.912449387621
 30
0.0
 11
3303.544011610629
 21
7456.912449387621
 31
0.0
  0
LINE
  8
0
 62
     0
 10
3114.398059634641
 20
7496.759718510318
 30
0.0
 11
3114.398059634641
 21
7496.759718510318
 31
0.0
  0
LINE
  8
0
 62
     0
 10
3167.953416443759
 20
7462.641193380295
 30
0.0
 11
3167.953416443759
 21
7462.641193380295
 31
0.0
  0
LINE
  8
0
 62
     0
 10
3032.362821276886
 20
7468.36993737297
 30
0.0
 11
3032.362821276886
 21
7468.36993737297
 31
0.0
  0
LINE
  8
0
 62
     0
 10
2436.445083800283
 20
7525.403438473685
 30
0.0
 11
2436.445083800283
 21
7525.403438473685
 31
0.0
  0
LINE
  8
0
 62
     0
 10
2490.000440609402
 20
7491.284913343662
 30
0.0
 11
2490.000440609402
 21
7491.284913343662
 31
0.0
  0
LINE
  8
0
 62
     0
 10
2079.135311443662
 20
7672.382876504656
 30
0.0
 11
2079.135311443662
 21
7672.382876504656
 31
0.0
  0
LINE
  8
0
 62
     0
 10
2354.409845442529
 20
7497.013657336336
 30
0.0
 11
2354.409845442529
 21
7497.013657336336
 31
0.0
  0
LINE
  8
0
 62
     0
 10
1943.544716276791
 20
7678.11162049733
 30
0.0
 11
1943.544716276791
 21
7678.11162049733
 31
0.0
  0
LINE
  8
0
 62
     0
 10
2165.26389346654
 20
7536.860926459032
 30
0.0
 11
2165.26389346654
 21
7536.860926459032
 31
0.0
  0
LINE
  8
0
 62
     0
 10
2029.67329829967
 20
7542.589670451707
 30
0.0
 11
2029.67329829967
 21
7542.589670451707
 31
0.0
  0
LINE
  8
0
 62
     0
 10
2083.228655108788
 20
7508.471145321683
 30
0.0
 11
2083.228655108788
 21
7508.471145321683
 31
0.0
  0
LINE
  8
0
 62
     0
 10
1947.638059941916
 20
7514.199889314356
 30
0.0
 11
1947.638059941916
 21
7514.199889314356
 31
0.0
  0
LINE
  8
0
 62
     0
 10
2114.730773186365
 20
7407.750090908683
 30
0.0
 11
2114.730773186365
 21
7407.750090908683
 31
0.0
  0
LINE
  8
0
 62
     0
 10
1979.140178019493
 20
7413.478834901357
 30
0.0
 11
1979.140178019493
 21
7413.478834901357
 31
0.0
  0
LINE
  8
0
 62
     0
 10
3563.556558681896
 20
6162.13830254511
 30
0.0
 11
3563.556558681896
 21
6162.13830254511
 31
0.0
  0
LINE
  8
0
 62
     0
 10
3617.111915491014
 20
6128.019777415087
 30
0.0
 11
3617.111915491014
 21
6128.019777415087
 31
0.0
  0
LINE
  8
0
 62
     0
 10
3427.965963515023
 20
6167.867046537786
 30
0.0
 11
3427.965963515023
 21
6167.867046537786
 31
0.0
  0
LINE
  8
0
 62
     0
 10
3481.521320324141
 20
6133.748521407762
 30
0.0
 11
3481.521320324141
 21
6133.748521407762
 31
0.0
  0
LINE
  8
0
 62
     0
 10
3292.375368348152
 20
6173.595790530459
 30
0.0
 11
3292.375368348152
 21
6173.595790530459
 31
0.0
  0
LINE
  8
0
 62
     0
 10
3513.023438401719
 20
6033.027466994761
 30
0.0
 11
3513.023438401719
 21
6033.027466994761
 31
0.0
  0
LINE
  8
0
 62
     0
 10
3156.784773181282
 20
6179.32453452313
 30
0.0
 11
3156.784773181282
 21
6179.32453452313
 31
0.0
  0
LINE
  8
0
 62
     0
 10
3210.3401299904
 20
6145.206009393107
 30
0.0
 11
3210.3401299904
 21
6145.206009393107
 31
0.0
  0
LINE
  8
0
 62
     0
 10
3074.749534823528
 20
6150.93475338578
 30
0.0
 11
3074.749534823528
 21
6150.93475338578
 31
0.0
  0
LINE
  8
0
 62
     0
 10
3241.842248067977
 20
6044.484954980108
 30
0.0
 11
3241.842248067977
 21
6044.484954980108
 31
0.0
  0
LINE
  8
0
 62
     0
 10
3106.251652901105
 20
6050.213698972782
 30
0.0
 11
3106.251652901105
 21
6050.213698972782
 31
0.0
  0
LINE
  8
0
 62
     0
 10
3327.970830090855
 20
5908.963004934485
 30
0.0
 11
3327.970830090855
 21
5908.963004934485
 31
0.0
  0
LINE
  8
0
 62
     0
 10
3192.380234923984
 20
5914.691748927158
 30
0.0
 11
3192.380234923984
 21
5914.691748927158
 31
0.0
  0
LINE
  8
0
 62
     0
 10
3056.789639757111
 20
5920.420492919833
 30
0.0
 11
3056.789639757111
 21
5920.420492919833
 31
0.0
  0
LINE
  8
0
 62
     0
 10
2020.972386043606
 20
8548.464410397615
 30
0.0
 11
2020.972386043606
 21
8548.464410397615
 31
0.0
  0
LINE
  8
0
 62
     0
 10
3106.005747970981
 20
7554.214516014632
 30
0.0
 11
3106.005747970981
 21
7554.214516014632
 31
0.0
  0
LINE
  8
0
 62
     0
 10
3203.010801729763
 20
7465.325761218224
 30
0.0
 11
3203.010801729763
 21
7465.325761218224
 31
0.0
  0
LINE
  8
0
 62
     0
 10
2011.234269517166
 20
8718.549627866028
 30
0.0
 11
2011.234269517166
 21
8718.549627866028
 31
0.0
  0
LINE
  8
0
 62
     0
 10
2072.096513670842
 20
8662.779656227355
 30
0.0
 11
2072.096513670842
 21
8662.779656227355
 31
0.0
  0
LINE
  8
0
 62
     0
 10
2169.101567429623
 20
8573.890901430948
 30
0.0
 11
2169.101567429623
 21
8573.890901430948
 31
0.0
  0
LINE
  8
0
 62
     0
 10
3351.139983115781
 20
7490.752252251557
 30
0.0
 11
3351.139983115781
 21
7490.752252251557
 31
0.0
  0
LINE
  8
0
 62
     0
 10
3254.134929356999
 20
7579.641007047965
 30
0.0
 11
3254.134929356999
 21
7579.641007047965
 31
0.0
  0
LINE
  8
0
 62
     0
 10
2159.363450903184
 20
8743.976118899361
 30
0.0
 11
2159.363450903184
 21
8743.976118899361
 31
0.0
  0
LINE
  8
0
 62
     0
 10
3402.264110743017
 20
7605.067498081298
 30
0.0
 11
3402.264110743017
 21
7605.067498081298
 31
0.0
  0
LINE
  8
0
 62
     0
 10
3499.269164501799
 20
7516.17874328489
 30
0.0
 11
3499.269164501799
 21
7516.17874328489
 31
0.0
  0
LINE
  8
0
 62
     0
 10
2307.492632289202
 20
8769.402609932695
 30
0.0
 11
2307.492632289202
 21
8769.402609932695
 31
0.0
  0
LINE
  8
0
 62
     0
 10
2368.354876442878
 20
8713.632638294022
 30
0.0
 11
2368.354876442878
 21
8713.632638294022
 31
0.0
  0
LINE
  8
0
 62
     0
 10
3489.53104797536
 20
7686.263960753303
 30
0.0
 11
3489.53104797536
 21
7686.263960753303
 31
0.0
  0
LINE
  8
0
 62
     0
 10
3550.393292129037
 20
7630.493989114631
 30
0.0
 11
3550.393292129037
 21
7630.493989114631
 31
0.0
  0
LINE
  8
0
 62
     0
 10
2465.35993020166
 20
8624.743883497613
 30
0.0
 11
2465.35993020166
 21
8624.743883497613
 31
0.0
  0
LINE
  8
0
 62
     0
 10
2455.62181367522
 20
8794.829100966028
 30
0.0
 11
2455.62181367522
 21
8794.829100966028
 31
0.0
  0
LINE
  8
0
 62
     0
 10
2516.484057828896
 20
8739.059129327356
 30
0.0
 11
2516.484057828896
 21
8739.059129327356
 31
0.0
  0
LINE
  8
0
 62
     0
 10
2013.480546068656
 20
9683.462560950571
 30
0.0
 11
2013.480546068656
 21
9683.462560950571
 31
0.0
  0
LINE
  8
0
 62
     0
 10
2074.342790222332
 20
9627.692589311898
 30
0.0
 11
2074.342790222332
 21
9627.692589311898
 31
0.0
  0
LINE
  8
0
 62
     0
 10
2023.967421445591
 20
9835.014987843671
 30
0.0
 11
2023.967421445591
 21
9835.014987843671
 31
0.0
  0
LINE
  8
0
 62
     0
 10
2161.609727454673
 20
9708.889051983902
 30
0.0
 11
2161.609727454673
 21
9708.889051983902
 31
0.0
  0
LINE
  8
0
 62
     0
 10
2172.09660283161
 20
9860.441478877003
 30
0.0
 11
2172.09660283161
 21
9860.441478877003
 31
0.0
  0
LINE
  8
0
 62
     0
 10
2309.738908840691
 20
9734.315543017237
 30
0.0
 11
2309.738908840691
 21
9734.315543017237
 31
0.0
  0
LINE
  8
0
 62
     0
 10
2370.601152994368
 20
9678.545571378563
 30
0.0
 11
2370.601152994368
 21
9678.545571378563
 31
0.0
  0
LINE
  8
0
 62
     0
 10
2320.225784217628
 20
9885.867969910336
 30
0.0
 11
2320.225784217628
 21
9885.867969910336
 31
0.0
  0
LINE
  8
0
 62
     0
 10
2457.86809022671
 20
9759.742034050569
 30
0.0
 11
2457.86809022671
 21
9759.742034050569
 31
0.0
  0
LINE
  8
0
 62
     0
 10
2518.730334380386
 20
9703.972062411898
 30
0.0
 11
2518.730334380386
 21
9703.972062411898
 31
0.0
  0
LINE
  8
0
 62
     0
 10
3054.881620343746
 20
7439.89927018489
 30
0.0
 11
3054.881620343746
 21
7439.89927018489
 31
0.0
  0
LINE
  8
0
 62
     0
 10
2452.626778273232
 20
7508.278523519972
 30
0.0
 11
2452.626778273232
 21
7508.278523519972
 31
0.0
  0
LINE
  8
0
 62
     0
 10
2513.489022426908
 20
7452.508551881299
 30
0.0
 11
2513.489022426908
 21
7452.508551881299
 31
0.0
  0
LINE
  8
0
 62
     0
 10
2069.850237119352
 20
7697.866723142814
 30
0.0
 11
2069.850237119352
 21
7697.866723142814
 31
0.0
  0
LINE
  8
0
 62
     0
 10
2166.855290878133
 20
7608.977968346406
 30
0.0
 11
2166.855290878133
 21
7608.977968346406
 31
0.0
  0
LINE
  8
0
 62
     0
 10
2304.497596887216
 20
7482.852032486638
 30
0.0
 11
2304.497596887216
 21
7482.852032486638
 31
0.0
  0
LINE
  8
0
 62
     0
 10
2365.359841040891
 20
7427.082060847965
 30
0.0
 11
2365.359841040891
 21
7427.082060847965
 31
0.0
  0
LINE
  8
0
 62
     0
 10
2018.726109492115
 20
7583.551477313073
 30
0.0
 11
2018.726109492115
 21
7583.551477313073
 31
0.0
  0
LINE
  8
0
 62
     0
 10
2156.368415501197
 20
7457.425541453305
 30
0.0
 11
2156.368415501197
 21
7457.425541453305
 31
0.0
  0
LINE
  8
0
 62
     0
 10
2008.23923411518
 20
7431.999050419972
 30
0.0
 11
2008.23923411518
 21
7431.999050419972
 31
0.0
  0
LINE
  8
0
 62
     0
 10
3485.787253722877
 20
6078.075738945732
 30
0.0
 11
3485.787253722877
 21
6078.075738945732
 31
0.0
  0
LINE
  8
0
 62
     0
 10
3546.649497876553
 20
6022.30576730706
 30
0.0
 11
3546.649497876553
 21
6022.30576730706
 31
0.0
  0
LINE
  8
0
 62
     0
 10
3200.015766327776
 20
6178.775183772168
 30
0.0
 11
3200.015766327776
 21
6178.775183772168
 31
0.0
  0
LINE
  8
0
 62
     0
 10
3398.520316490535
 20
5996.879276273728
 30
0.0
 11
3398.520316490535
 21
5996.879276273728
 31
0.0
  0
LINE
  8
0
 62
     0
 10
3495.525370249316
 20
5907.99052147732
 30
0.0
 11
3495.525370249316
 21
5907.99052147732
 31
0.0
  0
LINE
  8
0
 62
     0
 10
3051.886584941758
 20
6153.348692738835
 30
0.0
 11
3051.886584941758
 21
6153.348692738835
 31
0.0
  0
LINE
  8
0
 62
     0
 10
3189.52889095084
 20
6027.222756879067
 30
0.0
 11
3189.52889095084
 21
6027.222756879067
 31
0.0
  0
LINE
  8
0
 62
     0
 10
3250.391135104516
 20
5971.452785240395
 30
0.0
 11
3250.391135104516
 21
5971.452785240395
 31
0.0
  0
LINE
  8
0
 62
     0
 10
3041.399709564823
 20
6001.796265845734
 30
0.0
 11
3041.399709564823
 21
6001.796265845734
 31
0.0
  0
LINE
  8
0
 62
     0
 10
3102.261953718498
 20
5946.026294207062
 30
0.0
 11
3102.261953718498
 21
5946.026294207062
 31
0.0
  0
ENDBLK
  8
0
  0
BLOCK
  8
0
  2
*D39
 70
    65
 10
0.0
 20
0.0
 30
0.0
  3
*D
  0
LINE
  8
0
  6
BYBLOCK
 10
-5747.245793593362
 20
12159.84856262259
 30
0.0
 11
-5747.245793593362
 21
12150.08668474307
 31
0.0
  0
LINE
  8
0
  6
BYBLOCK
 10
-7747.245793593362
 20
12168.61044050211
 30
0.0
 11
-7747.245793593362
 21
12150.08668474307
 31
0.0
  0
LINE
  8
0
  6
BYBLOCK
 10
-5787.245793593362
 20
12151.08668474307
 30
0.0
 11
-7707.245793593362
 21
12151.08668474307
 31
0.0
  0
SOLID
  8
0
  6
BYBLOCK
 10
-5787.245793593362
 20
12157.75335140973
 30
0.0
 11
-5787.245793593362
 21
12144.4200180764
 31
0.0
 12
-5747.245793593362
 22
12151.08668474307
 32
0.0
 13
-5747.245793593362
 23
12151.08668474307
 33
0.0
  0
SOLID
  8
0
  6
BYBLOCK
 10
-7707.245793593362
 20
12157.75335140973
 30
0.0
 11
-7707.245793593362
 21
12144.4200180764
 31
0.0
 12
-7747.245793593362
 22
12151.08668474307
 32
0.0
 13
-7747.245793593362
 23
12151.08668474307
 33
0.0
  0
TEXT
  8
0
  6
BYBLOCK
 10
-6804.388650736219
 20
12166.08668474306
 30
0.0
 40
30.0
  1
2000
  7
ROMANS
 72
     1
 11
-6747.245793593362
 21
12181.08668474306
 31
0.0
 73
     2
  0
POINT
  8
DEFPOINTS
  6
BYBLOCK
 62
     0
 10
-5747.245793593362
 20
12159.84856262259
 30
0.0
  0
POINT
  8
DEFPOINTS
  6
BYBLOCK
 62
     0
 10
-7747.245793593362
 20
12168.61044050211
 30
0.0
  0
POINT
  8
DEFPOINTS
  6
BYBLOCK
 62
     0
 10
-7747.245793593362
 20
12151.08668474307
 30
0.0
  0
ENDBLK
  8
0
  0
BLOCK
  8
0
  2
*D40
 70
    65
 10
0.0
 20
0.0
 30
0.0
  3
*D
  0
LINE
  8
0
  6
BYBLOCK
 10
33943.79587683613
 20
25277.46030326454
 30
0.0
 11
33955.571234692
 21
25277.46030326454
 31
0.0
  0
LINE
  8
0
  6
BYBLOCK
 10
33943.79587683613
 20
28427.46030326454
 30
0.0
 11
33955.571234692
 21
28427.46030326454
 31
0.0
  0
LINE
  8
0
  6
BYBLOCK
 10
33954.571234692
 20
25377.46030326454
 30
0.0
 11
33954.571234692
 21
28327.46030326454
 31
0.0
  0
SOLID
  8
0
  6
BYBLOCK
 10
33937.90456802534
 20
25377.46030326454
 30
0.0
 11
33971.23790135867
 21
25377.46030326454
 31
0.0
 12
33954.571234692
 22
25277.46030326454
 32
0.0
 13
33954.571234692
 23
25277.46030326454
 33
0.0
  0
SOLID
  8
0
  6
BYBLOCK
 10
33937.90456802534
 20
28327.46030326454
 30
0.0
 11
33971.23790135867
 21
28327.46030326454
 31
0.0
 12
33954.571234692
 22
28427.46030326454
 32
0.0
 13
33954.571234692
 23
28427.46030326454
 33
0.0
  0
TEXT
  8
0
  6
BYBLOCK
 10
33914.571234692
 20
26700.07935088359
 30
0.0
 40
80.0
  1
3150
 50
90.0
  7
ROMANS
 72
     1
 11
33874.571234692
 21
26852.46030326454
 31
0.0
 73
     2
  0
POINT
  8
DEFPOINTS
  6
BYBLOCK
 62
     0
 10
33943.79587683613
 20
25277.46030326454
 30
0.0
  0
POINT
  8
DEFPOINTS
  6
BYBLOCK
 62
     0
 10
33943.79587683613
 20
28427.46030326454
 30
0.0
  0
POINT
  8
DEFPOINTS
  6
BYBLOCK
 62
     0
 10
33954.571234692
 20
28427.46030326454
 30
0.0
  0
ENDBLK
  8
0
  0
BLOCK
  8
0
  2
*D41
 70
    65
 10
0.0
 20
0.0
 30
0.0
  3
*D
  0
LINE
  8
0
  6
BYBLOCK
 10
34143.79587683612
 20
24302.46030326455
 30
0.0
 11
34163.50587560217
 21
24302.46030326455
 31
0.0
  0
LINE
  8
0
  6
BYBLOCK
 10
34143.79587683612
 20
29402.46030326454
 30
0.0
 11
34163.50587560217
 21
29402.46030326454
 31
0.0
  0
LINE
  8
0
  6
BYBLOCK
 10
34162.50587560217
 20
24402.46030326455
 30
0.0
 11
34162.50587560217
 21
29302.46030326454
 31
0.0
  0
SOLID
  8
0
  6
BYBLOCK
 10
34145.83920893551
 20
24402.46030326455
 30
0.0
 11
34179.17254226884
 21
24402.46030326455
 31
0.0
 12
34162.50587560217
 22
24302.46030326455
 32
0.0
 13
34162.50587560217
 23
24302.46030326455
 33
0.0
  0
SOLID
  8
0
  6
BYBLOCK
 10
34145.83920893551
 20
29302.46030326454
 30
0.0
 11
34179.17254226884
 21
29302.46030326454
 31
0.0
 12
34162.50587560217
 22
29402.46030326454
 32
0.0
 13
34162.50587560217
 23
29402.46030326454
 33
0.0
  0
TEXT
  8
0
  6
BYBLOCK
 10
34122.50587560217
 20
26700.07935088359
 30
0.0
 40
80.0
  1
5100
 50
90.0
  7
ROMANS
 72
     1
 11
34082.50587560217
 21
26852.46030326454
 31
0.0
 73
     2
  0
POINT
  8
DEFPOINTS
  6
BYBLOCK
 62
     0
 10
34143.79587683612
 20
24302.46030326455
 30
0.0
  0
POINT
  8
DEFPOINTS
  6
BYBLOCK
 62
     0
 10
34143.79587683612
 20
29402.46030326454
 30
0.0
  0
POINT
  8
DEFPOINTS
  6
BYBLOCK
 62
     0
 10
34162.50587560217
 20
29402.46030326454
 30
0.0
  0
ENDBLK
  8
0
  0
BLOCK
  8
0
  2
*D42
 70
    65
 10
0.0
 20
0.0
 30
0.0
  3
*D
  0
LINE
  8
0
  6
BYBLOCK
 10
25663.79587683611
 20
24302.46030326455
 30
0.0
 11
25663.79587683611
 21
23556.24434561409
 31
0.0
  0
LINE
  8
0
  6
BYBLOCK
 10
33643.79587683612
 20
24302.46030326455
 30
0.0
 11
33643.79587683612
 21
23556.24434561409
 31
0.0
  0
LINE
  8
0
  6
BYBLOCK
 10
25763.79587683612
 20
23557.24434561409
 30
0.0
 11
33543.79587683612
 21
23557.24434561409
 31
0.0
  0
SOLID
  8
0
  6
BYBLOCK
 10
25763.79587683612
 20
23573.91101228075
 30
0.0
 11
25763.79587683612
 21
23540.57767894742
 31
0.0
 12
25663.79587683611
 22
23557.24434561409
 32
0.0
 13
25663.79587683611
 23
23557.24434561409
 33
0.0
  0
SOLID
  8
0
  6
BYBLOCK
 10
33543.79587683612
 20
23573.91101228075
 30
0.0
 11
33543.79587683612
 21
23540.57767894742
 31
0.0
 12
33643.79587683612
 22
23557.24434561409
 32
0.0
 13
33643.79587683612
 23
23557.24434561409
 33
0.0
  0
TEXT
  8
0
  6
BYBLOCK
 10
29501.41492445516
 20
23597.24434561409
 30
0.0
 40
80.0
  1
7980
  7
ROMANS
 72
     1
 11
29653.79587683612
 21
23637.24434561409
 31
0.0
 73
     2
  0
POINT
  8
DEFPOINTS
  6
BYBLOCK
 62
     0
 10
25663.79587683611
 20
24302.46030326455
 30
0.0
  0
POINT
  8
DEFPOINTS
  6
BYBLOCK
 62
     0
 10
33643.79587683612
 20
24302.46030326455
 30
0.0
  0
POINT
  8
DEFPOINTS
  6
BYBLOCK
 62
     0
 10
33643.79587683612
 20
23557.24434561409
 30
0.0
  0
ENDBLK
  8
0
  0
BLOCK
  8
0
  2
*X43
 70
    65
 10
0.0
 20
0.0
 30
0.0
  3
*X
  0
LINE
  8
0
 62
     0
 10
37006.14629365369
 20
32156.80798827635
 30
0.0
 11
38002.50114769351
 21
33153.16284231617
 31
0.0
  0
LINE
  8
0
 62
     0
 10
37006.14629365369
 20
32336.41311069773
 30
0.0
 11
37822.89602527213
 21
33153.16284231617
 31
0.0
  0
LINE
  8
0
 62
     0
 10
37006.14629365369
 20
32516.01823311912
 30
0.0
 11
37643.29090285075
 21
33153.16284231617
 31
0.0
  0
LINE
  8
0
 62
     0
 10
37006.14629365369
 20
32695.6233555405
 30
0.0
 11
37463.68578042936
 21
33153.16284231617
 31
0.0
  0
LINE
  8
0
 62
     0
 10
37006.14629365369
 20
32875.22847796188
 30
0.0
 11
37284.08065800798
 21
33153.16284231617
 31
0.0
  0
LINE
  8
0
 62
     0
 10
37006.14629365369
 20
33054.83360038326
 30
0.0
 11
37104.4755355866
 21
33153.16284231617
 31
0.0
  0
LINE
  8
0
 62
     0
 10
37182.10627011491
 20
32153.16284231619
 30
0.0
 11
38006.14629365369
 21
32977.20286585497
 31
0.0
  0
LINE
  8
0
 62
     0
 10
37361.7113925363
 20
32153.16284231619
 30
0.0
 11
38006.14629365369
 21
32797.59774343359
 31
0.0
  0
LINE
  8
0
 62
     0
 10
37541.31651495768
 20
32153.16284231619
 30
0.0
 11
38006.14629365369
 21
32617.99262101221
 31
0.0
  0
LINE
  8
0
 62
     0
 10
37720.92163737906
 20
32153.16284231619
 30
0.0
 11
38006.14629365369
 21
32438.38749859082
 31
0.0
  0
LINE
  8
0
 62
     0
 10
37900.52675980045
 20
32153.16284231619
 30
0.0
 11
38006.14629365369
 21
32258.78237616944
 31
0.0
  0
ENDBLK
  8
0
  0
ENDSEC
  0
SECTION
  2
ENTITIES
  0
VIEWPORT
  8
0
 67
     1
 68
     1
 10
210.0
 20
151.361256544503
 30
0.0
 40
420.0
 41
302.722513089005
 69
     1
1001
ACAD
1000
MVIEW
1002
{
1070
    16
1010
0.0
1020
0.0
1030
0.0
1010
0.0
1020
0.0
1030
1.0
1040
0.0
1040
302.722513089005
1040
210.0
1040
151.361256544503
1040
50.0
1040
0.0
1040
0.0
1070
     0
1070
 20000
1070
     1
1070
     1
1070
     0
1070
     0
1070
     0
1070
     0
1040
0.0
1040
0.0
1040
0.0
1040
10.0
1040
10.0
1040
10.0
1040
10.0
1070
     0
1002
{
1002
}
1002
}
  0
DIMENSION
  8
DUN
  2
*D16
 10
29752.54261828681
 20
5047.067210479855
 30
0.0
 11
29672.54261828681
 21
6047.067210479855
 31
0.0
 12
-365.393012740817
 22
-436.851524024037
 32
0.0
 13
29746.84227935577
 23
7047.067210479855
 33
0.0
 14
29772.49389970924
 24
5047.067210479855
 34
0.0
 50
90.0
  3
STANDAARD
  0
LINE
  8
DIK
 10
29953.72090633826
 20
5047.067210479855
 30
0.0
 11
29533.72090633826
 21
5047.067210479855
 31
0.0
  0
LINE
  8
DIK
 10
29950.94903067783
 20
5047.067210479855
 30
0.0
 11
29530.94903067783
 21
5047.067210479855
 31
0.0
  0
LINE
  8
DIK
 10
29950.94903067783
 20
5047.067210479855
 30
0.0
 11
29530.94903067783
 21
5047.067210479855
 31
0.0
  0
DIMENSION
  8
DUN
  2
*D17
 10
28483.72090633827
 20
7398.847242597211
 30
0.0
 11
28983.72090633826
 21
7478.847242597211
 31
0.0
 12
-365.393012740817
 22
99.782846492898
 32
0.0
 13
29483.72090633827
 23
7608.137181587302
 33
0.0
 14
28483.72090633827
 24
7597.121923089576
 34
0.0
  3
STANDAARD
  0
ARC
  8
DIK
 10
30003.72090633827
 20
6046.262016299127
 30
0.0
 40
1000.0
 50
270.0
 51
0.0
  0
ARC
  8
DIK
 10
29483.72090633827
 20
6046.262016299128
 30
0.0
 40
1000.0
 50
180.0
 51
270.0
  0
LINE
  8
DIK
 10
30003.72090633826
 20
5046.262016299127
 30
0.0
 11
29483.72090633826
 21
5046.262016299131
 31
0.0
  0
LINE
  8
DIK
 10
28483.72090633827
 20
7816.142988093965
 30
0.0
 11
28483.72090633827
 21
6046.262016299128
 31
0.0
  0
LINE
  8
DIK
 10
31003.72090633827
 20
7816.142988094003
 30
0.0
 11
31003.72090633827
 21
6046.262016299127
 31
0.0
  0
LINE
  8
DIK
 10
29533.72090633827
 20
6997.067210479855
 30
0.0
 11
29483.72090633827
 21
6997.067210479855
 31
0.0
  0
LINE
  8
DIK
 10
29953.72090633826
 20
7047.067210479855
 30
0.0
 11
29533.72090633827
 21
7047.067210479855
 31
0.0
  0
LINE
  8
DIK
 10
29483.72090633827
 20
9112.567210479852
 30
0.0
 11
29483.72090633827
 21
6997.067210479855
 31
0.0
  0
LINE
  8
DIK
 10
30003.72090633827
 20
9112.567210479852
 30
0.0
 11
30003.72090633827
 21
6997.067210479855
 31
0.0
  0
LINE
  8
DIK
 10
29533.72090633827
 20
9112.567210479852
 30
0.0
 11
29533.72090633827
 21
6997.067210479855
 31
0.0
  0
LINE
  8
DIK
 10
29953.72090633826
 20
9112.567210479852
 30
0.0
 11
29953.72090633826
 21
6997.067210479855
 31
0.0
  0
LINE
  8
DIK
 10
30003.72090633827
 20
6997.067210479855
 30
0.0
 11
29953.72090633826
 21
6997.067210479855
 31
0.0
  0
LINE
  8
DIK
 10
27643.72090633826
 20
10182.56721047985
 30
0.0
 11
27643.72090633826
 21
9282.567210479852
 31
0.0
  0
ARC
  8
DIK
 10
29343.72090633826
 20
9282.567210479852
 30
0.0
 40
1700.0
 50
180.0
 51
239.610057550673
  0
ARC
  8
DIK
 10
30143.72090633826
 20
9282.567210479854
 30
0.0
 40
1700.0
 50
300.389942449328
 51
0.0
  0
LINE
  8
DIK
 10
31843.72090633826
 20
10182.56721047985
 30
0.0
 11
31843.72090633826
 21
9282.567210479854
 31
0.0
  0
ARC
  8
DIK
 10
30143.72090633826
 20
10152.56721047985
 30
0.0
 40
1700.0
 50
0.0
 51
90.0
  0
LINE
  8
DIK
 10
29293.72090633826
 20
11852.56721047985
 30
0.0
 11
30193.72090633826
 21
11852.56721047985
 31
0.0
  0
ARC
  8
DIK
 10
29343.72090633826
 20
10152.56721047985
 30
0.0
 40
1700.0
 50
90.0
 51
180.0
  0
DIMENSION
  8
DUN
  2
*D18
 10
27643.72090633826
 20
9728.044931955853
 30
0.0
 11
28393.72090633827
 21
9808.044931955853
 31
0.0
 12
-365.393012740817
 22
-436.851524024037
 32
0.0
 13
29143.72090633826
 23
9685.253627841056
 33
0.0
 14
27643.72090633826
 24
9764.252961478163
 34
0.0
  3
STANDAARD
  0
POLYLINE
  8
DIK
 66
     1
 10
0.0
 20
0.0
 30
0.0
 70
     1
  0
VERTEX
  8
DIK
 10
29189.20223856396
 20
9705.676479740937
 30
0.0
 42
0.168849830484
  0
VERTEX
  8
DIK
 10
29187.15947036465
 20
9711.553087169022
 30
0.0
 42
0.105184028713
  0
VERTEX
  8
DIK
 10
29181.98789631021
 20
9715.839756702315
 30
0.0
 42
0.067315372571
 70
     2
 50
152.354024636261
  0
VERTEX
  8
DIK
 10
29176.02881216654
 20
9718.002071410884
 30
0.0
 42
0.053465209097
  0
VERTEX
  8
DIK
 10
29168.72090633826
 20
9718.785749002018
 30
0.0
 42
0.053465209097
  0
VERTEX
  8
DIK
 10
29161.41300050999
 20
9718.002071410884
 30
0.0
 42
0.067315372571
  0
VERTEX
  8
DIK
 10
29155.45391636631
 20
9715.839756702315
 30
0.0
 42
0.105184028713
 70
     2
 50
207.645975363739
  0
VERTEX
  8
DIK
 10
29150.28234231188
 20
9711.553087169022
 30
0.0
 42
0.168849830484
  0
VERTEX
  8
DIK
 10
29148.23957411256
 20
9705.676479740937
 30
0.0
 42
0.168849830484
  0
VERTEX
  8
DIK
 10
29150.28234231188
 20
9699.79987231285
 30
0.0
 42
0.105184028713
  0
VERTEX
  8
DIK
 10
29155.45391636631
 20
9695.513202779558
 30
0.0
 42
0.067315372571
 70
     2
 50
332.354024636261
  0
VERTEX
  8
DIK
 10
29161.41300051
 20
9693.350888070989
 30
0.0
 42
0.053465209097
  0
VERTEX
  8
DIK
 10
29168.72090633826
 20
9692.567210479854
 30
0.0
 42
0.053465209097
  0
VERTEX
  8
DIK
 10
29176.02881216653
 20
9693.350888070989
 30
0.0
 42
0.067315372571
  0
VERTEX
  8
DIK
 10
29181.98789631021
 20
9695.513202779558
 30
0.0
 42
0.105184028713
 70
     2
 50
27.645975363739
  0
VERTEX
  8
DIK
 10
29187.15947036464
 20
9699.79987231285
 30
0.0
 42
0.168849830484
  0
SEQEND
  8
DIK
  0
POLYLINE
  8
DIK
 66
     1
 10
0.0
 20
0.0
 30
0.0
 70
     1
  0
VERTEX
  8
DIK
 10
29184.20223856396
 20
9701.254714560022
 30
0.0
 42
0.168849830484
  0
VERTEX
  8
DIK
 10
29183.23753298501
 20
9704.029966286121
 30
0.0
 42
0.105184028713
  0
VERTEX
  8
DIK
 10
29179.66786133685
 20
9706.988833845002
 30
0.0
 42
0.067315372571
 70
     2
 50
152.354024636261
  0
VERTEX
  8
DIK
 10
29174.96863438108
 20
9708.693996470731
 30
0.0
 42
0.053465209097
  0
VERTEX
  8
DIK
 10
29168.72090633826
 20
9709.363983821106
 30
0.0
 42
0.053465209097
  0
VERTEX
  8
DIK
 10
29162.47317829545
 20
9708.693996470731
 30
0.0
 42
0.067315372571
  0
VERTEX
  8
DIK
 10
29157.77395133967
 20
9706.988833845002
 30
0.0
 42
0.105184028713
 70
     2
 50
207.645975363739
  0
VERTEX
  8
DIK
 10
29154.20427969152
 20
9704.029966286121
 30
0.0
 42
0.168849830484
  0
VERTEX
  8
DIK
 10
29153.23957411256
 20
9701.254714560022
 30
0.0
 42
0.168849830484
  0
VERTEX
  8
DIK
 10
29154.20427969152
 20
9698.479462833923
 30
0.0
 42
0.105184028713
  0
VERTEX
  8
DIK
 10
29157.77395133967
 20
9695.520595275045
 30
0.0
 42
0.067315372571
 70
     2
 50
332.354024636261
  0
VERTEX
  8
DIK
 10
29162.47317829545
 20
9693.815432649316
 30
0.0
 42
0.053465209097
  0
VERTEX
  8
DIK
 10
29168.72090633826
 20
9693.145445298943
 30
0.0
 42
0.053465209097
  0
VERTEX
  8
DIK
 10
29174.96863438108
 20
9693.815432649316
 30
0.0
 42
0.067315372571
  0
VERTEX
  8
DIK
 10
29179.66786133685
 20
9695.520595275045
 30
0.0
 42
0.105184028713
 70
     2
 50
27.645975363739
  0
VERTEX
  8
DIK
 10
29183.23753298501
 20
9698.479462833924
 30
0.0
 42
0.168849830484
  0
SEQEND
  8
DIK
  0
POLYLINE
  8
DIK
 66
     1
 10
0.0
 20
0.0
 30
0.0
 70
     1
  0
VERTEX
  8
DIK
 10
29923.23957411256
 20
9705.676479740935
 30
0.0
 42
-0.168849830484
  0
VERTEX
  8
DIK
 10
29925.28234231188
 20
9711.55308716902
 30
0.0
 42
-0.105184028713
  0
VERTEX
  8
DIK
 10
29930.45391636632
 20
9715.839756702315
 30
0.0
 42
-0.067315372571
 70
     2
 50
27.645975363739
  0
VERTEX
  8
DIK
 10
29936.41300050999
 20
9718.002071410882
 30
0.0
 42
-0.053465209097
  0
VERTEX
  8
DIK
 10
29943.72090633826
 20
9718.785749002016
 30
0.0
 42
-0.053465209097
  0
VERTEX
  8
DIK
 10
29951.02881216654
 20
9718.002071410882
 30
0.0
 42
-0.067315372571
  0
VERTEX
  8
DIK
 10
29956.98789631021
 20
9715.839756702315
 30
0.0
 42
-0.105184028713
 70
     2
 50
332.354024636262
  0
VERTEX
  8
DIK
 10
29962.15947036465
 20
9711.553087169022
 30
0.0
 42
-0.168849830484
  0
VERTEX
  8
DIK
 10
29964.20223856397
 20
9705.676479740935
 30
0.0
 42
-0.168849830484
  0
VERTEX
  8
DIK
 10
29962.15947036465
 20
9699.799872312848
 30
0.0
 42
-0.105184028713
  0
VERTEX
  8
DIK
 10
29956.98789631021
 20
9695.513202779556
 30
0.0
 42
-0.067315372571
 70
     2
 50
207.645975363739
  0
VERTEX
  8
DIK
 10
29951.02881216653
 20
9693.350888070987
 30
0.0
 42
-0.053465209097
  0
VERTEX
  8
DIK
 10
29943.72090633826
 20
9692.567210479854
 30
0.0
 42
-0.053465209097
  0
VERTEX
  8
DIK
 10
29936.41300051
 20
9693.350888070987
 30
0.0
 42
-0.067315372571
  0
VERTEX
  8
DIK
 10
29930.45391636632
 20
9695.513202779556
 30
0.0
 42
-0.105184028713
 70
     2
 50
152.354024636262
  0
VERTEX
  8
DIK
 10
29925.28234231188
 20
9699.799872312848
 30
0.0
 42
-0.168849830484
  0
SEQEND
  8
DIK
  0
POLYLINE
  8
DIK
 66
     1
 10
0.0
 20
0.0
 30
0.0
 70
     1
  0
VERTEX
  8
DIK
 10
29928.23957411256
 20
9701.254714560022
 30
0.0
 42
-0.168849830484
  0
VERTEX
  8
DIK
 10
29929.20427969151
 20
9704.029966286121
 30
0.0
 42
-0.105184028713
  0
VERTEX
  8
DIK
 10
29932.77395133967
 20
9706.988833845
 30
0.0
 42
-0.067315372571
 70
     2
 50
27.645975363739
  0
VERTEX
  8
DIK
 10
29937.47317829545
 20
9708.69399647073
 30
0.0
 42
-0.053465209097
  0
VERTEX
  8
DIK
 10
29943.72090633826
 20
9709.363983821102
 30
0.0
 42
-0.053465209097
  0
VERTEX
  8
DIK
 10
29949.96863438108
 20
9708.693996470731
 30
0.0
 42
-0.067315372571
  0
VERTEX
  8
DIK
 10
29954.66786133686
 20
9706.988833845
 30
0.0
 42
-0.105184028713
 70
     2
 50
332.354024636262
  0
VERTEX
  8
DIK
 10
29958.23753298502
 20
9704.029966286121
 30
0.0
 42
-0.168849830484
  0
VERTEX
  8
DIK
 10
29959.20223856396
 20
9701.254714560022
 30
0.0
 42
-0.168849830484
  0
VERTEX
  8
DIK
 10
29958.23753298502
 20
9698.479462833923
 30
0.0
 42
-0.105184028713
  0
VERTEX
  8
DIK
 10
29954.66786133686
 20
9695.520595275045
 30
0.0
 42
-0.067315372571
 70
     2
 50
207.645975363739
  0
VERTEX
  8
DIK
 10
29949.96863438108
 20
9693.815432649314
 30
0.0
 42
-0.053465209097
  0
VERTEX
  8
DIK
 10
29943.72090633826
 20
9693.14544529894
 30
0.0
 42
-0.053465209097
  0
VERTEX
  8
DIK
 10
29937.47317829545
 20
9693.815432649314
 30
0.0
 42
-0.067315372571
  0
VERTEX
  8
DIK
 10
29932.77395133967
 20
9695.520595275045
 30
0.0
 42
-0.105184028713
 70
     2
 50
152.354024636262
  0
VERTEX
  8
DIK
 10
29929.20427969151
 20
9698.479462833923
 30
0.0
 42
-0.168849830484
  0
SEQEND
  8
DIK
  0
POLYLINE
  8
DIK
 66
     1
 10
0.0
 20
0.0
 30
0.0
 70
     1
  0
VERTEX
  8
DIK
 10
29528.23957411256
 20
9701.254714560022
 30
0.0
 42
-0.168849830484
  0
VERTEX
  8
DIK
 10
29529.20427969151
 20
9704.029966286121
 30
0.0
 42
-0.105184028713
  0
VERTEX
  8
DIK
 10
29532.77395133967
 20
9706.988833844999
 30
0.0
 42
-0.067315372571
 70
     2
 50
27.645975363739
  0
VERTEX
  8
DIK
 10
29537.47317829545
 20
9708.69399647073
 30
0.0
 42
-0.053465209097
  0
VERTEX
  8
DIK
 10
29543.72090633826
 20
9709.363983821102
 30
0.0
 42
-0.053465209097
  0
VERTEX
  8
DIK
 10
29549.96863438108
 20
9708.69399647073
 30
0.0
 42
-0.067315372571
  0
VERTEX
  8
DIK
 10
29554.66786133686
 20
9706.988833844999
 30
0.0
 42
-0.105184028713
 70
     2
 50
332.354024636262
  0
VERTEX
  8
DIK
 10
29558.23753298501
 20
9704.029966286121
 30
0.0
 42
-0.168849830484
  0
VERTEX
  8
DIK
 10
29559.20223856396
 20
9701.254714560022
 30
0.0
 42
-0.168849830484
  0
VERTEX
  8
DIK
 10
29558.23753298501
 20
9698.479462833921
 30
0.0
 42
-0.105184028713
  0
VERTEX
  8
DIK
 10
29554.66786133686
 20
9695.520595275041
 30
0.0
 42
-0.067315372571
 70
     2
 50
207.645975363739
  0
VERTEX
  8
DIK
 10
29549.96863438108
 20
9693.815432649312
 30
0.0
 42
-0.053465209097
  0
VERTEX
  8
DIK
 10
29543.72090633826
 20
9693.145445298938
 30
0.0
 42
-0.053465209097
  0
VERTEX
  8
DIK
 10
29537.47317829545
 20
9693.815432649312
 30
0.0
 42
-0.067315372571
  0
VERTEX
  8
DIK
 10
29532.77395133967
 20
9695.520595275041
 30
0.0
 42
-0.105184028713
 70
     2
 50
152.354024636262
  0
VERTEX
  8
DIK
 10
29529.20427969151
 20
9698.479462833921
 30
0.0
 42
-0.168849830484
  0
SEQEND
  8
DIK
  0
POLYLINE
  8
DIK
 66
     1
 10
0.0
 20
0.0
 30
0.0
 70
     1
  0
VERTEX
  8
DIK
 10
29523.23957411256
 20
9705.676479740935
 30
0.0
 42
-0.168849830484
  0
VERTEX
  8
DIK
 10
29525.28234231188
 20
9711.553087169017
 30
0.0
 42
-0.105184028713
  0
VERTEX
  8
DIK
 10
29530.45391636632
 20
9715.839756702314
 30
0.0
 42
-0.067315372571
 70
     2
 50
27.645975363739
  0
VERTEX
  8
DIK
 10
29536.41300050999
 20
9718.002071410879
 30
0.0
 42
-0.053465209097
  0
VERTEX
  8
DIK
 10
29543.72090633826
 20
9718.785749002016
 30
0.0
 42
-0.053465209097
  0
VERTEX
  8
DIK
 10
29551.02881216653
 20
9718.002071410879
 30
0.0
 42
-0.067315372571
  0
VERTEX
  8
DIK
 10
29556.98789631021
 20
9715.839756702314
 30
0.0
 42
-0.105184028713
 70
     2
 50
332.354024636262
  0
VERTEX
  8
DIK
 10
29562.15947036465
 20
9711.553087169022
 30
0.0
 42
-0.168849830484
  0
VERTEX
  8
DIK
 10
29564.20223856397
 20
9705.676479740935
 30
0.0
 42
-0.168849830484
  0
VERTEX
  8
DIK
 10
29562.15947036465
 20
9699.799872312848
 30
0.0
 42
-0.105184028713
  0
VERTEX
  8
DIK
 10
29556.98789631021
 20
9695.513202779556
 30
0.0
 42
-0.067315372571
 70
     2
 50
207.645975363739
  0
VERTEX
  8
DIK
 10
29551.02881216653
 20
9693.350888070987
 30
0.0
 42
-0.053465209097
  0
VERTEX
  8
DIK
 10
29543.72090633826
 20
9692.567210479852
 30
0.0
 42
-0.053465209097
  0
VERTEX
  8
DIK
 10
29536.41300051
 20
9693.350888070986
 30
0.0
 42
-0.067315372571
  0
VERTEX
  8
DIK
 10
29530.45391636632
 20
9695.513202779556
 30
0.0
 42
-0.105184028713
 70
     2
 50
152.354024636262
  0
VERTEX
  8
DIK
 10
29525.28234231188
 20
9699.799872312848
 30
0.0
 42
-0.168849830484
  0
SEQEND
  8
DIK
  0
POLYLINE
  8
DIK
 66
     1
 10
0.0
 20
0.0
 30
0.0
 70
     1
  0
VERTEX
  8
DIK
 10
30298.23957411256
 20
9759.457941218773
 30
0.0
 42
0.168849830484
  0
VERTEX
  8
DIK
 10
30300.28234231188
 20
9753.581333790688
 30
0.0
 42
0.105184028713
  0
VERTEX
  8
DIK
 10
30305.45391636632
 20
9749.294664257394
 30
0.0
 42
0.067315372571
 70
     2
 50
332.354024636261
  0
VERTEX
  8
DIK
 10
30311.41300050999
 20
9747.132349548826
 30
0.0
 42
0.053465209097
 50
332.354024636261
  0
VERTEX
  8
DIK
 10
30318.72090633827
 20
9746.34867195769
 30
0.0
 42
0.053465209097
  0
VERTEX
  8
DIK
 10
30326.02881216654
 20
9747.132349548826
 30
0.0
 42
0.067315372571
  0
VERTEX
  8
DIK
 10
30331.98789631021
 20
9749.294664257394
 30
0.0
 42
0.105184028713
 70
     2
 50
27.645975363739
  0
VERTEX
  8
DIK
 10
30337.15947036464
 20
9753.581333790686
 30
0.0
 42
0.168849830484
 50
27.645975363739
  0
VERTEX
  8
DIK
 10
30339.20223856397
 20
9759.457941218773
 30
0.0
 42
0.168849830484
  0
VERTEX
  8
DIK
 10
30337.15947036464
 20
9765.33454864686
 30
0.0
 42
0.105184028713
  0
VERTEX
  8
DIK
 10
30331.98789631021
 20
9769.621218180152
 30
0.0
 42
0.067315372571
 70
     2
 50
152.354024636261
  0
VERTEX
  8
DIK
 10
30326.02881216653
 20
9771.783532888719
 30
0.0
 42
0.053465209097
 50
152.354024636261
  0
VERTEX
  8
DIK
 10
30318.72090633827
 20
9772.567210479852
 30
0.0
 42
0.053465209097
  0
VERTEX
  8
DIK
 10
30311.41300051
 20
9771.783532888719
 30
0.0
 42
0.067315372571
  0
VERTEX
  8
DIK
 10
30305.45391636632
 20
9769.621218180152
 30
0.0
 42
0.105184028713
 70
     2
 50
207.645975363739
  0
VERTEX
  8
DIK
 10
30300.28234231188
 20
9765.33454864686
 30
0.0
 42
0.168849830484
 50
207.645975363739
  0
SEQEND
  8
DIK
  0
POLYLINE
  8
DIK
 66
     1
 10
0.0
 20
0.0
 30
0.0
 70
     1
  0
VERTEX
  8
DIK
 10
30303.23957411256
 20
9763.879706399684
 30
0.0
 42
0.168849830484
  0
VERTEX
  8
DIK
 10
30304.20427969152
 20
9761.104454673587
 30
0.0
 42
0.105184028713
  0
VERTEX
  8
DIK
 10
30307.77395133967
 20
9758.145587114707
 30
0.0
 42
0.067315372571
 70
     2
 50
332.354024636261
  0
VERTEX
  8
DIK
 10
30312.47317829545
 20
9756.440424488978
 30
0.0
 42
0.053465209097
 50
332.354024636261
  0
VERTEX
  8
DIK
 10
30318.72090633827
 20
9755.770437138606
 30
0.0
 42
0.053465209097
  0
VERTEX
  8
DIK
 10
30324.96863438108
 20
9756.440424488978
 30
0.0
 42
0.067315372571
  0
VERTEX
  8
DIK
 10
30329.66786133686
 20
9758.145587114707
 30
0.0
 42
0.105184028713
 70
     2
 50
27.645975363739
  0
VERTEX
  8
DIK
 10
30333.23753298502
 20
9761.104454673587
 30
0.0
 42
0.168849830484
 50
27.645975363739
  0
VERTEX
  8
DIK
 10
30334.20223856396
 20
9763.879706399684
 30
0.0
 42
0.168849830484
  0
VERTEX
  8
DIK
 10
30333.23753298502
 20
9766.654958125783
 30
0.0
 42
0.105184028713
  0
VERTEX
  8
DIK
 10
30329.66786133686
 20
9769.613825684665
 30
0.0
 42
0.067315372571
 70
     2
 50
152.354024636261
  0
VERTEX
  8
DIK
 10
30324.96863438108
 20
9771.318988310394
 30
0.0
 42
0.053465209097
 50
152.354024636261
  0
VERTEX
  8
DIK
 10
30318.72090633827
 20
9771.988975660768
 30
0.0
 42
0.053465209097
  0
VERTEX
  8
DIK
 10
30312.47317829545
 20
9771.318988310394
 30
0.0
 42
0.067315372571
  0
VERTEX
  8
DIK
 10
30307.77395133967
 20
9769.613825684665
 30
0.0
 42
0.105184028713
 70
     2
 50
207.645975363739
  0
VERTEX
  8
DIK
 10
30304.20427969152
 20
9766.654958125783
 30
0.0
 42
0.168849830484
 50
207.645975363739
  0
SEQEND
  8
DIK
  0
POLYLINE
  8
DIK
 66
     1
 10
0.0
 20
0.0
 30
0.0
 70
     1
  0
VERTEX
  8
DIK
 10
29928.23957411256
 20
9763.879706399684
 30
0.0
 42
0.168849830484
  0
VERTEX
  8
DIK
 10
29929.20427969151
 20
9761.104454673587
 30
0.0
 42
0.105184028713
  0
VERTEX
  8
DIK
 10
29932.77395133967
 20
9758.145587114707
 30
0.0
 42
0.067315372571
 70
     2
 50
332.354024636261
  0
VERTEX
  8
DIK
 10
29937.47317829545
 20
9756.440424488978
 30
0.0
 42
0.053465209097
 50
332.354024636261
  0
VERTEX
  8
DIK
 10
29943.72090633826
 20
9755.770437138606
 30
0.0
 42
0.053465209097
  0
VERTEX
  8
DIK
 10
29949.96863438108
 20
9756.440424488978
 30
0.0
 42
0.067315372571
  0
VERTEX
  8
DIK
 10
29954.66786133686
 20
9758.145587114707
 30
0.0
 42
0.105184028713
 70
     2
 50
27.645975363739
  0
VERTEX
  8
DIK
 10
29958.23753298502
 20
9761.104454673587
 30
0.0
 42
0.168849830484
 50
27.645975363739
  0
VERTEX
  8
DIK
 10
29959.20223856396
 20
9763.879706399684
 30
0.0
 42
0.168849830484
  0
VERTEX
  8
DIK
 10
29958.23753298502
 20
9766.654958125783
 30
0.0
 42
0.105184028713
  0
VERTEX
  8
DIK
 10
29954.66786133686
 20
9769.613825684665
 30
0.0
 42
0.067315372571
 70
     2
 50
152.354024636261
  0
VERTEX
  8
DIK
 10
29949.96863438108
 20
9771.318988310394
 30
0.0
 42
0.053465209097
 50
152.354024636261
  0
VERTEX
  8
DIK
 10
29943.72090633826
 20
9771.988975660768
 30
0.0
 42
0.053465209097
  0
VERTEX
  8
DIK
 10
29937.47317829545
 20
9771.318988310394
 30
0.0
 42
0.067315372571
  0
VERTEX
  8
DIK
 10
29932.77395133967
 20
9769.613825684665
 30
0.0
 42
0.105184028713
 70
     2
 50
207.645975363739
  0
VERTEX
  8
DIK
 10
29929.20427969151
 20
9766.654958125783
 30
0.0
 42
0.168849830484
 50
207.645975363739
  0
SEQEND
  8
DIK
  0
POLYLINE
  8
DIK
 66
     1
 10
0.0
 20
0.0
 30
0.0
 70
     1
  0
VERTEX
  8
DIK
 10
29923.23957411256
 20
9759.457941218773
 30
0.0
 42
0.168849830484
  0
VERTEX
  8
DIK
 10
29925.28234231188
 20
9753.581333790688
 30
0.0
 42
0.105184028713
  0
VERTEX
  8
DIK
 10
29930.45391636632
 20
9749.294664257394
 30
0.0
 42
0.067315372571
 70
     2
 50
332.354024636261
  0
VERTEX
  8
DIK
 10
29936.41300050999
 20
9747.132349548826
 30
0.0
 42
0.053465209097
 50
332.354024636261
  0
VERTEX
  8
DIK
 10
29943.72090633826
 20
9746.34867195769
 30
0.0
 42
0.053465209097
  0
VERTEX
  8
DIK
 10
29951.02881216654
 20
9747.132349548826
 30
0.0
 42
0.067315372571
  0
VERTEX
  8
DIK
 10
29956.98789631021
 20
9749.294664257394
 30
0.0
 42
0.105184028713
 70
     2
 50
27.645975363739
  0
VERTEX
  8
DIK
 10
29962.15947036465
 20
9753.581333790686
 30
0.0
 42
0.168849830484
 50
27.645975363739
  0
VERTEX
  8
DIK
 10
29964.20223856397
 20
9759.457941218773
 30
0.0
 42
0.168849830484
  0
VERTEX
  8
DIK
 10
29962.15947036465
 20
9765.33454864686
 30
0.0
 42
0.105184028713
  0
VERTEX
  8
DIK
 10
29956.98789631021
 20
9769.621218180152
 30
0.0
 42
0.067315372571
 70
     2
 50
152.354024636261
  0
VERTEX
  8
DIK
 10
29951.02881216653
 20
9771.783532888719
 30
0.0
 42
0.053465209097
 50
152.354024636261
  0
VERTEX
  8
DIK
 10
29943.72090633826
 20
9772.567210479852
 30
0.0
 42
0.053465209097
  0
VERTEX
  8
DIK
 10
29936.41300051
 20
9771.783532888719
 30
0.0
 42
0.067315372571
  0
VERTEX
  8
DIK
 10
29930.45391636632
 20
9769.621218180152
 30
0.0
 42
0.105184028713
 70
     2
 50
207.645975363739
  0
VERTEX
  8
DIK
 10
29925.28234231188
 20
9765.33454864686
 30
0.0
 42
0.168849830484
 50
207.645975363739
  0
SEQEND
  8
DIK
  0
POLYLINE
  8
DIK
 66
     1
 10
0.0
 20
0.0
 30
0.0
 70
     1
  0
VERTEX
  8
DIK
 10
29523.23957411256
 20
9759.457941218773
 30
0.0
 42
0.168849830484
  0
VERTEX
  8
DIK
 10
29525.28234231188
 20
9753.581333790688
 30
0.0
 42
0.105184028713
  0
VERTEX
  8
DIK
 10
29530.45391636632
 20
9749.294664257394
 30
0.0
 42
0.067315372571
 70
     2
 50
332.354024636261
  0
VERTEX
  8
DIK
 10
29536.41300050999
 20
9747.132349548826
 30
0.0
 42
0.053465209097
 50
332.354024636261
  0
VERTEX
  8
DIK
 10
29543.72090633826
 20
9746.34867195769
 30
0.0
 42
0.053465209097
  0
VERTEX
  8
DIK
 10
29551.02881216653
 20
9747.132349548826
 30
0.0
 42
0.067315372571
  0
VERTEX
  8
DIK
 10
29556.98789631021
 20
9749.294664257394
 30
0.0
 42
0.105184028713
 70
     2
 50
27.645975363739
  0
VERTEX
  8
DIK
 10
29562.15947036465
 20
9753.581333790686
 30
0.0
 42
0.168849830484
 50
27.645975363739
  0
VERTEX
  8
DIK
 10
29564.20223856397
 20
9759.457941218773
 30
0.0
 42
0.168849830484
  0
VERTEX
  8
DIK
 10
29562.15947036465
 20
9765.33454864686
 30
0.0
 42
0.105184028713
  0
VERTEX
  8
DIK
 10
29556.98789631021
 20
9769.621218180152
 30
0.0
 42
0.067315372571
 70
     2
 50
152.354024636261
  0
VERTEX
  8
DIK
 10
29551.02881216653
 20
9771.783532888719
 30
0.0
 42
0.053465209097
 50
152.354024636261
  0
VERTEX
  8
DIK
 10
29543.72090633826
 20
9772.567210479852
 30
0.0
 42
0.053465209097
  0
VERTEX
  8
DIK
 10
29536.41300051
 20
9771.783532888719
 30
0.0
 42
0.067315372571
  0
VERTEX
  8
DIK
 10
29530.45391636632
 20
9769.621218180152
 30
0.0
 42
0.105184028713
 70
     2
 50
207.645975363739
  0
VERTEX
  8
DIK
 10
29525.28234231188
 20
9765.33454864686
 30
0.0
 42
0.168849830484
 50
207.645975363739
  0
SEQEND
  8
DIK
  0
POLYLINE
  8
DIK
 66
     1
 10
0.0
 20
0.0
 30
0.0
 70
     1
  0
VERTEX
  8
DIK
 10
29528.23957411256
 20
9763.879706399684
 30
0.0
 42
0.168849830484
  0
VERTEX
  8
DIK
 10
29529.20427969151
 20
9761.104454673587
 30
0.0
 42
0.105184028713
  0
VERTEX
  8
DIK
 10
29532.77395133967
 20
9758.145587114707
 30
0.0
 42
0.067315372571
 70
     2
 50
332.354024636261
  0
VERTEX
  8
DIK
 10
29537.47317829545
 20
9756.440424488978
 30
0.0
 42
0.053465209097
 50
332.354024636261
  0
VERTEX
  8
DIK
 10
29543.72090633826
 20
9755.770437138606
 30
0.0
 42
0.053465209097
  0
VERTEX
  8
DIK
 10
29549.96863438108
 20
9756.440424488978
 30
0.0
 42
0.067315372571
  0
VERTEX
  8
DIK
 10
29554.66786133686
 20
9758.145587114707
 30
0.0
 42
0.105184028713
 70
     2
 50
27.645975363739
  0
VERTEX
  8
DIK
 10
29558.23753298501
 20
9761.104454673587
 30
0.0
 42
0.168849830484
 50
27.645975363739
  0
VERTEX
  8
DIK
 10
29559.20223856396
 20
9763.879706399684
 30
0.0
 42
0.168849830484
  0
VERTEX
  8
DIK
 10
29558.23753298501
 20
9766.654958125783
 30
0.0
 42
0.105184028713
  0
VERTEX
  8
DIK
 10
29554.66786133686
 20
9769.613825684665
 30
0.0
 42
0.067315372571
 70
     2
 50
152.354024636261
  0
VERTEX
  8
DIK
 10
29549.96863438108
 20
9771.318988310394
 30
0.0
 42
0.053465209097
 50
152.354024636261
  0
VERTEX
  8
DIK
 10
29543.72090633826
 20
9771.988975660768
 30
0.0
 42
0.053465209097
  0
VERTEX
  8
DIK
 10
29537.47317829545
 20
9771.318988310394
 30
0.0
 42
0.067315372571
  0
VERTEX
  8
DIK
 10
29532.77395133967
 20
9769.613825684665
 30
0.0
 42
0.105184028713
 70
     2
 50
207.645975363739
  0
VERTEX
  8
DIK
 10
29529.20427969151
 20
9766.654958125783
 30
0.0
 42
0.168849830484
 50
207.645975363739
  0
SEQEND
  8
DIK
  0
POLYLINE
  8
DIK
 66
     1
 10
0.0
 20
0.0
 30
0.0
  0
VERTEX
  8
DIK
 10
30343.72090633826
 20
10382.56721047985
 30
0.0
  0
VERTEX
  8
DIK
 10
30393.72090633826
 20
10382.56721047985
 30
0.0
  0
VERTEX
  8
DIK
 10
30393.72090633826
 20
9082.567210479853
 30
0.0
  0
VERTEX
  8
DIK
 10
30343.72090633826
 20
9082.567210479854
 30
0.0
  0
SEQEND
  8
DIK
  0
POLYLINE
  8
DIK
 66
     1
 10
0.0
 20
0.0
 30
0.0
  0
VERTEX
  8
DIK
 10
29093.72090633826
 20
9082.567210479853
 30
0.0
  0
VERTEX
  8
DIK
 10
29093.72090633826
 20
10382.56721047985
 30
0.0
  0
VERTEX
  8
DIK
 10
29128.72090633827
 20
10382.56721047985
 30
0.0
  0
SEQEND
  8
DIK
  0
POLYLINE
  8
DIK
 66
     1
 10
0.0
 20
0.0
 30
0.0
  0
VERTEX
  8
DIK
 10
29143.72090633826
 20
9082.567210479853
 30
0.0
  0
VERTEX
  8
DIK
 10
29093.72090633826
 20
9082.567210479853
 30
0.0
  0
SEQEND
  8
DIK
  0
LINE
  8
DIK
 10
30343.72090633826
 20
9112.567210479852
 30
0.0
 11
29143.72090633826
 21
9112.567210479852
 31
0.0
  0
LINE
  8
DIK
 10
29143.72090633826
 20
10352.56721047985
 30
0.0
 11
30343.72090633826
 21
10352.56721047985
 31
0.0
  0
LINE
  8
DIK
 10
30343.72090633826
 20
9692.567210479854
 30
0.0
 11
29143.72090633826
 21
9692.567210479852
 31
0.0
  0
LINE
  8
DIK
 10
30343.72090633826
 20
9772.567210479852
 30
0.0
 11
29143.72090633826
 21
9772.567210479852
 31
0.0
  0
LINE
  8
DIK
 10
30343.72090633826
 20
10382.56721047985
 30
0.0
 11
30343.72090633826
 21
9082.567210479853
 31
0.0
  0
LINE
  8
DIK
 10
29143.72090633826
 20
9082.567210479853
 30
0.0
 11
29143.72090633826
 21
10382.56721047985
 31
0.0
  0
LINE
  8
DIK
 10
30393.72090633826
 20
9732.567210479855
 30
0.0
 11
29093.72090633826
 21
9732.567210479855
 31
0.0
  0
DIMENSION
  8
DUN
  2
*D19
 10
29752.54261828681
 20
10352.56721047985
 30
0.0
 11
29672.54261828681
 21
11102.56721047985
 31
0.0
 12
-365.393012740817
 22
-436.851524024037
 32
0.0
 13
29753.25518444413
 23
11852.56721047985
 33
0.0
 14
29772.49389970923
 24
10352.56721047985
 34
0.0
 50
90.0
  3
STANDAARD
  0
LINE
  8
STREEPLIJN
 10
28483.72090633827
 20
6046.262016299128
 30
0.0
 11
28483.72090633827
 21
5046.262016299128
 31
0.0
  0
LINE
  8
STREEPLIJN
 10
31003.72090633827
 20
6046.262016299127
 30
0.0
 11
31003.72090633827
 21
5046.262016299127
 31
0.0
  0
LINE
  8
STREEPLIJN
 10
30003.72090633826
 20
5046.262016299127
 30
0.0
 11
31003.72090633827
 21
5046.262016299127
 31
0.0
  0
LINE
  8
STREEPLIJN
 10
29483.72090633826
 20
5046.262016299128
 30
0.0
 11
28483.72090633827
 21
5046.262016299128
 31
0.0
  0
POLYLINE
  8
STREEPLIJN
 66
     1
 10
0.0
 20
0.0
 30
0.0
  0
VERTEX
  8
STREEPLIJN
 10
27643.72090633826
 20
11852.56721047985
 30
0.0
  0
VERTEX
  8
STREEPLIJN
 10
27643.72090633826
 20
7816.142988093986
 30
0.0
  0
VERTEX
  8
STREEPLIJN
 10
28483.72090633827
 20
7816.142988093986
 30
0.0
  0
SEQEND
  8
STREEPLIJN
  0
POLYLINE
  8
STREEPLIJN
 66
     1
 10
0.0
 20
0.0
 30
0.0
  0
VERTEX
  8
STREEPLIJN
 10
31003.72090633827
 20
7816.142988093986
 30
0.0
  0
VERTEX
  8
STREEPLIJN
 10
31843.72090633826
 20
7816.142988093986
 30
0.0
  0
VERTEX
  8
STREEPLIJN
 10
31843.72090633826
 20
11852.56721047985
 30
0.0
  0
VERTEX
  8
STREEPLIJN
 10
27643.72090633826
 20
11852.56721047985
 30
0.0
  0
SEQEND
  8
STREEPLIJN
  0
INSERT
  8
STREEPLIJN
  2
*X15
 10
-365.393012740817
 20
-436.851524024037
 30
0.0
1001
ACAD
1000
HATCH
1002
{
1070
    16
1000
ANSI31
1040
30.0
1040
0.0
1002
}
  0
DIMENSION
  8
DUN
  2
*D20
 10
31843.72090633826
 20
12348.03088322571
 30
0.0
 11
29743.72090633826
 21
12428.03088322571
 31
0.0
 12
-365.393012740817
 22
-436.851524024037
 32
0.0
 13
27643.72090633826
 23
11852.56721047985
 33
0.0
 14
31843.72090633826
 24
11852.56721047985
 34
0.0
  3
STANDAARD
  0
DIMENSION
  8
DUN
  2
*D21
 10
31003.72090633827
 20
7395.861772548831
 30
0.0
 11
31423.72090633827
 21
7475.86177254883
 31
0.0
 12
-365.393012740817
 22
-436.851524024037
 32
0.0
 13
31843.72090633826
 23
7816.142988093986
 33
0.0
 14
31003.72090633827
 24
7763.201602696633
 34
0.0
  3
STANDAARD
  0
DIMENSION
  8
DUN
  2
*D22
 10
31003.72090633827
 20
4507.096448040017
 30
0.0
 11
29743.72090633826
 21
4587.096448040017
 31
0.0
 12
-365.393012740817
 22
-436.851524024037
 32
0.0
 13
28483.72090633827
 23
5046.262016299128
 33
0.0
 14
31003.72090633827
 24
5046.262016299127
 34
0.0
  3
STANDAARD
  0
DIMENSION
  8
DUN
  2
*D23
 10
32931.07582912881
 20
11852.56721047985
 30
0.0
 11
32851.07582912881
 21
8449.414613389491
 31
0.0
 12
-365.393012740817
 22
-436.851524024037
 32
0.0
  1
6800
 13
31003.72090633827
 23
5046.262016299127
 33
0.0
 14
31843.72090633826
 24
11852.56721047985
 34
0.0
 50
90.0
  3
STANDAARD
  0
DIMENSION
  8
DUN
  2
*D24
 10
32447.48959575677
 20
11852.56721047985
 30
0.0
 11
32367.48959575677
 21
9834.355099286922
 31
0.0
 12
-365.393012740817
 22
-436.851524024037
 32
0.0
 13
31843.72090633826
 23
7816.142988093986
 33
0.0
 14
31843.72090633826
 24
11852.56721047985
 34
0.0
 50
90.0
  3
STANDAARD
  0
DIMENSION
  8
DUN
  2
*D24
 10
32459.12950342224
 20
21946.14848349152
 30
0.0
 11
32379.12950342224
 21
19927.93637229858
 31
0.0
 12
-353.753105075342
 22
9656.729748987629
 32
0.0
 13
31855.36081400373
 23
17909.72426110565
 33
0.0
 14
31855.36081400373
 24
21946.14848349152
 34
0.0
 50
90.0
  3
STANDAARD
  0
DIMENSION
  8
DUN
  2
*D23
 10
32942.71573679428
 20
21946.14848349152
 30
0.0
 11
32862.71573679428
 21
18542.99588640115
 31
0.0
 12
-353.753105075342
 22
9656.729748987629
 32
0.0
  1
6800
 13
31015.36081400374
 23
15139.84328931079
 33
0.0
 14
31855.36081400373
 24
21946.14848349152
 34
0.0
 50
90.0
  3
STANDAARD
  0
DIMENSION
  8
DUN
  2
*D22
 10
31015.36081400374
 20
14600.67772105168
 30
0.0
 11
29755.36081400374
 21
14680.67772105168
 31
0.0
 12
-353.753105075342
 22
9656.729748987629
 32
0.0
 13
28495.36081400374
 23
15139.84328931079
 33
0.0
 14
31015.36081400374
 24
15139.84328931079
 34
0.0
  3
STANDAARD
  0
DIMENSION
  8
DUN
  2
*D21
 10
31015.36081400374
 20
17489.44304556049
 30
0.0
 11
31435.36081400374
 21
17569.44304556049
 31
0.0
 12
-353.753105075342
 22
9656.729748987629
 32
0.0
 13
31855.36081400373
 23
17909.72426110565
 33
0.0
 14
31015.36081400374
 24
17856.78287570829
 34
0.0
  3
STANDAARD
  0
DIMENSION
  8
DUN
  2
*D20
 10
31855.36081400373
 20
22441.61215623738
 30
0.0
 11
29755.36081400374
 21
22521.61215623738
 31
0.0
 12
-353.753105075342
 22
9656.729748987629
 32
0.0
 13
27655.36081400373
 23
21946.14848349152
 33
0.0
 14
31855.36081400373
 24
21946.14848349152
 34
0.0
  3
STANDAARD
  0
POLYLINE
  8
STREEPLIJN
 66
     1
 10
0.0
 20
0.0
 30
0.0
  0
VERTEX
  8
STREEPLIJN
 10
31015.36081400374
 20
17909.72426110565
 30
0.0
  0
VERTEX
  8
STREEPLIJN
 10
31855.36081400373
 20
17909.72426110565
 30
0.0
  0
VERTEX
  8
STREEPLIJN
 10
31855.36081400373
 20
21946.14848349152
 30
0.0
  0
VERTEX
  8
STREEPLIJN
 10
27655.36081400373
 20
21946.14848349152
 30
0.0
  0
SEQEND
  8
STREEPLIJN
  0
POLYLINE
  8
STREEPLIJN
 66
     1
 10
0.0
 20
0.0
 30
0.0
  0
VERTEX
  8
STREEPLIJN
 10
27655.36081400373
 20
21946.14848349152
 30
0.0
  0
VERTEX
  8
STREEPLIJN
 10
27655.36081400373
 20
17909.72426110565
 30
0.0
  0
VERTEX
  8
STREEPLIJN
 10
28495.36081400374
 20
17909.72426110565
 30
0.0
  0
SEQEND
  8
STREEPLIJN
  0
LINE
  8
STREEPLIJN
 10
29495.36081400373
 20
15139.84328931079
 30
0.0
 11
28495.36081400374
 21
15139.84328931079
 31
0.0
  0
LINE
  8
STREEPLIJN
 10
30015.36081400373
 20
15139.84328931079
 30
0.0
 11
31015.36081400374
 21
15139.84328931079
 31
0.0
  0
LINE
  8
STREEPLIJN
 10
31015.36081400374
 20
16139.84328931079
 30
0.0
 11
31015.36081400374
 21
15139.84328931079
 31
0.0
  0
LINE
  8
STREEPLIJN
 10
28495.36081400374
 20
16139.84328931079
 30
0.0
 11
28495.36081400374
 21
15139.84328931079
 31
0.0
  0
DIMENSION
  8
DUN
  2
*D19
 10
29764.18252595228
 20
20446.14848349151
 30
0.0
 11
29684.18252595228
 21
21196.14848349152
 31
0.0
 12
-353.753105075342
 22
9656.729748987629
 32
0.0
 13
29764.8950921096
 23
21946.14848349152
 33
0.0
 14
29784.1338073747
 24
20446.14848349151
 34
0.0
 50
90.0
  3
STANDAARD
  0
LINE
  8
DIK
 10
30405.36081400373
 20
19826.14848349152
 30
0.0
 11
29105.36081400374
 21
19826.14848349152
 31
0.0
  0
LINE
  8
DIK
 10
29155.36081400373
 20
19176.14848349151
 30
0.0
 11
29155.36081400373
 21
20476.14848349152
 31
0.0
  0
LINE
  8
DIK
 10
30355.36081400374
 20
20476.14848349152
 30
0.0
 11
30355.36081400374
 21
19176.14848349151
 31
0.0
  0
LINE
  8
DIK
 10
30355.36081400374
 20
19866.14848349151
 30
0.0
 11
29155.36081400373
 21
19866.14848349151
 31
0.0
  0
LINE
  8
DIK
 10
30355.36081400374
 20
19786.14848349152
 30
0.0
 11
29155.36081400373
 21
19786.14848349151
 31
0.0
  0
LINE
  8
DIK
 10
29155.36081400373
 20
20446.14848349151
 30
0.0
 11
30355.36081400374
 21
20446.14848349151
 31
0.0
  0
LINE
  8
DIK
 10
30355.36081400374
 20
19206.14848349151
 30
0.0
 11
29155.36081400373
 21
19206.14848349151
 31
0.0
  0
POLYLINE
  8
DIK
 66
     1
 10
0.0
 20
0.0
 30
0.0
  0
VERTEX
  8
DIK
 10
29155.36081400373
 20
19176.14848349151
 30
0.0
  0
VERTEX
  8
DIK
 10
29105.36081400374
 20
19176.14848349151
 30
0.0
  0
SEQEND
  8
DIK
  0
POLYLINE
  8
DIK
 66
     1
 10
0.0
 20
0.0
 30
0.0
  0
VERTEX
  8
DIK
 10
29105.36081400374
 20
19176.14848349151
 30
0.0
  0
VERTEX
  8
DIK
 10
29105.36081400374
 20
20476.14848349152
 30
0.0
  0
VERTEX
  8
DIK
 10
29140.36081400374
 20
20476.14848349152
 30
0.0
  0
SEQEND
  8
DIK
  0
POLYLINE
  8
DIK
 66
     1
 10
0.0
 20
0.0
 30
0.0
  0
VERTEX
  8
DIK
 10
30355.36081400374
 20
20476.14848349152
 30
0.0
  0
VERTEX
  8
DIK
 10
30405.36081400373
 20
20476.14848349152
 30
0.0
  0
VERTEX
  8
DIK
 10
30405.36081400373
 20
19176.14848349151
 30
0.0
  0
VERTEX
  8
DIK
 10
30355.36081400374
 20
19176.14848349152
 30
0.0
  0
SEQEND
  8
DIK
  0
POLYLINE
  8
DIK
 66
     1
 10
0.0
 20
0.0
 30
0.0
 70
     1
  0
VERTEX
  8
DIK
 10
29539.87948177804
 20
19857.46097941134
 30
0.0
 42
0.168849830484
  0
VERTEX
  8
DIK
 10
29540.84418735698
 20
19854.68572768525
 30
0.0
 42
0.105184028713
  0
VERTEX
  8
DIK
 10
29544.41385900514
 20
19851.72686012637
 30
0.0
 42
0.067315372571
 70
     2
 50
332.354024636261
  0
VERTEX
  8
DIK
 10
29549.11308596092
 20
19850.02169750064
 30
0.0
 42
0.053465209097
 50
332.354024636261
  0
VERTEX
  8
DIK
 10
29555.36081400373
 20
19849.35171015027
 30
0.0
 42
0.053465209097
  0
VERTEX
  8
DIK
 10
29561.60854204655
 20
19850.02169750064
 30
0.0
 42
0.067315372571
  0
VERTEX
  8
DIK
 10
29566.30776900233
 20
19851.72686012637
 30
0.0
 42
0.105184028713
 70
     2
 50
27.645975363739
  0
VERTEX
  8
DIK
 10
29569.87744065049
 20
19854.68572768525
 30
0.0
 42
0.168849830484
 50
27.645975363739
  0
VERTEX
  8
DIK
 10
29570.84214622943
 20
19857.46097941134
 30
0.0
 42
0.168849830484
  0
VERTEX
  8
DIK
 10
29569.87744065049
 20
19860.23623113745
 30
0.0
 42
0.105184028713
  0
VERTEX
  8
DIK
 10
29566.30776900233
 20
19863.19509869633
 30
0.0
 42
0.067315372571
 70
     2
 50
152.354024636261
  0
VERTEX
  8
DIK
 10
29561.60854204655
 20
19864.90026132205
 30
0.0
 42
0.053465209097
 50
152.354024636261
  0
VERTEX
  8
DIK
 10
29555.36081400373
 20
19865.57024867243
 30
0.0
 42
0.053465209097
  0
VERTEX
  8
DIK
 10
29549.11308596092
 20
19864.90026132205
 30
0.0
 42
0.067315372571
  0
VERTEX
  8
DIK
 10
29544.41385900514
 20
19863.19509869633
 30
0.0
 42
0.105184028713
 70
     2
 50
207.645975363739
  0
VERTEX
  8
DIK
 10
29540.84418735698
 20
19860.23623113745
 30
0.0
 42
0.168849830484
 50
207.645975363739
  0
SEQEND
  8
DIK
  0
POLYLINE
  8
DIK
 66
     1
 10
0.0
 20
0.0
 30
0.0
 70
     1
  0
VERTEX
  8
DIK
 10
29534.87948177803
 20
19853.03921423044
 30
0.0
 42
0.168849830484
  0
VERTEX
  8
DIK
 10
29536.92224997735
 20
19847.16260680235
 30
0.0
 42
0.105184028713
  0
VERTEX
  8
DIK
 10
29542.09382403179
 20
19842.87593726906
 30
0.0
 42
0.067315372571
 70
     2
 50
332.354024636261
  0
VERTEX
  8
DIK
 10
29548.05290817546
 20
19840.71362256049
 30
0.0
 42
0.053465209097
 50
332.354024636261
  0
VERTEX
  8
DIK
 10
29555.36081400373
 20
19839.92994496935
 30
0.0
 42
0.053465209097
  0
VERTEX
  8
DIK
 10
29562.66871983201
 20
19840.71362256049
 30
0.0
 42
0.067315372571
  0
VERTEX
  8
DIK
 10
29568.62780397568
 20
19842.87593726906
 30
0.0
 42
0.105184028713
 70
     2
 50
27.645975363739
  0
VERTEX
  8
DIK
 10
29573.79937803012
 20
19847.16260680235
 30
0.0
 42
0.168849830484
 50
27.645975363739
  0
VERTEX
  8
DIK
 10
29575.84214622944
 20
19853.03921423044
 30
0.0
 42
0.168849830484
  0
VERTEX
  8
DIK
 10
29573.79937803012
 20
19858.91582165852
 30
0.0
 42
0.105184028713
  0
VERTEX
  8
DIK
 10
29568.62780397568
 20
19863.20249119182
 30
0.0
 42
0.067315372571
 70
     2
 50
152.354024636261
  0
VERTEX
  8
DIK
 10
29562.66871983201
 20
19865.36480590038
 30
0.0
 42
0.053465209097
 50
152.354024636261
  0
VERTEX
  8
DIK
 10
29555.36081400373
 20
19866.14848349151
 30
0.0
 42
0.053465209097
  0
VERTEX
  8
DIK
 10
29548.05290817547
 20
19865.36480590038
 30
0.0
 42
0.067315372571
  0
VERTEX
  8
DIK
 10
29542.09382403179
 20
19863.20249119182
 30
0.0
 42
0.105184028713
 70
     2
 50
207.645975363739
  0
VERTEX
  8
DIK
 10
29536.92224997735
 20
19858.91582165852
 30
0.0
 42
0.168849830484
 50
207.645975363739
  0
SEQEND
  8
DIK
  0
POLYLINE
  8
DIK
 66
     1
 10
0.0
 20
0.0
 30
0.0
 70
     1
  0
VERTEX
  8
DIK
 10
29934.87948177803
 20
19853.03921423044
 30
0.0
 42
0.168849830484
  0
VERTEX
  8
DIK
 10
29936.92224997735
 20
19847.16260680235
 30
0.0
 42
0.105184028713
  0
VERTEX
  8
DIK
 10
29942.09382403179
 20
19842.87593726906
 30
0.0
 42
0.067315372571
 70
     2
 50
332.354024636261
  0
VERTEX
  8
DIK
 10
29948.05290817546
 20
19840.71362256049
 30
0.0
 42
0.053465209097
 50
332.354024636261
  0
VERTEX
  8
DIK
 10
29955.36081400373
 20
19839.92994496935
 30
0.0
 42
0.053465209097
  0
VERTEX
  8
DIK
 10
29962.668719832
 20
19840.71362256049
 30
0.0
 42
0.067315372571
  0
VERTEX
  8
DIK
 10
29968.62780397568
 20
19842.87593726906
 30
0.0
 42
0.105184028713
 70
     2
 50
27.645975363739
  0
VERTEX
  8
DIK
 10
29973.79937803012
 20
19847.16260680235
 30
0.0
 42
0.168849830484
 50
27.645975363739
  0
VERTEX
  8
DIK
 10
29975.84214622944
 20
19853.03921423044
 30
0.0
 42
0.168849830484
  0
VERTEX
  8
DIK
 10
29973.79937803012
 20
19858.91582165852
 30
0.0
 42
0.105184028713
  0
VERTEX
  8
DIK
 10
29968.62780397568
 20
19863.20249119182
 30
0.0
 42
0.067315372571
 70
     2
 50
152.354024636261
  0
VERTEX
  8
DIK
 10
29962.668719832
 20
19865.36480590038
 30
0.0
 42
0.053465209097
 50
152.354024636261
  0
VERTEX
  8
DIK
 10
29955.36081400373
 20
19866.14848349151
 30
0.0
 42
0.053465209097
  0
VERTEX
  8
DIK
 10
29948.05290817547
 20
19865.36480590038
 30
0.0
 42
0.067315372571
  0
VERTEX
  8
DIK
 10
29942.09382403179
 20
19863.20249119182
 30
0.0
 42
0.105184028713
 70
     2
 50
207.645975363739
  0
VERTEX
  8
DIK
 10
29936.92224997735
 20
19858.91582165852
 30
0.0
 42
0.168849830484
 50
207.645975363739
  0
SEQEND
  8
DIK
  0
POLYLINE
  8
DIK
 66
     1
 10
0.0
 20
0.0
 30
0.0
 70
     1
  0
VERTEX
  8
DIK
 10
29939.87948177803
 20
19857.46097941134
 30
0.0
 42
0.168849830484
  0
VERTEX
  8
DIK
 10
29940.84418735699
 20
19854.68572768525
 30
0.0
 42
0.105184028713
  0
VERTEX
  8
DIK
 10
29944.41385900514
 20
19851.72686012637
 30
0.0
 42
0.067315372571
 70
     2
 50
332.354024636261
  0
VERTEX
  8
DIK
 10
29949.11308596092
 20
19850.02169750064
 30
0.0
 42
0.053465209097
 50
332.354024636261
  0
VERTEX
  8
DIK
 10
29955.36081400373
 20
19849.35171015027
 30
0.0
 42
0.053465209097
  0
VERTEX
  8
DIK
 10
29961.60854204655
 20
19850.02169750064
 30
0.0
 42
0.067315372571
  0
VERTEX
  8
DIK
 10
29966.30776900233
 20
19851.72686012637
 30
0.0
 42
0.105184028713
 70
     2
 50
27.645975363739
  0
VERTEX
  8
DIK
 10
29969.87744065048
 20
19854.68572768525
 30
0.0
 42
0.168849830484
 50
27.645975363739
  0
VERTEX
  8
DIK
 10
29970.84214622944
 20
19857.46097941134
 30
0.0
 42
0.168849830484
  0
VERTEX
  8
DIK
 10
29969.87744065048
 20
19860.23623113745
 30
0.0
 42
0.105184028713
  0
VERTEX
  8
DIK
 10
29966.30776900233
 20
19863.19509869633
 30
0.0
 42
0.067315372571
 70
     2
 50
152.354024636261
  0
VERTEX
  8
DIK
 10
29961.60854204655
 20
19864.90026132205
 30
0.0
 42
0.053465209097
 50
152.354024636261
  0
VERTEX
  8
DIK
 10
29955.36081400373
 20
19865.57024867243
 30
0.0
 42
0.053465209097
  0
VERTEX
  8
DIK
 10
29949.11308596092
 20
19864.90026132205
 30
0.0
 42
0.067315372571
  0
VERTEX
  8
DIK
 10
29944.41385900514
 20
19863.19509869633
 30
0.0
 42
0.105184028713
 70
     2
 50
207.645975363739
  0
VERTEX
  8
DIK
 10
29940.84418735699
 20
19860.23623113745
 30
0.0
 42
0.168849830484
 50
207.645975363739
  0
SEQEND
  8
DIK
  0
POLYLINE
  8
DIK
 66
     1
 10
0.0
 20
0.0
 30
0.0
 70
     1
  0
VERTEX
  8
DIK
 10
30314.87948177803
 20
19857.46097941134
 30
0.0
 42
0.168849830484
  0
VERTEX
  8
DIK
 10
30315.84418735699
 20
19854.68572768525
 30
0.0
 42
0.105184028713
  0
VERTEX
  8
DIK
 10
30319.41385900514
 20
19851.72686012637
 30
0.0
 42
0.067315372571
 70
     2
 50
332.354024636261
  0
VERTEX
  8
DIK
 10
30324.11308596092
 20
19850.02169750064
 30
0.0
 42
0.053465209097
 50
332.354024636261
  0
VERTEX
  8
DIK
 10
30330.36081400374
 20
19849.35171015027
 30
0.0
 42
0.053465209097
  0
VERTEX
  8
DIK
 10
30336.60854204655
 20
19850.02169750064
 30
0.0
 42
0.067315372571
  0
VERTEX
  8
DIK
 10
30341.30776900233
 20
19851.72686012637
 30
0.0
 42
0.105184028713
 70
     2
 50
27.645975363739
  0
VERTEX
  8
DIK
 10
30344.87744065049
 20
19854.68572768525
 30
0.0
 42
0.168849830484
 50
27.645975363739
  0
VERTEX
  8
DIK
 10
30345.84214622944
 20
19857.46097941134
 30
0.0
 42
0.168849830484
  0
VERTEX
  8
DIK
 10
30344.87744065049
 20
19860.23623113745
 30
0.0
 42
0.105184028713
  0
VERTEX
  8
DIK
 10
30341.30776900233
 20
19863.19509869633
 30
0.0
 42
0.067315372571
 70
     2
 50
152.354024636261
  0
VERTEX
  8
DIK
 10
30336.60854204655
 20
19864.90026132205
 30
0.0
 42
0.053465209097
 50
152.354024636261
  0
VERTEX
  8
DIK
 10
30330.36081400374
 20
19865.57024867243
 30
0.0
 42
0.053465209097
  0
VERTEX
  8
DIK
 10
30324.11308596092
 20
19864.90026132205
 30
0.0
 42
0.067315372571
  0
VERTEX
  8
DIK
 10
30319.41385900514
 20
19863.19509869633
 30
0.0
 42
0.105184028713
 70
     2
 50
207.645975363739
  0
VERTEX
  8
DIK
 10
30315.84418735699
 20
19860.23623113745
 30
0.0
 42
0.168849830484
 50
207.645975363739
  0
SEQEND
  8
DIK
  0
POLYLINE
  8
DIK
 66
     1
 10
0.0
 20
0.0
 30
0.0
 70
     1
  0
VERTEX
  8
DIK
 10
30309.87948177803
 20
19853.03921423044
 30
0.0
 42
0.168849830484
  0
VERTEX
  8
DIK
 10
30311.92224997735
 20
19847.16260680235
 30
0.0
 42
0.105184028713
  0
VERTEX
  8
DIK
 10
30317.09382403179
 20
19842.87593726906
 30
0.0
 42
0.067315372571
 70
     2
 50
332.354024636261
  0
VERTEX
  8
DIK
 10
30323.05290817546
 20
19840.71362256049
 30
0.0
 42
0.053465209097
 50
332.354024636261
  0
VERTEX
  8
DIK
 10
30330.36081400374
 20
19839.92994496935
 30
0.0
 42
0.053465209097
  0
VERTEX
  8
DIK
 10
30337.66871983201
 20
19840.71362256049
 30
0.0
 42
0.067315372571
  0
VERTEX
  8
DIK
 10
30343.62780397569
 20
19842.87593726906
 30
0.0
 42
0.105184028713
 70
     2
 50
27.645975363739
  0
VERTEX
  8
DIK
 10
30348.79937803011
 20
19847.16260680235
 30
0.0
 42
0.168849830484
 50
27.645975363739
  0
VERTEX
  8
DIK
 10
30350.84214622944
 20
19853.03921423044
 30
0.0
 42
0.168849830484
  0
VERTEX
  8
DIK
 10
30348.79937803011
 20
19858.91582165852
 30
0.0
 42
0.105184028713
  0
VERTEX
  8
DIK
 10
30343.62780397569
 20
19863.20249119182
 30
0.0
 42
0.067315372571
 70
     2
 50
152.354024636261
  0
VERTEX
  8
DIK
 10
30337.668719832
 20
19865.36480590038
 30
0.0
 42
0.053465209097
 50
152.354024636261
  0
VERTEX
  8
DIK
 10
30330.36081400374
 20
19866.14848349151
 30
0.0
 42
0.053465209097
  0
VERTEX
  8
DIK
 10
30323.05290817547
 20
19865.36480590038
 30
0.0
 42
0.067315372571
  0
VERTEX
  8
DIK
 10
30317.09382403179
 20
19863.20249119182
 30
0.0
 42
0.105184028713
 70
     2
 50
207.645975363739
  0
VERTEX
  8
DIK
 10
30311.92224997735
 20
19858.91582165852
 30
0.0
 42
0.168849830484
 50
207.645975363739
  0
SEQEND
  8
DIK
  0
POLYLINE
  8
DIK
 66
     1
 10
0.0
 20
0.0
 30
0.0
 70
     1
  0
VERTEX
  8
DIK
 10
29534.87948177803
 20
19799.2577527526
 30
0.0
 42
-0.168849830484
  0
VERTEX
  8
DIK
 10
29536.92224997735
 20
19805.13436018068
 30
0.0
 42
-0.105184028713
  0
VERTEX
  8
DIK
 10
29542.09382403179
 20
19809.42102971398
 30
0.0
 42
-0.067315372571
 70
     2
 50
27.645975363739
  0
VERTEX
  8
DIK
 10
29548.05290817546
 20
19811.58334442254
 30
0.0
 42
-0.053465209097
  0
VERTEX
  8
DIK
 10
29555.36081400373
 20
19812.36702201368
 30
0.0
 42
-0.053465209097
  0
VERTEX
  8
DIK
 10
29562.66871983201
 20
19811.58334442254
 30
0.0
 42
-0.067315372571
  0
VERTEX
  8
DIK
 10
29568.62780397568
 20
19809.42102971398
 30
0.0
 42
-0.105184028713
 70
     2
 50
332.354024636262
  0
VERTEX
  8
DIK
 10
29573.79937803012
 20
19805.13436018068
 30
0.0
 42
-0.168849830484
  0
VERTEX
  8
DIK
 10
29575.84214622944
 20
19799.2577527526
 30
0.0
 42
-0.168849830484
  0
VERTEX
  8
DIK
 10
29573.79937803012
 20
19793.38114532451
 30
0.0
 42
-0.105184028713
  0
VERTEX
  8
DIK
 10
29568.62780397568
 20
19789.09447579122
 30
0.0
 42
-0.067315372571
 70
     2
 50
207.645975363739
  0
VERTEX
  8
DIK
 10
29562.66871983201
 20
19786.93216108265
 30
0.0
 42
-0.053465209097
  0
VERTEX
  8
DIK
 10
29555.36081400373
 20
19786.14848349151
 30
0.0
 42
-0.053465209097
  0
VERTEX
  8
DIK
 10
29548.05290817547
 20
19786.93216108265
 30
0.0
 42
-0.067315372571
  0
VERTEX
  8
DIK
 10
29542.09382403179
 20
19789.09447579122
 30
0.0
 42
-0.105184028713
 70
     2
 50
152.354024636262
  0
VERTEX
  8
DIK
 10
29536.92224997735
 20
19793.38114532451
 30
0.0
 42
-0.168849830484
  0
SEQEND
  8
DIK
  0
POLYLINE
  8
DIK
 66
     1
 10
0.0
 20
0.0
 30
0.0
 70
     1
  0
VERTEX
  8
DIK
 10
29539.87948177804
 20
19794.83598757168
 30
0.0
 42
-0.168849830484
  0
VERTEX
  8
DIK
 10
29540.84418735698
 20
19797.61123929779
 30
0.0
 42
-0.105184028713
  0
VERTEX
  8
DIK
 10
29544.41385900514
 20
19800.57010685666
 30
0.0
 42
-0.067315372571
 70
     2
 50
27.645975363739
  0
VERTEX
  8
DIK
 10
29549.11308596092
 20
19802.27526948239
 30
0.0
 42
-0.053465209097
  0
VERTEX
  8
DIK
 10
29555.36081400373
 20
19802.94525683276
 30
0.0
 42
-0.053465209097
  0
VERTEX
  8
DIK
 10
29561.60854204655
 20
19802.27526948239
 30
0.0
 42
-0.067315372571
  0
VERTEX
  8
DIK
 10
29566.30776900233
 20
19800.57010685666
 30
0.0
 42
-0.105184028713
 70
     2
 50
332.354024636262
  0
VERTEX
  8
DIK
 10
29569.87744065049
 20
19797.61123929779
 30
0.0
 42
-0.168849830484
  0
VERTEX
  8
DIK
 10
29570.84214622943
 20
19794.83598757168
 30
0.0
 42
-0.168849830484
  0
VERTEX
  8
DIK
 10
29569.87744065049
 20
19792.06073584558
 30
0.0
 42
-0.105184028713
  0
VERTEX
  8
DIK
 10
29566.30776900233
 20
19789.1018682867
 30
0.0
 42
-0.067315372571
 70
     2
 50
207.645975363739
  0
VERTEX
  8
DIK
 10
29561.60854204655
 20
19787.39670566097
 30
0.0
 42
-0.053465209097
  0
VERTEX
  8
DIK
 10
29555.36081400373
 20
19786.7267183106
 30
0.0
 42
-0.053465209097
  0
VERTEX
  8
DIK
 10
29549.11308596092
 20
19787.39670566097
 30
0.0
 42
-0.067315372571
  0
VERTEX
  8
DIK
 10
29544.41385900514
 20
19789.1018682867
 30
0.0
 42
-0.105184028713
 70
     2
 50
152.354024636262
  0
VERTEX
  8
DIK
 10
29540.84418735698
 20
19792.06073584558
 30
0.0
 42
-0.168849830484
  0
SEQEND
  8
DIK
  0
POLYLINE
  8
DIK
 66
     1
 10
0.0
 20
0.0
 30
0.0
 70
     1
  0
VERTEX
  8
DIK
 10
29939.87948177803
 20
19794.83598757169
 30
0.0
 42
-0.168849830484
  0
VERTEX
  8
DIK
 10
29940.84418735699
 20
19797.61123929779
 30
0.0
 42
-0.105184028713
  0
VERTEX
  8
DIK
 10
29944.41385900514
 20
19800.57010685666
 30
0.0
 42
-0.067315372571
 70
     2
 50
27.645975363739
  0
VERTEX
  8
DIK
 10
29949.11308596092
 20
19802.27526948239
 30
0.0
 42
-0.053465209097
  0
VERTEX
  8
DIK
 10
29955.36081400373
 20
19802.94525683276
 30
0.0
 42
-0.053465209097
  0
VERTEX
  8
DIK
 10
29961.60854204655
 20
19802.27526948239
 30
0.0
 42
-0.067315372571
  0
VERTEX
  8
DIK
 10
29966.30776900233
 20
19800.57010685666
 30
0.0
 42
-0.105184028713
 70
     2
 50
332.354024636262
  0
VERTEX
  8
DIK
 10
29969.87744065048
 20
19797.61123929779
 30
0.0
 42
-0.168849830484
  0
VERTEX
  8
DIK
 10
29970.84214622944
 20
19794.83598757169
 30
0.0
 42
-0.168849830484
  0
VERTEX
  8
DIK
 10
29969.87744065048
 20
19792.06073584558
 30
0.0
 42
-0.105184028713
  0
VERTEX
  8
DIK
 10
29966.30776900233
 20
19789.10186828671
 30
0.0
 42
-0.067315372571
 70
     2
 50
207.645975363739
  0
VERTEX
  8
DIK
 10
29961.60854204655
 20
19787.39670566097
 30
0.0
 42
-0.053465209097
  0
VERTEX
  8
DIK
 10
29955.36081400373
 20
19786.72671831061
 30
0.0
 42
-0.053465209097
  0
VERTEX
  8
DIK
 10
29949.11308596092
 20
19787.39670566097
 30
0.0
 42
-0.067315372571
  0
VERTEX
  8
DIK
 10
29944.41385900514
 20
19789.10186828671
 30
0.0
 42
-0.105184028713
 70
     2
 50
152.354024636262
  0
VERTEX
  8
DIK
 10
29940.84418735699
 20
19792.06073584558
 30
0.0
 42
-0.168849830484
  0
SEQEND
  8
DIK
  0
POLYLINE
  8
DIK
 66
     1
 10
0.0
 20
0.0
 30
0.0
 70
     1
  0
VERTEX
  8
DIK
 10
29934.87948177803
 20
19799.2577527526
 30
0.0
 42
-0.168849830484
  0
VERTEX
  8
DIK
 10
29936.92224997735
 20
19805.13436018068
 30
0.0
 42
-0.105184028713
  0
VERTEX
  8
DIK
 10
29942.09382403179
 20
19809.42102971398
 30
0.0
 42
-0.067315372571
 70
     2
 50
27.645975363739
  0
VERTEX
  8
DIK
 10
29948.05290817546
 20
19811.58334442255
 30
0.0
 42
-0.053465209097
  0
VERTEX
  8
DIK
 10
29955.36081400373
 20
19812.36702201368
 30
0.0
 42
-0.053465209097
  0
VERTEX
  8
DIK
 10
29962.668719832
 20
19811.58334442255
 30
0.0
 42
-0.067315372571
  0
VERTEX
  8
DIK
 10
29968.62780397568
 20
19809.42102971398
 30
0.0
 42
-0.105184028713
 70
     2
 50
332.354024636262
  0
VERTEX
  8
DIK
 10
29973.79937803012
 20
19805.13436018068
 30
0.0
 42
-0.168849830484
  0
VERTEX
  8
DIK
 10
29975.84214622944
 20
19799.2577527526
 30
0.0
 42
-0.168849830484
  0
VERTEX
  8
DIK
 10
29973.79937803012
 20
19793.38114532451
 30
0.0
 42
-0.105184028713
  0
VERTEX
  8
DIK
 10
29968.62780397568
 20
19789.09447579122
 30
0.0
 42
-0.067315372571
 70
     2
 50
207.645975363739
  0
VERTEX
  8
DIK
 10
29962.668719832
 20
19786.93216108265
 30
0.0
 42
-0.053465209097
  0
VERTEX
  8
DIK
 10
29955.36081400373
 20
19786.14848349152
 30
0.0
 42
-0.053465209097
  0
VERTEX
  8
DIK
 10
29948.05290817547
 20
19786.93216108265
 30
0.0
 42
-0.067315372571
  0
VERTEX
  8
DIK
 10
29942.09382403179
 20
19789.09447579122
 30
0.0
 42
-0.105184028713
 70
     2
 50
152.354024636262
  0
VERTEX
  8
DIK
 10
29936.92224997735
 20
19793.38114532451
 30
0.0
 42
-0.168849830484
  0
SEQEND
  8
DIK
  0
POLYLINE
  8
DIK
 66
     1
 10
0.0
 20
0.0
 30
0.0
 70
     1
  0
VERTEX
  8
DIK
 10
29195.84214622944
 20
19794.83598757169
 30
0.0
 42
0.168849830484
  0
VERTEX
  8
DIK
 10
29194.87744065048
 20
19797.61123929779
 30
0.0
 42
0.105184028713
  0
VERTEX
  8
DIK
 10
29191.30776900233
 20
19800.57010685667
 30
0.0
 42
0.067315372571
 70
     2
 50
152.354024636261
  0
VERTEX
  8
DIK
 10
29186.60854204655
 20
19802.27526948239
 30
0.0
 42
0.053465209097
  0
VERTEX
  8
DIK
 10
29180.36081400373
 20
19802.94525683276
 30
0.0
 42
0.053465209097
  0
VERTEX
  8
DIK
 10
29174.11308596092
 20
19802.27526948239
 30
0.0
 42
0.067315372571
  0
VERTEX
  8
DIK
 10
29169.41385900514
 20
19800.57010685667
 30
0.0
 42
0.105184028713
 70
     2
 50
207.645975363739
  0
VERTEX
  8
DIK
 10
29165.84418735699
 20
19797.61123929779
 30
0.0
 42
0.168849830484
  0
VERTEX
  8
DIK
 10
29164.87948177803
 20
19794.83598757169
 30
0.0
 42
0.168849830484
  0
VERTEX
  8
DIK
 10
29165.84418735699
 20
19792.06073584558
 30
0.0
 42
0.105184028713
  0
VERTEX
  8
DIK
 10
29169.41385900514
 20
19789.10186828671
 30
0.0
 42
0.067315372571
 70
     2
 50
332.354024636261
  0
VERTEX
  8
DIK
 10
29174.11308596092
 20
19787.39670566098
 30
0.0
 42
0.053465209097
  0
VERTEX
  8
DIK
 10
29180.36081400373
 20
19786.72671831061
 30
0.0
 42
0.053465209097
  0
VERTEX
  8
DIK
 10
29186.60854204655
 20
19787.39670566098
 30
0.0
 42
0.067315372571
  0
VERTEX
  8
DIK
 10
29191.30776900233
 20
19789.10186828671
 30
0.0
 42
0.105184028713
 70
     2
 50
27.645975363739
  0
VERTEX
  8
DIK
 10
29194.87744065048
 20
19792.06073584558
 30
0.0
 42
0.168849830484
  0
SEQEND
  8
DIK
  0
POLYLINE
  8
DIK
 66
     1
 10
0.0
 20
0.0
 30
0.0
 70
     1
  0
VERTEX
  8
DIK
 10
29200.84214622944
 20
19799.2577527526
 30
0.0
 42
0.168849830484
  0
VERTEX
  8
DIK
 10
29198.79937803012
 20
19805.13436018068
 30
0.0
 42
0.105184028713
  0
VERTEX
  8
DIK
 10
29193.62780397568
 20
19809.42102971398
 30
0.0
 42
0.067315372571
 70
     2
 50
152.354024636261
  0
VERTEX
  8
DIK
 10
29187.66871983201
 20
19811.58334442255
 30
0.0
 42
0.053465209097
  0
VERTEX
  8
DIK
 10
29180.36081400373
 20
19812.36702201368
 30
0.0
 42
0.053465209097
  0
VERTEX
  8
DIK
 10
29173.05290817546
 20
19811.58334442255
 30
0.0
 42
0.067315372571
  0
VERTEX
  8
DIK
 10
29167.09382403178
 20
19809.42102971398
 30
0.0
 42
0.105184028713
 70
     2
 50
207.645975363739
  0
VERTEX
  8
DIK
 10
29161.92224997735
 20
19805.13436018068
 30
0.0
 42
0.168849830484
  0
VERTEX
  8
DIK
 10
29159.87948177803
 20
19799.2577527526
 30
0.0
 42
0.168849830484
  0
VERTEX
  8
DIK
 10
29161.92224997735
 20
19793.38114532451
 30
0.0
 42
0.105184028713
  0
VERTEX
  8
DIK
 10
29167.09382403178
 20
19789.09447579122
 30
0.0
 42
0.067315372571
 70
     2
 50
332.354024636261
  0
VERTEX
  8
DIK
 10
29173.05290817547
 20
19786.93216108265
 30
0.0
 42
0.053465209097
  0
VERTEX
  8
DIK
 10
29180.36081400373
 20
19786.14848349152
 30
0.0
 42
0.053465209097
  0
VERTEX
  8
DIK
 10
29187.668719832
 20
19786.93216108265
 30
0.0
 42
0.067315372571
  0
VERTEX
  8
DIK
 10
29193.62780397568
 20
19789.09447579122
 30
0.0
 42
0.105184028713
 70
     2
 50
27.645975363739
  0
VERTEX
  8
DIK
 10
29198.79937803012
 20
19793.38114532451
 30
0.0
 42
0.168849830484
  0
SEQEND
  8
DIK
  0
DIMENSION
  8
DUN
  2
*D18
 10
27655.36081400373
 20
19821.62620496752
 30
0.0
 11
28405.36081400374
 21
19901.62620496752
 31
0.0
 12
-353.753105075342
 22
9656.729748987629
 32
0.0
 13
29155.36081400373
 23
19778.83490085272
 33
0.0
 14
27655.36081400373
 24
19857.83423448982
 34
0.0
  3
STANDAARD
  0
ARC
  8
DIK
 10
29355.36081400373
 20
20246.14848349152
 30
0.0
 40
1700.0
 50
90.0
 51
180.0
  0
LINE
  8
DIK
 10
29305.36081400374
 20
21946.14848349152
 30
0.0
 11
30205.36081400373
 21
21946.14848349152
 31
0.0
  0
ARC
  8
DIK
 10
30155.36081400373
 20
20246.14848349152
 30
0.0
 40
1700.0
 50
0.0
 51
90.0
  0
LINE
  8
DIK
 10
31855.36081400373
 20
20276.14848349152
 30
0.0
 11
31855.36081400373
 21
19376.14848349152
 31
0.0
  0
ARC
  8
DIK
 10
30155.36081400373
 20
19376.14848349152
 30
0.0
 40
1700.0
 50
300.389942449328
 51
0.0
  0
ARC
  8
DIK
 10
29355.36081400373
 20
19376.14848349151
 30
0.0
 40
1700.0
 50
180.0
 51
239.610057550673
  0
LINE
  8
DIK
 10
27655.36081400373
 20
20276.14848349152
 30
0.0
 11
27655.36081400373
 21
19376.14848349151
 31
0.0
  0
LINE
  8
DIK
 10
30015.36081400374
 20
17090.64848349152
 30
0.0
 11
29965.36081400374
 21
17090.64848349152
 31
0.0
  0
LINE
  8
DIK
 10
29965.36081400374
 20
19206.14848349151
 30
0.0
 11
29965.36081400374
 21
17090.64848349152
 31
0.0
  0
LINE
  8
DIK
 10
29545.36081400373
 20
19206.14848349151
 30
0.0
 11
29545.36081400373
 21
17090.64848349152
 31
0.0
  0
LINE
  8
DIK
 10
30015.36081400374
 20
19206.14848349151
 30
0.0
 11
30015.36081400374
 21
17090.64848349152
 31
0.0
  0
LINE
  8
DIK
 10
29495.36081400374
 20
19206.14848349151
 30
0.0
 11
29495.36081400374
 21
17090.64848349152
 31
0.0
  0
LINE
  8
DIK
 10
29965.36081400374
 20
17140.64848349152
 30
0.0
 11
29545.36081400373
 21
17140.64848349152
 31
0.0
  0
LINE
  8
DIK
 10
29545.36081400373
 20
17090.64848349152
 30
0.0
 11
29495.36081400374
 21
17090.64848349152
 31
0.0
  0
LINE
  8
DIK
 10
31015.36081400374
 20
17909.72426110566
 30
0.0
 11
31015.36081400374
 21
16139.84328931079
 31
0.0
  0
LINE
  8
DIK
 10
28495.36081400374
 20
17909.72426110563
 30
0.0
 11
28495.36081400374
 21
16139.84328931079
 31
0.0
  0
LINE
  8
DIK
 10
30015.36081400373
 20
15139.84328931079
 30
0.0
 11
29495.36081400373
 21
15139.84328931079
 31
0.0
  0
ARC
  8
DIK
 10
29495.36081400374
 20
16139.84328931079
 30
0.0
 40
1000.0
 50
180.0
 51
270.0
  0
ARC
  8
DIK
 10
30015.36081400374
 20
16139.84328931079
 30
0.0
 40
1000.0
 50
270.0
 51
0.0
  0
DIMENSION
  8
DUN
  2
*D17
 10
28495.36081400374
 20
17492.42851560887
 30
0.0
 11
28995.36081400373
 21
17572.42851560887
 31
0.0
 12
-353.753105075342
 22
10193.36411950456
 32
0.0
 13
29495.36081400374
 23
17701.71845459896
 33
0.0
 14
28495.36081400374
 24
17690.70319610124
 34
0.0
  3
STANDAARD
  0
LINE
  8
DIK
 10
29962.5889383433
 20
15140.64848349152
 30
0.0
 11
29542.5889383433
 21
15140.64848349152
 31
0.0
  0
LINE
  8
DIK
 10
29962.5889383433
 20
15140.64848349152
 30
0.0
 11
29542.5889383433
 21
15140.64848349152
 31
0.0
  0
LINE
  8
DIK
 10
29965.36081400373
 20
15140.64848349152
 30
0.0
 11
29545.36081400373
 21
15140.64848349152
 31
0.0
  0
DIMENSION
  8
DUN
  2
*D16
 10
29764.18252595228
 20
15140.64848349152
 30
0.0
 11
29684.18252595228
 21
16140.64848349152
 31
0.0
 12
-353.753105075342
 22
9656.729748987629
 32
0.0
 13
29758.48218702124
 23
17140.64848349152
 33
0.0
 14
29784.13380737471
 24
15140.64848349152
 34
0.0
 50
90.0
  3
STANDAARD
  0
LINE
  8
DIK
 10
29545.36081400373
 20
-3319.827156826376
 30
0.0
 11
29495.36081400374
 21
-3319.827156826376
 31
0.0
  0
LINE
  8
DIK
 10
29965.36081400374
 20
-3269.827156826377
 30
0.0
 11
29545.36081400373
 21
-3269.827156826377
 31
0.0
  0
LINE
  8
DIK
 10
29495.36081400374
 20
-1204.32715682638
 30
0.0
 11
29495.36081400374
 21
-3319.827156826376
 31
0.0
  0
LINE
  8
DIK
 10
30015.36081400374
 20
-1204.32715682638
 30
0.0
 11
30015.36081400374
 21
-3319.827156826376
 31
0.0
  0
LINE
  8
DIK
 10
29545.36081400373
 20
-1204.32715682638
 30
0.0
 11
29545.36081400373
 21
-3319.827156826376
 31
0.0
  0
LINE
  8
DIK
 10
29965.36081400374
 20
-1204.32715682638
 30
0.0
 11
29965.36081400374
 21
-3319.827156826376
 31
0.0
  0
LINE
  8
DIK
 10
30015.36081400374
 20
-3319.827156826376
 30
0.0
 11
29965.36081400374
 21
-3319.827156826376
 31
0.0
  0
POLYLINE
  8
DIK
 66
     1
 10
0.0
 20
0.0
 30
0.0
 70
     1
  0
VERTEX
  8
DIK
 10
29200.84214622944
 20
-611.217887565296
 30
0.0
 42
0.168849830484
  0
VERTEX
  8
DIK
 10
29198.79937803012
 20
-605.34128013721
 30
0.0
 42
0.105184028713
  0
VERTEX
  8
DIK
 10
29193.62780397568
 20
-601.054610603917
 30
0.0
 42
0.067315372571
 70
     2
 50
152.354024636261
  0
VERTEX
  8
DIK
 10
29187.66871983201
 20
-598.892295895347
 30
0.0
 42
0.053465209097
  0
VERTEX
  8
DIK
 10
29180.36081400373
 20
-598.108618304213
 30
0.0
 42
0.053465209097
  0
VERTEX
  8
DIK
 10
29173.05290817546
 20
-598.892295895347
 30
0.0
 42
0.067315372571
  0
VERTEX
  8
DIK
 10
29167.09382403178
 20
-601.054610603917
 30
0.0
 42
0.105184028713
 70
     2
 50
207.645975363739
  0
VERTEX
  8
DIK
 10
29161.92224997735
 20
-605.34128013721
 30
0.0
 42
0.168849830484
  0
VERTEX
  8
DIK
 10
29159.87948177803
 20
-611.217887565296
 30
0.0
 42
0.168849830484
  0
VERTEX
  8
DIK
 10
29161.92224997735
 20
-617.094494993383
 30
0.0
 42
0.105184028713
  0
VERTEX
  8
DIK
 10
29167.09382403178
 20
-621.381164526675
 30
0.0
 42
0.067315372571
 70
     2
 50
332.354024636261
  0
VERTEX
  8
DIK
 10
29173.05290817547
 20
-623.543479235242
 30
0.0
 42
0.053465209097
  0
VERTEX
  8
DIK
 10
29180.36081400373
 20
-624.327156826376
 30
0.0
 42
0.053465209097
  0
VERTEX
  8
DIK
 10
29187.668719832
 20
-623.543479235242
 30
0.0
 42
0.067315372571
  0
VERTEX
  8
DIK
 10
29193.62780397568
 20
-621.381164526675
 30
0.0
 42
0.105184028713
 70
     2
 50
27.645975363739
  0
VERTEX
  8
DIK
 10
29198.79937803012
 20
-617.094494993383
 30
0.0
 42
0.168849830484
  0
SEQEND
  8
DIK
  0
POLYLINE
  8
DIK
 66
     1
 10
0.0
 20
0.0
 30
0.0
 70
     1
  0
VERTEX
  8
DIK
 10
29195.84214622944
 20
-615.639652746209
 30
0.0
 42
0.168849830484
  0
VERTEX
  8
DIK
 10
29194.87744065048
 20
-612.864401020109
 30
0.0
 42
0.105184028713
  0
VERTEX
  8
DIK
 10
29191.30776900233
 20
-609.905533461227
 30
0.0
 42
0.067315372571
 70
     2
 50
152.354024636261
  0
VERTEX
  8
DIK
 10
29186.60854204655
 20
-608.2003708355
 30
0.0
 42
0.053465209097
  0
VERTEX
  8
DIK
 10
29180.36081400373
 20
-607.530383485129
 30
0.0
 42
0.053465209097
  0
VERTEX
  8
DIK
 10
29174.11308596092
 20
-608.2003708355
 30
0.0
 42
0.067315372571
  0
VERTEX
  8
DIK
 10
29169.41385900514
 20
-609.905533461227
 30
0.0
 42
0.105184028713
 70
     2
 50
207.645975363739
  0
VERTEX
  8
DIK
 10
29165.84418735699
 20
-612.864401020109
 30
0.0
 42
0.168849830484
  0
VERTEX
  8
DIK
 10
29164.87948177803
 20
-615.639652746209
 30
0.0
 42
0.168849830484
  0
VERTEX
  8
DIK
 10
29165.84418735699
 20
-618.414904472308
 30
0.0
 42
0.105184028713
  0
VERTEX
  8
DIK
 10
29169.41385900514
 20
-621.373772031187
 30
0.0
 42
0.067315372571
 70
     2
 50
332.354024636261
  0
VERTEX
  8
DIK
 10
29174.11308596092
 20
-623.078934656914
 30
0.0
 42
0.053465209097
  0
VERTEX
  8
DIK
 10
29180.36081400373
 20
-623.748922007289
 30
0.0
 42
0.053465209097
  0
VERTEX
  8
DIK
 10
29186.60854204655
 20
-623.078934656914
 30
0.0
 42
0.067315372571
  0
VERTEX
  8
DIK
 10
29191.30776900233
 20
-621.373772031187
 30
0.0
 42
0.105184028713
 70
     2
 50
27.645975363739
  0
VERTEX
  8
DIK
 10
29194.87744065048
 20
-618.414904472308
 30
0.0
 42
0.168849830484
  0
SEQEND
  8
DIK
  0
POLYLINE
  8
DIK
 66
     1
 10
0.0
 20
0.0
 30
0.0
 70
     1
  0
VERTEX
  8
DIK
 10
29934.87948177803
 20
-611.217887565296
 30
0.0
 42
-0.168849830484
  0
VERTEX
  8
DIK
 10
29936.92224997735
 20
-605.34128013721
 30
0.0
 42
-0.105184028713
  0
VERTEX
  8
DIK
 10
29942.09382403179
 20
-601.054610603917
 30
0.0
 42
-0.067315372571
 70
     2
 50
27.645975363739
  0
VERTEX
  8
DIK
 10
29948.05290817546
 20
-598.892295895347
 30
0.0
 42
-0.053465209097
  0
VERTEX
  8
DIK
 10
29955.36081400373
 20
-598.108618304213
 30
0.0
 42
-0.053465209097
  0
VERTEX
  8
DIK
 10
29962.668719832
 20
-598.892295895347
 30
0.0
 42
-0.067315372571
  0
VERTEX
  8
DIK
 10
29968.62780397568
 20
-601.054610603917
 30
0.0
 42
-0.105184028713
 70
     2
 50
332.354024636262
  0
VERTEX
  8
DIK
 10
29973.79937803012
 20
-605.34128013721
 30
0.0
 42
-0.168849830484
  0
VERTEX
  8
DIK
 10
29975.84214622944
 20
-611.217887565296
 30
0.0
 42
-0.168849830484
  0
VERTEX
  8
DIK
 10
29973.79937803012
 20
-617.094494993383
 30
0.0
 42
-0.105184028713
  0
VERTEX
  8
DIK
 10
29968.62780397568
 20
-621.381164526675
 30
0.0
 42
-0.067315372571
 70
     2
 50
207.645975363739
  0
VERTEX
  8
DIK
 10
29962.668719832
 20
-623.543479235245
 30
0.0
 42
-0.053465209097
  0
VERTEX
  8
DIK
 10
29955.36081400373
 20
-624.327156826376
 30
0.0
 42
-0.053465209097
  0
VERTEX
  8
DIK
 10
29948.05290817547
 20
-623.543479235245
 30
0.0
 42
-0.067315372571
  0
VERTEX
  8
DIK
 10
29942.09382403179
 20
-621.381164526675
 30
0.0
 42
-0.105184028713
 70
     2
 50
152.354024636262
  0
VERTEX
  8
DIK
 10
29936.92224997735
 20
-617.094494993383
 30
0.0
 42
-0.168849830484
  0
SEQEND
  8
DIK
  0
POLYLINE
  8
DIK
 66
     1
 10
0.0
 20
0.0
 30
0.0
 70
     1
  0
VERTEX
  8
DIK
 10
29939.87948177803
 20
-615.639652746209
 30
0.0
 42
-0.168849830484
  0
VERTEX
  8
DIK
 10
29940.84418735699
 20
-612.864401020109
 30
0.0
 42
-0.105184028713
  0
VERTEX
  8
DIK
 10
29944.41385900514
 20
-609.90553346123
 30
0.0
 42
-0.067315372571
 70
     2
 50
27.645975363739
  0
VERTEX
  8
DIK
 10
29949.11308596092
 20
-608.200370835503
 30
0.0
 42
-0.053465209097
  0
VERTEX
  8
DIK
 10
29955.36081400373
 20
-607.530383485129
 30
0.0
 42
-0.053465209097
  0
VERTEX
  8
DIK
 10
29961.60854204655
 20
-608.2003708355
 30
0.0
 42
-0.067315372571
  0
VERTEX
  8
DIK
 10
29966.30776900233
 20
-609.90553346123
 30
0.0
 42
-0.105184028713
 70
     2
 50
332.354024636262
  0
VERTEX
  8
DIK
 10
29969.87744065048
 20
-612.864401020109
 30
0.0
 42
-0.168849830484
  0
VERTEX
  8
DIK
 10
29970.84214622944
 20
-615.639652746209
 30
0.0
 42
-0.168849830484
  0
VERTEX
  8
DIK
 10
29969.87744065048
 20
-618.414904472308
 30
0.0
 42
-0.105184028713
  0
VERTEX
  8
DIK
 10
29966.30776900233
 20
-621.373772031187
 30
0.0
 42
-0.067315372571
 70
     2
 50
207.645975363739
  0
VERTEX
  8
DIK
 10
29961.60854204655
 20
-623.078934656917
 30
0.0
 42
-0.053465209097
  0
VERTEX
  8
DIK
 10
29955.36081400373
 20
-623.748922007289
 30
0.0
 42
-0.053465209097
  0
VERTEX
  8
DIK
 10
29949.11308596092
 20
-623.078934656917
 30
0.0
 42
-0.067315372571
  0
VERTEX
  8
DIK
 10
29944.41385900514
 20
-621.373772031187
 30
0.0
 42
-0.105184028713
 70
     2
 50
152.354024636262
  0
VERTEX
  8
DIK
 10
29940.84418735699
 20
-618.414904472308
 30
0.0
 42
-0.168849830484
  0
SEQEND
  8
DIK
  0
POLYLINE
  8
DIK
 66
     1
 10
0.0
 20
0.0
 30
0.0
 70
     1
  0
VERTEX
  8
DIK
 10
29539.87948177804
 20
-615.639652746212
 30
0.0
 42
-0.168849830484
  0
VERTEX
  8
DIK
 10
29540.84418735698
 20
-612.864401020109
 30
0.0
 42
-0.105184028713
  0
VERTEX
  8
DIK
 10
29544.41385900514
 20
-609.905533461234
 30
0.0
 42
-0.067315372571
 70
     2
 50
27.645975363739
  0
VERTEX
  8
DIK
 10
29549.11308596092
 20
-608.200370835503
 30
0.0
 42
-0.053465209097
  0
VERTEX
  8
DIK
 10
29555.36081400373
 20
-607.530383485129
 30
0.0
 42
-0.053465209097
  0
VERTEX
  8
DIK
 10
29561.60854204655
 20
-608.200370835503
 30
0.0
 42
-0.067315372571
  0
VERTEX
  8
DIK
 10
29566.30776900233
 20
-609.905533461234
 30
0.0
 42
-0.105184028713
 70
     2
 50
332.354024636262
  0
VERTEX
  8
DIK
 10
29569.87744065049
 20
-612.864401020109
 30
0.0
 42
-0.168849830484
  0
VERTEX
  8
DIK
 10
29570.84214622943
 20
-615.639652746212
 30
0.0
 42
-0.168849830484
  0
VERTEX
  8
DIK
 10
29569.87744065049
 20
-618.414904472308
 30
0.0
 42
-0.105184028713
  0
VERTEX
  8
DIK
 10
29566.30776900233
 20
-621.37377203119
 30
0.0
 42
-0.067315372571
 70
     2
 50
207.645975363739
  0
VERTEX
  8
DIK
 10
29561.60854204655
 20
-623.078934656921
 30
0.0
 42
-0.053465209097
  0
VERTEX
  8
DIK
 10
29555.36081400373
 20
-623.748922007292
 30
0.0
 42
-0.053465209097
  0
VERTEX
  8
DIK
 10
29549.11308596092
 20
-623.078934656921
 30
0.0
 42
-0.067315372571
  0
VERTEX
  8
DIK
 10
29544.41385900514
 20
-621.37377203119
 30
0.0
 42
-0.105184028713
 70
     2
 50
152.354024636262
  0
VERTEX
  8
DIK
 10
29540.84418735698
 20
-618.414904472308
 30
0.0
 42
-0.168849830484
  0
SEQEND
  8
DIK
  0
POLYLINE
  8
DIK
 66
     1
 10
0.0
 20
0.0
 30
0.0
 70
     1
  0
VERTEX
  8
DIK
 10
29534.87948177803
 20
-611.217887565296
 30
0.0
 42
-0.168849830484
  0
VERTEX
  8
DIK
 10
29536.92224997735
 20
-605.341280137213
 30
0.0
 42
-0.105184028713
  0
VERTEX
  8
DIK
 10
29542.09382403179
 20
-601.054610603917
 30
0.0
 42
-0.067315372571
 70
     2
 50
27.645975363739
  0
VERTEX
  8
DIK
 10
29548.05290817546
 20
-598.892295895351
 30
0.0
 42
-0.053465209097
  0
VERTEX
  8
DIK
 10
29555.36081400373
 20
-598.108618304216
 30
0.0
 42
-0.053465209097
  0
VERTEX
  8
DIK
 10
29562.66871983201
 20
-598.892295895351
 30
0.0
 42
-0.067315372571
  0
VERTEX
  8
DIK
 10
29568.62780397568
 20
-601.054610603917
 30
0.0
 42
-0.105184028713
 70
     2
 50
332.354024636262
  0
VERTEX
  8
DIK
 10
29573.79937803012
 20
-605.34128013721
 30
0.0
 42
-0.168849830484
  0
VERTEX
  8
DIK
 10
29575.84214622944
 20
-611.217887565296
 30
0.0
 42
-0.168849830484
  0
VERTEX
  8
DIK
 10
29573.79937803012
 20
-617.094494993383
 30
0.0
 42
-0.105184028713
  0
VERTEX
  8
DIK
 10
29568.62780397568
 20
-621.381164526675
 30
0.0
 42
-0.067315372571
 70
     2
 50
207.645975363739
  0
VERTEX
  8
DIK
 10
29562.66871983201
 20
-623.543479235245
 30
0.0
 42
-0.053465209097
  0
VERTEX
  8
DIK
 10
29555.36081400373
 20
-624.32715682638
 30
0.0
 42
-0.053465209097
  0
VERTEX
  8
DIK
 10
29548.05290817547
 20
-623.543479235245
 30
0.0
 42
-0.067315372571
  0
VERTEX
  8
DIK
 10
29542.09382403179
 20
-621.381164526675
 30
0.0
 42
-0.105184028713
 70
     2
 50
152.354024636262
  0
VERTEX
  8
DIK
 10
29536.92224997735
 20
-617.094494993383
 30
0.0
 42
-0.168849830484
  0
SEQEND
  8
DIK
  0
POLYLINE
  8
DIK
 66
     1
 10
0.0
 20
0.0
 30
0.0
 70
     1
  0
VERTEX
  8
DIK
 10
30309.87948177803
 20
-557.436426087456
 30
0.0
 42
0.168849830484
  0
VERTEX
  8
DIK
 10
30311.92224997735
 20
-563.313033515543
 30
0.0
 42
0.105184028713
  0
VERTEX
  8
DIK
 10
30317.09382403179
 20
-567.599703048835
 30
0.0
 42
0.067315372571
 70
     2
 50
332.354024636261
  0
VERTEX
  8
DIK
 10
30323.05290817546
 20
-569.762017757406
 30
0.0
 42
0.053465209097
 50
332.354024636261
  0
VERTEX
  8
DIK
 10
30330.36081400374
 20
-570.54569534854
 30
0.0
 42
0.053465209097
  0
VERTEX
  8
DIK
 10
30337.66871983201
 20
-569.762017757406
 30
0.0
 42
0.067315372571
  0
VERTEX
  8
DIK
 10
30343.62780397569
 20
-567.599703048835
 30
0.0
 42
0.105184028713
 70
     2
 50
27.645975363739
  0
VERTEX
  8
DIK
 10
30348.79937803011
 20
-563.313033515543
 30
0.0
 42
0.168849830484
 50
27.645975363739
  0
VERTEX
  8
DIK
 10
30350.84214622944
 20
-557.436426087456
 30
0.0
 42
0.168849830484
  0
VERTEX
  8
DIK
 10
30348.79937803011
 20
-551.55981865937
 30
0.0
 42
0.105184028713
  0
VERTEX
  8
DIK
 10
30343.62780397569
 20
-547.273149126078
 30
0.0
 42
0.067315372571
 70
     2
 50
152.354024636261
  0
VERTEX
  8
DIK
 10
30337.668719832
 20
-545.110834417511
 30
0.0
 42
0.053465209097
 50
152.354024636261
  0
VERTEX
  8
DIK
 10
30330.36081400374
 20
-544.32715682638
 30
0.0
 42
0.053465209097
  0
VERTEX
  8
DIK
 10
30323.05290817547
 20
-545.110834417511
 30
0.0
 42
0.067315372571
  0
VERTEX
  8
DIK
 10
30317.09382403179
 20
-547.273149126078
 30
0.0
 42
0.105184028713
 70
     2
 50
207.645975363739
  0
VERTEX
  8
DIK
 10
30311.92224997735
 20
-551.55981865937
 30
0.0
 42
0.168849830484
 50
207.645975363739
  0
SEQEND
  8
DIK
  0
POLYLINE
  8
DIK
 66
     1
 10
0.0
 20
0.0
 30
0.0
 70
     1
  0
VERTEX
  8
DIK
 10
30314.87948177803
 20
-553.014660906548
 30
0.0
 42
0.168849830484
  0
VERTEX
  8
DIK
 10
30315.84418735699
 20
-555.789912632644
 30
0.0
 42
0.105184028713
  0
VERTEX
  8
DIK
 10
30319.41385900514
 20
-558.748780191526
 30
0.0
 42
0.067315372571
 70
     2
 50
332.354024636261
  0
VERTEX
  8
DIK
 10
30324.11308596092
 20
-560.453942817253
 30
0.0
 42
0.053465209097
 50
332.354024636261
  0
VERTEX
  8
DIK
 10
30330.36081400374
 20
-561.123930167624
 30
0.0
 42
0.053465209097
  0
VERTEX
  8
DIK
 10
30336.60854204655
 20
-560.453942817253
 30
0.0
 42
0.067315372571
  0
VERTEX
  8
DIK
 10
30341.30776900233
 20
-558.748780191526
 30
0.0
 42
0.105184028713
 70
     2
 50
27.645975363739
  0
VERTEX
  8
DIK
 10
30344.87744065049
 20
-555.789912632644
 30
0.0
 42
0.168849830484
 50
27.645975363739
  0
VERTEX
  8
DIK
 10
30345.84214622944
 20
-553.014660906548
 30
0.0
 42
0.168849830484
  0
VERTEX
  8
DIK
 10
30344.87744065049
 20
-550.239409180445
 30
0.0
 42
0.105184028713
  0
VERTEX
  8
DIK
 10
30341.30776900233
 20
-547.280541621566
 30
0.0
 42
0.067315372571
 70
     2
 50
152.354024636261
  0
VERTEX
  8
DIK
 10
30336.60854204655
 20
-545.575378995839
 30
0.0
 42
0.053465209097
 50
152.354024636261
  0
VERTEX
  8
DIK
 10
30330.36081400374
 20
-544.905391645464
 30
0.0
 42
0.053465209097
  0
VERTEX
  8
DIK
 10
30324.11308596092
 20
-545.575378995839
 30
0.0
 42
0.067315372571
  0
VERTEX
  8
DIK
 10
30319.41385900514
 20
-547.280541621566
 30
0.0
 42
0.105184028713
 70
     2
 50
207.645975363739
  0
VERTEX
  8
DIK
 10
30315.84418735699
 20
-550.239409180445
 30
0.0
 42
0.168849830484
 50
207.645975363739
  0
SEQEND
  8
DIK
  0
POLYLINE
  8
DIK
 66
     1
 10
0.0
 20
0.0
 30
0.0
 70
     1
  0
VERTEX
  8
DIK
 10
29939.87948177803
 20
-553.014660906548
 30
0.0
 42
0.168849830484
  0
VERTEX
  8
DIK
 10
29940.84418735699
 20
-555.789912632644
 30
0.0
 42
0.105184028713
  0
VERTEX
  8
DIK
 10
29944.41385900514
 20
-558.748780191526
 30
0.0
 42
0.067315372571
 70
     2
 50
332.354024636261
  0
VERTEX
  8
DIK
 10
29949.11308596092
 20
-560.453942817253
 30
0.0
 42
0.053465209097
 50
332.354024636261
  0
VERTEX
  8
DIK
 10
29955.36081400373
 20
-561.123930167624
 30
0.0
 42
0.053465209097
  0
VERTEX
  8
DIK
 10
29961.60854204655
 20
-560.453942817253
 30
0.0
 42
0.067315372571
  0
VERTEX
  8
DIK
 10
29966.30776900233
 20
-558.748780191526
 30
0.0
 42
0.105184028713
 70
     2
 50
27.645975363739
  0
VERTEX
  8
DIK
 10
29969.87744065048
 20
-555.789912632644
 30
0.0
 42
0.168849830484
 50
27.645975363739
  0
VERTEX
  8
DIK
 10
29970.84214622944
 20
-553.014660906548
 30
0.0
 42
0.168849830484
  0
VERTEX
  8
DIK
 10
29969.87744065048
 20
-550.239409180445
 30
0.0
 42
0.105184028713
  0
VERTEX
  8
DIK
 10
29966.30776900233
 20
-547.280541621566
 30
0.0
 42
0.067315372571
 70
     2
 50
152.354024636261
  0
VERTEX
  8
DIK
 10
29961.60854204655
 20
-545.575378995839
 30
0.0
 42
0.053465209097
 50
152.354024636261
  0
VERTEX
  8
DIK
 10
29955.36081400373
 20
-544.905391645464
 30
0.0
 42
0.053465209097
  0
VERTEX
  8
DIK
 10
29949.11308596092
 20
-545.575378995839
 30
0.0
 42
0.067315372571
  0
VERTEX
  8
DIK
 10
29944.41385900514
 20
-547.280541621566
 30
0.0
 42
0.105184028713
 70
     2
 50
207.645975363739
  0
VERTEX
  8
DIK
 10
29940.84418735699
 20
-550.239409180445
 30
0.0
 42
0.168849830484
 50
207.645975363739
  0
SEQEND
  8
DIK
  0
POLYLINE
  8
DIK
 66
     1
 10
0.0
 20
0.0
 30
0.0
 70
     1
  0
VERTEX
  8
DIK
 10
29934.87948177803
 20
-557.436426087456
 30
0.0
 42
0.168849830484
  0
VERTEX
  8
DIK
 10
29936.92224997735
 20
-563.313033515543
 30
0.0
 42
0.105184028713
  0
VERTEX
  8
DIK
 10
29942.09382403179
 20
-567.599703048835
 30
0.0
 42
0.067315372571
 70
     2
 50
332.354024636261
  0
VERTEX
  8
DIK
 10
29948.05290817546
 20
-569.762017757406
 30
0.0
 42
0.053465209097
 50
332.354024636261
  0
VERTEX
  8
DIK
 10
29955.36081400373
 20
-570.54569534854
 30
0.0
 42
0.053465209097
  0
VERTEX
  8
DIK
 10
29962.668719832
 20
-569.762017757406
 30
0.0
 42
0.067315372571
  0
VERTEX
  8
DIK
 10
29968.62780397568
 20
-567.599703048835
 30
0.0
 42
0.105184028713
 70
     2
 50
27.645975363739
  0
VERTEX
  8
DIK
 10
29973.79937803012
 20
-563.313033515543
 30
0.0
 42
0.168849830484
 50
27.645975363739
  0
VERTEX
  8
DIK
 10
29975.84214622944
 20
-557.436426087456
 30
0.0
 42
0.168849830484
  0
VERTEX
  8
DIK
 10
29973.79937803012
 20
-551.55981865937
 30
0.0
 42
0.105184028713
  0
VERTEX
  8
DIK
 10
29968.62780397568
 20
-547.273149126078
 30
0.0
 42
0.067315372571
 70
     2
 50
152.354024636261
  0
VERTEX
  8
DIK
 10
29962.668719832
 20
-545.110834417511
 30
0.0
 42
0.053465209097
 50
152.354024636261
  0
VERTEX
  8
DIK
 10
29955.36081400373
 20
-544.32715682638
 30
0.0
 42
0.053465209097
  0
VERTEX
  8
DIK
 10
29948.05290817547
 20
-545.110834417511
 30
0.0
 42
0.067315372571
  0
VERTEX
  8
DIK
 10
29942.09382403179
 20
-547.273149126078
 30
0.0
 42
0.105184028713
 70
     2
 50
207.645975363739
  0
VERTEX
  8
DIK
 10
29936.92224997735
 20
-551.55981865937
 30
0.0
 42
0.168849830484
 50
207.645975363739
  0
SEQEND
  8
DIK
  0
POLYLINE
  8
DIK
 66
     1
 10
0.0
 20
0.0
 30
0.0
 70
     1
  0
VERTEX
  8
DIK
 10
29534.87948177803
 20
-557.436426087456
 30
0.0
 42
0.168849830484
  0
VERTEX
  8
DIK
 10
29536.92224997735
 20
-563.313033515543
 30
0.0
 42
0.105184028713
  0
VERTEX
  8
DIK
 10
29542.09382403179
 20
-567.599703048835
 30
0.0
 42
0.067315372571
 70
     2
 50
332.354024636261
  0
VERTEX
  8
DIK
 10
29548.05290817546
 20
-569.762017757406
 30
0.0
 42
0.053465209097
 50
332.354024636261
  0
VERTEX
  8
DIK
 10
29555.36081400373
 20
-570.54569534854
 30
0.0
 42
0.053465209097
  0
VERTEX
  8
DIK
 10
29562.66871983201
 20
-569.762017757406
 30
0.0
 42
0.067315372571
  0
VERTEX
  8
DIK
 10
29568.62780397568
 20
-567.599703048835
 30
0.0
 42
0.105184028713
 70
     2
 50
27.645975363739
  0
VERTEX
  8
DIK
 10
29573.79937803012
 20
-563.313033515543
 30
0.0
 42
0.168849830484
 50
27.645975363739
  0
VERTEX
  8
DIK
 10
29575.84214622944
 20
-557.436426087456
 30
0.0
 42
0.168849830484
  0
VERTEX
  8
DIK
 10
29573.79937803012
 20
-551.55981865937
 30
0.0
 42
0.105184028713
  0
VERTEX
  8
DIK
 10
29568.62780397568
 20
-547.273149126078
 30
0.0
 42
0.067315372571
 70
     2
 50
152.354024636261
  0
VERTEX
  8
DIK
 10
29562.66871983201
 20
-545.110834417511
 30
0.0
 42
0.053465209097
 50
152.354024636261
  0
VERTEX
  8
DIK
 10
29555.36081400373
 20
-544.32715682638
 30
0.0
 42
0.053465209097
  0
VERTEX
  8
DIK
 10
29548.05290817547
 20
-545.110834417511
 30
0.0
 42
0.067315372571
  0
VERTEX
  8
DIK
 10
29542.09382403179
 20
-547.273149126078
 30
0.0
 42
0.105184028713
 70
     2
 50
207.645975363739
  0
VERTEX
  8
DIK
 10
29536.92224997735
 20
-551.55981865937
 30
0.0
 42
0.168849830484
 50
207.645975363739
  0
SEQEND
  8
DIK
  0
POLYLINE
  8
DIK
 66
     1
 10
0.0
 20
0.0
 30
0.0
 70
     1
  0
VERTEX
  8
DIK
 10
29539.87948177804
 20
-553.014660906548
 30
0.0
 42
0.168849830484
  0
VERTEX
  8
DIK
 10
29540.84418735698
 20
-555.789912632644
 30
0.0
 42
0.105184028713
  0
VERTEX
  8
DIK
 10
29544.41385900514
 20
-558.748780191526
 30
0.0
 42
0.067315372571
 70
     2
 50
332.354024636261
  0
VERTEX
  8
DIK
 10
29549.11308596092
 20
-560.453942817253
 30
0.0
 42
0.053465209097
 50
332.354024636261
  0
VERTEX
  8
DIK
 10
29555.36081400373
 20
-561.123930167624
 30
0.0
 42
0.053465209097
  0
VERTEX
  8
DIK
 10
29561.60854204655
 20
-560.453942817253
 30
0.0
 42
0.067315372571
  0
VERTEX
  8
DIK
 10
29566.30776900233
 20
-558.748780191526
 30
0.0
 42
0.105184028713
 70
     2
 50
27.645975363739
  0
VERTEX
  8
DIK
 10
29569.87744065049
 20
-555.789912632644
 30
0.0
 42
0.168849830484
 50
27.645975363739
  0
VERTEX
  8
DIK
 10
29570.84214622943
 20
-553.014660906548
 30
0.0
 42
0.168849830484
  0
VERTEX
  8
DIK
 10
29569.87744065049
 20
-550.239409180445
 30
0.0
 42
0.105184028713
  0
VERTEX
  8
DIK
 10
29566.30776900233
 20
-547.280541621566
 30
0.0
 42
0.067315372571
 70
     2
 50
152.354024636261
  0
VERTEX
  8
DIK
 10
29561.60854204655
 20
-545.575378995839
 30
0.0
 42
0.053465209097
 50
152.354024636261
  0
VERTEX
  8
DIK
 10
29555.36081400373
 20
-544.905391645464
 30
0.0
 42
0.053465209097
  0
VERTEX
  8
DIK
 10
29549.11308596092
 20
-545.575378995839
 30
0.0
 42
0.067315372571
  0
VERTEX
  8
DIK
 10
29544.41385900514
 20
-547.280541621566
 30
0.0
 42
0.105184028713
 70
     2
 50
207.645975363739
  0
VERTEX
  8
DIK
 10
29540.84418735698
 20
-550.239409180445
 30
0.0
 42
0.168849830484
 50
207.645975363739
  0
SEQEND
  8
DIK
  0
POLYLINE
  8
DIK
 66
     1
 10
0.0
 20
0.0
 30
0.0
  0
VERTEX
  8
DIK
 10
30355.36081400374
 20
65.672843173625
 30
0.0
  0
VERTEX
  8
DIK
 10
30405.36081400373
 20
65.672843173625
 30
0.0
  0
VERTEX
  8
DIK
 10
30405.36081400373
 20
-1234.32715682638
 30
0.0
  0
VERTEX
  8
DIK
 10
30355.36081400374
 20
-1234.327156826376
 30
0.0
  0
SEQEND
  8
DIK
  0
POLYLINE
  8
DIK
 66
     1
 10
0.0
 20
0.0
 30
0.0
  0
VERTEX
  8
DIK
 10
29105.36081400374
 20
-1234.32715682638
 30
0.0
  0
VERTEX
  8
DIK
 10
29105.36081400374
 20
65.672843173625
 30
0.0
  0
VERTEX
  8
DIK
 10
29140.36081400374
 20
65.672843173625
 30
0.0
  0
SEQEND
  8
DIK
  0
POLYLINE
  8
DIK
 66
     1
 10
0.0
 20
0.0
 30
0.0
  0
VERTEX
  8
DIK
 10
29155.36081400373
 20
-1234.32715682638
 30
0.0
  0
VERTEX
  8
DIK
 10
29105.36081400374
 20
-1234.32715682638
 30
0.0
  0
SEQEND
  8
DIK
  0
LINE
  8
DIK
 10
30355.36081400374
 20
-1204.32715682638
 30
0.0
 11
29155.36081400373
 21
-1204.32715682638
 31
0.0
  0
LINE
  8
DIK
 10
29155.36081400373
 20
35.672843173625
 30
0.0
 11
30355.36081400374
 21
35.672843173625
 31
0.0
  0
LINE
  8
DIK
 10
30355.36081400374
 20
-624.327156826376
 30
0.0
 11
29155.36081400373
 21
-624.32715682638
 31
0.0
  0
LINE
  8
DIK
 10
30355.36081400374
 20
-544.32715682638
 30
0.0
 11
29155.36081400373
 21
-544.32715682638
 31
0.0
  0
LINE
  8
DIK
 10
30355.36081400374
 20
65.672843173625
 30
0.0
 11
30355.36081400374
 21
-1234.32715682638
 31
0.0
  0
LINE
  8
DIK
 10
29155.36081400373
 20
-1234.32715682638
 30
0.0
 11
29155.36081400373
 21
65.672843173625
 31
0.0
  0
LINE
  8
DIK
 10
30405.36081400373
 20
-584.327156826376
 30
0.0
 11
29105.36081400374
 21
-584.327156826376
 31
0.0
  0
POLYLINE
  8
DUN
 66
     1
 10
0.0
 20
0.0
 30
0.0
 70
     1
  0
VERTEX
  8
DUN
 10
27272.88023321707
 20
22681.55032254364
 30
0.0
  0
VERTEX
  8
DUN
 10
27272.88023321707
 20
13609.86870727244
 30
0.0
  0
VERTEX
  8
DUN
 10
33162.70214946033
 20
13609.86870727244
 30
0.0
  0
VERTEX
  8
DUN
 10
33162.70214946033
 20
22681.55032254364
 30
0.0
  0
SEQEND
  8
DUN
  0
LINE
  8
STREEPLIJN
 10
28495.36081400373
 20
1499.248620787753
 30
0.0
 11
28495.36081400374
 21
-5500.751379212248
 31
0.0
  0
LINE
  8
STREEPLIJN
 10
27495.36081400373
 20
-2500.751379212249
 30
0.0
 11
31995.36081400373
 21
-2500.751379212242
 31
0.0
  0
TEXT
  8
DIK
 10
28788.37095411712
 20
-6756.857239070491
 30
0.0
 40
150.0
  1
afgerond= 27 tegels
  7
ROMANS
  0
TEXT
  8
DUN
 10
28761.77004747122
 20
13888.57221241504
 30
0.0
 40
200.0
  1
Obstakelvrijeruimte
  7
ROMANS
  0
TEXT
  8
DUN
 10
28841.37596005274
 20
3193.053715359918
 30
0.0
 40
200.0
  1
Valdempende ondergrond
  7
ROMANS
  0
TEXT
  8
DUN
 10
28802.85692927774
 20
-7496.913616489195
 30
0.0
 40
200.0
  1
rubbertegels 1mx1m
  7
ROMANS
  0
POLYLINE
  8
STREEPLIJN
 66
     1
 10
0.0
 20
0.0
 30
0.0
 70
     1
  0
VERTEX
  8
STREEPLIJN
 10
27636.62329889432
 20
4145.615853979111
 30
0.0
  0
VERTEX
  8
STREEPLIJN
 10
27636.62329889432
 20
3145.615853979129
 30
0.0
  0
VERTEX
  8
STREEPLIJN
 10
28636.62329889432
 20
3145.615853979129
 30
0.0
  0
VERTEX
  8
STREEPLIJN
 10
28636.62329889432
 20
4145.615853979111
 30
0.0
  0
SEQEND
  8
STREEPLIJN
  0
POLYLINE
  8
STREEPLIJN
 66
     1
 10
0.0
 20
0.0
 30
0.0
 70
     1
  0
VERTEX
  8
STREEPLIJN
 10
27636.62329889432
 20
-6563.176717939586
 30
0.0
  0
VERTEX
  8
STREEPLIJN
 10
27636.62329889432
 20
-7563.176717939572
 30
0.0
  0
VERTEX
  8
STREEPLIJN
 10
28636.62329889432
 20
-7563.176717939572
 30
0.0
  0
VERTEX
  8
STREEPLIJN
 10
28636.62329889432
 20
-6563.176717939586
 30
0.0
  0
SEQEND
  8
STREEPLIJN
  0
INSERT
  8
STREEPLIJN
  2
*X43
 10
-9369.522994759369
 20
-29007.54698833706
 30
0.0
1001
ACAD
1000
HATCH
1002
{
1070
    16
1000
ANSI31
1040
40.0
1040
0.0
1002
}
  0
POLYLINE
  8
DUN
 66
     1
 10
0.0
 20
0.0
 30
0.0
 70
     1
  0
VERTEX
  8
DUN
 10
27256.72636737997
 20
12944.05529373902
 30
0.0
  0
VERTEX
  8
DUN
 10
27256.72636737997
 20
2766.8443141126
 30
0.0
  0
VERTEX
  8
DUN
 10
33162.70214946033
 20
2766.8443141126
 30
0.0
  0
VERTEX
  8
DUN
 10
33162.70214946033
 20
12944.05529373902
 30
0.0
  0
SEQEND
  8
DUN
  0
POLYLINE
  8
DUN
 66
     1
 10
0.0
 20
0.0
 30
0.0
 70
     1
  0
VERTEX
  8
DUN
 10
27256.72636737997
 20
2350.69399844208
 30
0.0
  0
VERTEX
  8
DUN
 10
27256.72636737997
 20
-7826.516981184352
 30
0.0
  0
VERTEX
  8
DUN
 10
33162.70214946033
 20
-7826.516981184352
 30
0.0
  0
VERTEX
  8
DUN
 10
33162.70214946033
 20
2350.69399844208
 30
0.0
  0
SEQEND
  8
DUN
  0
LINE
  8
STREEPLIJN
 10
27495.36081400373
 20
1499.248620787751
 30
0.0
 11
27495.36081400373
 21
-2500.751379212249
 31
0.0
  0
LINE
  8
STREEPLIJN
 10
29495.36081400373
 20
1499.248620787754
 30
0.0
 11
29495.36081400374
 21
-5500.751379212246
 31
0.0
  0
LINE
  8
STREEPLIJN
 10
30495.36081400374
 20
1499.248620787756
 30
0.0
 11
30495.36081400373
 21
-5500.751379212244
 31
0.0
  0
LINE
  8
STREEPLIJN
 10
31495.36081400374
 20
1499.248620787757
 30
0.0
 11
31495.36081400373
 21
-5500.751379212243
 31
0.0
  0
LINE
  8
STREEPLIJN
 10
31995.36081400373
 20
1499.248620787758
 30
0.0
 11
31995.36081400374
 21
-2500.751379212242
 31
0.0
  0
LINE
  8
STREEPLIJN
 10
27495.36081400373
 20
-1500.751379212249
 30
0.0
 11
31995.36081400373
 21
-1500.751379212242
 31
0.0
  0
LINE
  8
STREEPLIJN
 10
27495.36081400373
 20
-500.751379212249
 30
0.0
 11
31995.36081400373
 21
-500.751379212242
 31
0.0
  0
LINE
  8
STREEPLIJN
 10
27495.36081400373
 20
499.248620787751
 30
0.0
 11
31995.36081400373
 21
499.248620787758
 31
0.0
  0
LINE
  8
STREEPLIJN
 10
27495.36081400373
 20
1499.248620787751
 30
0.0
 11
31995.36081400373
 21
1499.248620787758
 31
0.0
  0
LINE
  8
STREEPLIJN
 10
28495.36081400374
 20
-3500.751379212248
 30
0.0
 11
31495.36081400373
 21
-3500.751379212243
 31
0.0
  0
LINE
  8
STREEPLIJN
 10
28495.36081400374
 20
-4500.751379212249
 30
0.0
 11
31495.36081400373
 21
-4500.751379212243
 31
0.0
  0
LINE
  8
STREEPLIJN
 10
28495.36081400374
 20
-5500.751379212248
 30
0.0
 11
31495.36081400373
 21
-5500.751379212243
 31
0.0
  0
TEXT
  8
DUN
 10
30587.09750102562
 20
15817.50099384886
 30
0.0
 40
200.0
  1
Wico Comfa AK731
 50
90.0
  7
ROMANS
  0
TEXT
  8
DUN
 10
30587.09750102562
 20
5772.575605090849
 30
0.0
 40
200.0
  1
Wico Comfa AK731
 50
90.0
  7
ROMANS
  0
TEXT
  8
DUN
 10
31383.1954240044
 20
-5462.283874605184
 30
0.0
 40
200.0
  1
Wico Comfa AK731
 50
90.0
  7
ROMANS
  0
ENDSEC
  0
EOF
