  0
SECTION
  2
HEADER
  9
$ACADVER
  1
AC1009
  9
$INSBASE
 10
0.0
 20
0.0
 30
0.0
  9
$EXTMIN
 10
-125.09661853861
 20
-13855.97164477955
 30
0.0
  9
$EXTMAX
 10
6431.197675622148
 20
19232.61994514384
 30
0.0
  9
$LIMMIN
 10
0.0
 20
0.0
  9
$LIMMAX
 10
420.0
 20
297.0
  9
$ORTHOMODE
 70
     0
  9
$REGENMODE
 70
     1
  9
$FILLMODE
 70
     1
  9
$QTEXTMODE
 70
     0
  9
$MIRRTEXT
 70
     1
  9
$DRAGMODE
 70
     2
  9
$LTSCALE
 40
10.0
  9
$OSMODE
 70
     0
  9
$ATTMODE
 70
     1
  9
$TEXTSIZE
 40
250.0
  9
$TRACEWID
 40
0.05
  9
$TEXTSTYLE
  7
ROMANS
  9
$CLAYER
  8
DUN
  9
$CELTYPE
  6
BYLAYER
  9
$CECOLOR
 62
   256
  9
$DIMSCALE
 40
0.0
  9
$DIMASZ
 40
100.0
  9
$DIMEXO
 40
0.0
  9
$DIMDLI
 40
7.0
  9
$DIMRND
 40
5.0
  9
$DIMDLE
 40
0.0
  9
$DIMEXE
 40
1.0
  9
$DIMTP
 40
0.0
  9
$DIMTM
 40
0.0
  9
$DIMTXT
 40
70.0
  9
$DIMCEN
 40
1.75
  9
$DIMTSZ
 40
0.0
  9
$DIMTOL
 70
     0
  9
$DIMLIM
 70
     0
  9
$DIMTIH
 70
     0
  9
$DIMTOH
 70
     0
  9
$DIMSE1
 70
     0
  9
$DIMSE2
 70
     0
  9
$DIMTAD
 70
     1
  9
$DIMZIN
 70
     8
  9
$DIMBLK
  1

  9
$DIMASO
 70
     1
  9
$DIMSHO
 70
     0
  9
$DIMPOST
  1

  9
$DIMAPOST
  1

  9
$DIMALT
 70
     0
  9
$DIMALTD
 70
     2
  9
$DIMALTF
 40
25.4
  9
$DIMLFAC
 40
-1.0
  9
$DIMTOFL
 70
     1
  9
$DIMTVP
 40
0.0
  9
$DIMTIX
 70
     0
  9
$DIMSOXD
 70
     0
  9
$DIMSAH
 70
     0
  9
$DIMBLK1
  1

  9
$DIMBLK2
  1

  9
$DIMSTYLE
  2
STANDAARD
  9
$DIMCLRD
 70
   256
  9
$DIMCLRE
 70
   256
  9
$DIMCLRT
 70
   256
  9
$DIMTFAC
 40
0.035714285714
  9
$DIMGAP
 40
0.0
  9
$LUNITS
 70
     2
  9
$LUPREC
 70
     4
  9
$SKETCHINC
 40
0.1
  9
$FILLETRAD
 40
1500.0
  9
$AUNITS
 70
     0
  9
$AUPREC
 70
     0
  9
$MENU
  1
acad
  9
$ELEVATION
 40
0.0
  9
$PELEVATION
 40
0.0
  9
$THICKNESS
 40
0.0
  9
$LIMCHECK
 70
     0
  9
$BLIPMODE
 70
     1
  9
$CHAMFERA
 40
0.0
  9
$CHAMFERB
 40
0.0
  9
$SKPOLY
 70
     0
  9
$TDCREATE
 40
2450497.671284143
  9
$TDUPDATE
 40
2454138.606857407
  9
$TDINDWG
 40
0.3152306713
  9
$TDUSRTIMER
 40
0.3152306713
  9
$USRTIMER
 70
     1
  9
$ANGBASE
 50
0.0
  9
$ANGDIR
 70
     0
  9
$PDMODE
 70
     0
  9
$PDSIZE
 40
0.0
  9
$PLINEWID
 40
0.0
  9
$COORDS
 70
     2
  9
$SPLFRAME
 70
     0
  9
$SPLINETYPE
 70
     6
  9
$SPLINESEGS
 70
     8
  9
$ATTDIA
 70
     1
  9
$ATTREQ
 70
     1
  9
$HANDLING
 70
     0
  9
$HANDSEED
  5
0
  9
$SURFTAB1
 70
     6
  9
$SURFTAB2
 70
     6
  9
$SURFTYPE
 70
     6
  9
$SURFU
 70
     6
  9
$SURFV
 70
     6
  9
$UCSNAME
  2

  9
$UCSORG
 10
0.0
 20
0.0
 30
0.0
  9
$UCSXDIR
 10
1.0
 20
0.0
 30
0.0
  9
$UCSYDIR
 10
0.0
 20
1.0
 30
0.0
  9
$PUCSNAME
  2

  9
$PUCSORG
 10
0.0
 20
0.0
 30
0.0
  9
$PUCSXDIR
 10
1.0
 20
0.0
 30
0.0
  9
$PUCSYDIR
 10
0.0
 20
1.0
 30
0.0
  9
$USERI1
 70
     0
  9
$USERI2
 70
     0
  9
$USERI3
 70
     0
  9
$USERI4
 70
     0
  9
$USERI5
 70
     0
  9
$USERR1
 40
0.0
  9
$USERR2
 40
0.0
  9
$USERR3
 40
0.0
  9
$USERR4
 40
0.0
  9
$USERR5
 40
0.0
  9
$WORLDVIEW
 70
     1
  9
$SHADEDGE
 70
     3
  9
$SHADEDIF
 70
    70
  9
$TILEMODE
 70
     1
  9
$MAXACTVP
 70
    16
  9
$PINSBASE
 10
0.0
 20
0.0
 30
0.0
  9
$PLIMCHECK
 70
     0
  9
$PEXTMIN
 10
0.0
 20
0.0
 30
0.0
  9
$PEXTMAX
 10
420.0
 20
297.0
 30
0.0
  9
$PLIMMIN
 10
0.0
 20
0.0
  9
$PLIMMAX
 10
12.0
 20
9.0
  9
$UNITMODE
 70
     0
  9
$VISRETAIN
 70
     0
  9
$PLINEGEN
 70
     0
  9
$PSLTSCALE
 70
     0
  9
$TREEDEPTH
 70
  3020
  9
$DWGCODEPAGE
  3
iso8859-1
  0
ENDSEC
  0
SECTION
  2
TABLES
  0
TABLE
  2
VPORT
 70
     2
  0
VPORT
  2
*ACTIVE
 70
     0
 10
0.0
 20
0.0
 11
1.0
 21
1.0
 12
23438.54961949704
 22
2688.324150182143
 13
0.0
 23
0.0
 14
10.0
 24
10.0
 15
0.0
 25
0.0
 16
0.0
 26
0.0
 36
1.0
 17
0.0
 27
0.0
 37
0.0
 40
33088.5915899234
 41
1.424276169265
 42
50.0
 43
0.0
 44
0.0
 50
0.0
 51
0.0
 71
     0
 72
 20000
 73
     1
 74
     0
 75
     0
 76
     0
 77
     0
 78
     0
  0
ENDTAB
  0
TABLE
  2
LTYPE
 70
    10
  0
LTYPE
  2
CONTINUOUS
 70
    64
  3
Solid line
 72
    65
 73
     0
 40
0.0
  0
LTYPE
  2
CENTER
 70
    64
  3
____ _ ____ _ ____ _ ____ _ ____ _ ____ _ ____
 72
    65
 73
     4
 40
2.0
 49
1.25
 49
-0.25
 49
0.25
 49
-0.25
  0
LTYPE
  2
PHANTOM
 70
    64
  3
_____ _ _ _____ _ _ _____ _ _ _____ _ _ ____
 72
    65
 73
     6
 40
2.5
 49
1.25
 49
-0.25
 49
0.25
 49
-0.25
 49
0.25
 49
-0.25
  0
LTYPE
  2
DASHED
 70
    64
  3
__ __ __ __ __ __ __ __ __ __ __ __ __ __ __
 72
    65
 73
     2
 40
0.75
 49
0.5
 49
-0.25
  0
LTYPE
  2
CENTER2
 70
     0
  3
___ _ ___ _ ___ _ ___ _ ___ _ ___ _ ___ _ ___ _
 72
    65
 73
     4
 40
1.125
 49
0.75
 49
-0.125
 49
0.125
 49
-0.125
  0
LTYPE
  2
CENTERX2
 70
     0
  3
________  __  ________  __  ________  __  _____
 72
    65
 73
     4
 40
4.0
 49
2.5
 49
-0.5
 49
0.5
 49
-0.5
  0
LTYPE
  2
DASHED2
 70
     0
  3
_ _ _ _ _ _ _ _ _ _ _ _ _ _ _ _ _ _ _ _ _ _ _ _
 72
    65
 73
     2
 40
0.375
 49
0.25
 49
-0.125
  0
LTYPE
  2
DASHEDX2
 70
     0
  3
____  ____  ____  ____  ____  ____  ____  ____ 
 72
    65
 73
     2
 40
1.5
 49
1.0
 49
-0.5
  0
LTYPE
  2
PHANTOM2
 70
     0
  3
___ _ _ ___ _ _ ___ _ _ ___ _ _ ___ _ _ ___ _ _
 72
    65
 73
     6
 40
1.25
 49
0.625
 49
-0.125
 49
0.125
 49
-0.125
 49
0.125
 49
-0.125
  0
LTYPE
  2
PHANTOMX2
 70
     0
  3
____________    ____    ____    ____________   
 72
    65
 73
     6
 40
5.0
 49
2.5
 49
-0.5
 49
0.5
 49
-0.5
 49
0.5
 49
-0.5
  0
ENDTAB
  0
TABLE
  2
LAYER
 70
     8
  0
LAYER
  2
0
 70
    64
 62
     7
  6
CONTINUOUS
  0
LAYER
  2
DIK
 70
    64
 62
     2
  6
CONTINUOUS
  0
LAYER
  2
DUN
 70
    64
 62
     6
  6
CONTINUOUS
  0
LAYER
  2
HARTLIJN
 70
    64
 62
     1
  6
CENTER
  0
LAYER
  2
STREEPLIJN
 70
    64
 62
     5
  6
DASHED
  0
LAYER
  2
HARTLIJN-DUBBEL
 70
    64
 62
     1
  6
PHANTOM
  0
LAYER
  2
HARTLIJN-DIK
 70
     0
 62
     2
  6
CENTER
  0
LAYER
  2
DEFPOINTS
 70
    64
 62
     7
  6
CONTINUOUS
  0
ENDTAB
  0
TABLE
  2
STYLE
 70
     4
  0
STYLE
  2
STANDARD
 70
    64
 40
0.0
 41
1.0
 50
0.0
 71
     0
 42
0.2
  3
txt
  4

  0
STYLE
  2
ROMANS
 70
    64
 40
0.0
 41
1.0
 50
0.0
 71
     0
 42
250.0
  3
romans
  4

  0
STYLE
  2
ROMAND
 70
     0
 40
0.0
 41
1.0
 50
0.0
 71
     0
 42
5.591715976331
  3
romand
  4

  0
STYLE
  2
SANSSERIFBOLD
 70
    64
 40
10.0
 41
1.0
 50
0.0
 71
     0
 42
10.0
  3
sasb____.pfb
  4

  0
ENDTAB
  0
TABLE
  2
VIEW
 70
     0
  0
ENDTAB
  0
TABLE
  2
UCS
 70
     0
  0
ENDTAB
  0
TABLE
  2
APPID
 70
     1
  0
APPID
  2
ACAD
 70
    64
  0
ENDTAB
  0
TABLE
  2
DIMSTYLE
 70
     2
  0
DIMSTYLE
  2
STANDAARD
 70
    64
  3

  4

  5

  6

  7

 40
0.0
 41
100.0
 42
0.0
 43
7.0
 44
1.0
 45
5.0
 46
0.0
 47
0.0
 48
0.0
140
70.0
141
1.75
142
0.0
143
25.4
144
-1.0
145
0.0
146
0.035714285714
147
0.0
 71
     0
 72
     0
 73
     0
 74
     0
 75
     0
 76
     0
 77
     1
 78
     8
170
     0
171
     2
172
     1
173
     0
174
     0
175
     0
176
   256
177
   256
178
   256
  0
DIMSTYLE
  2
TOLERANTIE
 70
     0
  3

  4

  5
PIJLP
  6

  7

 40
0.0
 41
3.5
 42
0.0
 43
7.0
 44
1.0
 45
0.1
 46
0.0
 47
0.3
 48
0.7
140
3.5
141
1.75
142
0.0
143
25.4
144
-1.0
145
0.0
146
0.714285714286
147
0.0
 71
     1
 72
     0
 73
     0
 74
     0
 75
     0
 76
     0
 77
     1
 78
     8
170
     0
171
     2
172
     1
173
     0
174
     0
175
     0
176
   256
177
   256
178
   256
  0
ENDTAB
  0
ENDSEC
  0
SECTION
  2
BLOCKS
  0
BLOCK
  8
0
  2
TEKENH
 70
    64
 10
0.0
 20
0.0
 30
0.0
  3
TEKENH
  0
LINE
  8
DUN
 10
0.0
 20
15.0
 30
0.0
 11
-105.0
 21
15.0
 31
0.0
  0
LINE
  8
DUN
 10
0.0
 20
29.0
 30
0.0
 11
-180.0
 21
29.0
 31
0.0
  0
LINE
  8
DUN
 10
-45.0
 20
35.0
 30
0.0
 11
-145.0
 21
35.0
 31
0.0
  0
LINE
  8
DUN
 10
-45.0
 20
41.0
 30
0.0
 11
-145.0
 21
41.0
 31
0.0
  0
LINE
  8
DUN
 10
0.0
 20
47.0
 30
0.0
 11
-180.0
 21
47.0
 31
0.0
  0
LINE
  8
DUN
 10
0.0
 20
54.0
 30
0.0
 11
-180.0
 21
54.0
 31
0.0
  0
LINE
  8
DIK
 10
-180.0
 20
5.0
 30
0.0
 11
0.0
 21
5.0
 31
0.0
  0
LINE
  8
DIK
 10
-180.0
 20
57.0
 30
0.0
 11
-180.0
 21
0.0
 31
0.0
  0
TEXT
  8
DUN
 10
-143.75
 20
36.25
 30
0.0
 40
2.5
  1
Maateenheid
  7
ROMANS
  0
TEXT
  8
DIK
 10
-148.440362545074
 20
19.340461725786
 30
0.0
 40
2.5
  1
SECTOR TECHNIEK
  7
ROMANS
  0
TEXT
  8
DIK
 10
-148.440362545074
 20
23.388080773405
 30
0.0
 40
2.5
  1
HAAGSE HOGESCHOOL
  7
ROMANS
  0
TEXT
  8
DIK
 10
-148.440362545074
 20
13.066876305898
 30
0.0
 40
2.5
  1
AFDELING INDUSTRIEEL
  7
ROMANS
  0
TEXT
  8
DIK
 10
-148.440362545074
 20
9.019257258279
 30
0.0
 40
2.5
  1
PRODUKTONTWERPEN
  7
ROMANS
  0
LINE
  8
DUN
 10
-155.0
 20
57.0
 30
0.0
 11
-155.0
 21
47.0
 31
0.0
  0
LINE
  8
DUN
 10
-167.5
 20
57.0
 30
0.0
 11
-167.5
 21
47.0
 31
0.0
  0
LINE
  8
HARTLIJN
 10
-176.886088794123
 20
35.230609663178
 30
0.0
 11
-146.820300421814
 21
35.230609663178
 31
0.0
  0
LINE
  8
DIK
 10
-162.450142380332
 20
36.730609663178
 30
0.0
 11
-152.450142380332
 21
38.730609663178
 31
0.0
  0
LINE
  8
DIK
 10
-152.450142380332
 20
31.730609663178
 30
0.0
 11
-162.450142380332
 21
33.730609663178
 31
0.0
  0
TEXT
  8
DUN
 10
-178.75
 20
43.25
 30
0.0
 40
2.5
  1
Amerik. proj.
  7
ROMANS
  0
CIRCLE
  8
DIK
 10
-155.16399605453
 20
19.101995476601
 30
0.0
 40
2.738926691931
  0
ARC
  8
DIK
 10
-155.16399605453
 20
19.101995476601
 30
0.0
 40
5.08244644145
 50
217.58615827382
 51
136.945859517254
  0
LINE
  8
DIK
 10
-160.606534081057
 20
13.81954903515
 30
0.0
 11
-149.881549613079
 21
13.81954903515
 31
0.0
  0
LINE
  8
DIK
 10
-160.738999640542
 20
24.384441918051
 30
0.0
 11
-149.881549613079
 21
24.384441918051
 31
0.0
  0
POLYLINE
  8
DIK
 66
     1
 10
0.0
 20
0.0
 30
0.0
  0
VERTEX
  8
DIK
 10
-173.299933916411
 20
19.893020206338
 30
0.0
 42
0.01519296989
  0
VERTEX
  8
DIK
 10
-173.80806199825
 20
19.191293308404
 30
0.0
 42
0.04059810252
  0
VERTEX
  8
DIK
 10
-174.638507094833
 20
17.724574301424
 30
0.0
 42
0.106995455646
 70
     2
 50
254.39619560055
  0
SEQEND
  8
DIK
  0
POLYLINE
  8
DIK
 66
     1
 10
0.0
 20
0.0
 30
0.0
  0
VERTEX
  8
DIK
 10
-174.369010352572
 20
10.671836157203
 30
0.0
 42
0.068010394449
  0
VERTEX
  8
DIK
 10
-173.430811033457
 20
9.820574846878
 30
0.0
 42
0.106995455646
  0
SEQEND
  8
DIK
  0
LINE
  8
DIK
 10
-173.430811033457
 20
9.820574846878
 30
0.0
 11
-175.038295632455
 21
7.779878286816
 31
0.0
  0
LINE
  8
DIK
 10
-175.665796239655
 20
21.060062653769
 30
0.0
 11
-173.299933916411
 21
19.893020206338
 31
0.0
  0
POLYLINE
  8
DIK
 66
     1
 10
0.0
 20
0.0
 30
0.0
  0
VERTEX
  8
DIK
 10
-175.06979071136
 20
16.637763287061
 30
0.0
 42
0.012293677113
  0
VERTEX
  8
DIK
 10
-175.219344929091
 20
16.148974448758
 30
0.0
 42
0.106995455646
 70
     2
 50
254.39619560055
  0
VERTEX
  8
DIK
 10
-175.408142861391
 20
12.961273310181
 30
0.0
 42
0.136872673305
 50
254.39619560055
  0
VERTEX
  8
DIK
 10
-174.369010352572
 20
10.671836157203
 30
0.0
 42
0.136872673305
  0
SEQEND
  8
DIK
  0
POLYLINE
  8
DIK
 66
     1
 10
0.0
 20
0.0
 30
0.0
  0
VERTEX
  8
DIK
 10
-177.533246919684
 20
17.450717667179
 30
0.0
 42
0.01215599776
  0
VERTEX
  8
DIK
 10
-177.717860069696
 20
16.846751246235
 30
0.0
 42
0.106995455646
 70
     2
 50
254.39619560055
  0
VERTEX
  8
DIK
 10
-177.971556021955
 20
12.563299271861
 30
0.0
 42
0.136872673305
 50
254.39619560055
  0
VERTEX
  8
DIK
 10
-176.356223304524
 20
9.00436650215
 30
0.0
 42
0.136872673305
  0
SEQEND
  8
DIK
  0
POLYLINE
  8
DIK
 66
     1
 10
0.0
 20
0.0
 30
0.0
  0
VERTEX
  8
DIK
 10
-176.356223304524
 20
9.00436650215
 30
0.0
 42
0.062080649113
  0
VERTEX
  8
DIK
 10
-175.038295632455
 20
7.779878286816
 30
0.0
 42
0.106995455646
  0
SEQEND
  8
DIK
  0
POLYLINE
  8
DIK
 66
     1
 10
0.0
 20
0.0
 30
0.0
  0
VERTEX
  8
DIK
 10
-175.665796239655
 20
21.060062653769
 30
0.0
 42
0.007460633215
  0
VERTEX
  8
DIK
 10
-175.954427875157
 20
20.648202327313
 30
0.0
 42
0.041760377079
  0
VERTEX
  8
DIK
 10
-177.017316923261
 20
18.760741908652
 30
0.0
 42
0.106995455646
 70
     2
 50
254.39619560055
  0
SEQEND
  8
DIK
  0
LINE
  8
DIK
 10
-175.06979071136
 20
16.637763287061
 30
0.0
 11
-177.533246919684
 21
17.450717667179
 31
0.0
  0
LINE
  8
DIK
 10
-177.017316923261
 20
18.760741908652
 30
0.0
 11
-174.638507094833
 21
17.724574301424
 31
0.0
  0
ARC
  8
DIK
 10
-166.836551726683
 20
17.489108830784
 30
0.0
 40
3.024136079487
 50
270.0
 51
90.0
  0
LINE
  8
DIK
 10
-168.670154683362
 20
20.513244910271
 30
0.0
 11
-168.670154683362
 21
12.447690434973
 31
0.0
  0
POLYLINE
  8
DIK
 66
     1
 10
0.0
 20
0.0
 30
0.0
  0
VERTEX
  8
DIK
 10
-160.606534081057
 20
13.81954903515
 30
0.0
 42
0.020212941293
  0
VERTEX
  8
DIK
 10
-159.92129908168
 20
14.746139761985
 30
0.0
 42
0.034969919681
  0
VERTEX
  8
DIK
 10
-159.191514773802
 20
16.001938251947
 30
0.0
 42
0.106995455646
 70
     2
 50
74.39619560055
  0
SEQEND
  8
DIK
  0
LINE
  8
DIK
 10
-166.836551726683
 20
14.464972751297
 30
0.0
 11
-166.836551726683
 21
12.447690434973
 31
0.0
  0
LINE
  8
DIK
 10
-168.670154683362
 20
12.447690434973
 30
0.0
 11
-166.836551726683
 21
12.447690434973
 31
0.0
  0
ARC
  8
DIK
 10
-166.836551726683
 20
17.489108830784
 30
0.0
 40
1.190136079487
 50
270.0
 51
90.0
  0
POLYLINE
  8
DIK
 66
     1
 10
0.0
 20
0.0
 30
0.0
  0
VERTEX
  8
DIK
 10
-164.821453945582
 20
25.51055579841
 30
0.0
 42
0.077262734149
 70
     2
 50
185.60380439945
  0
VERTEX
  8
DIK
 10
-168.042895588918
 20
24.62734996957
 30
0.0
 42
0.050945521512
 50
185.60380439945
  0
VERTEX
  8
DIK
 10
-170.636781555084
 20
23.129724656625
 30
0.0
 42
0.069190866296
  0
SEQEND
  8
DIK
  0
POLYLINE
  8
DIK
 66
     1
 10
0.0
 20
0.0
 30
0.0
  0
VERTEX
  8
DIK
 10
-164.816465222912
 20
25.031365508669
 30
0.0
 42
0.076071376639
 70
     2
 50
185.60380439945
  0
VERTEX
  8
DIK
 10
-167.847785840809
 20
24.192558833828
 30
0.0
 42
0.048801187094
 50
185.60380439945
  0
VERTEX
  8
DIK
 10
-170.258569566301
 20
22.81436839439
 30
0.0
 42
0.069190866296
  0
SEQEND
  8
DIK
  0
LINE
  8
DIK
 10
-166.836551726683
 20
18.679244910271
 30
0.0
 11
-166.836551726683
 21
16.298972751297
 31
0.0
  0
LINE
  8
DIK
 10
-166.836551726683
 20
20.513244910271
 30
0.0
 11
-168.670154683362
 21
20.513244910271
 31
0.0
  0
LINE
  8
DIK
 10
-170.636781555084
 20
23.129724656625
 30
0.0
 11
-170.258569566301
 21
22.81436839439
 31
0.0
  0
LINE
  8
DIK
 10
-164.821453945582
 20
25.51055579841
 30
0.0
 11
-164.816465222912
 21
25.031365508669
 31
0.0
  0
POLYLINE
  8
DIK
 66
     1
 10
0.0
 20
0.0
 30
0.0
  0
VERTEX
  8
DIK
 10
-158.877785079489
 20
22.571726432785
 30
0.0
 42
0.045257321946
 50
74.39619560055
  0
VERTEX
  8
DIK
 10
-159.360350727358
 20
23.265596913186
 30
0.0
 42
0.095750765923
  0
VERTEX
  8
DIK
 10
-160.738999640542
 20
24.384441918051
 30
0.0
 42
0.106995455646
  0
SEQEND
  8
DIK
  0
TEXT
  8
DUN
 10
-178.75
 20
48.25
 30
0.0
 40
2.5
  1
Pos
  7
ROMANS
  0
CIRCLE
  8
DIK
 10
-172.011475615595
 20
35.230609663178
 30
0.0
 40
3.5
  0
LINE
  8
HARTLIJN
 10
-172.011475615595
 20
40.304753886429
 30
0.0
 11
-172.011475615595
 21
30.156465439926
 31
0.0
  0
CIRCLE
  8
DIK
 10
-172.011475615595
 20
35.230609663178
 30
0.0
 40
1.5
  0
LINE
  8
DIK
 10
-162.450142380332
 20
35.230609663178
 30
0.0
 11
-162.450142380332
 21
36.730609663178
 31
0.0
  0
LINE
  8
DIK
 10
-162.450142380332
 20
35.230609663178
 30
0.0
 11
-162.450142380332
 21
33.730609663178
 31
0.0
  0
TEXT
  8
DUN
 10
-166.25
 20
48.25
 30
0.0
 40
2.5
  1
Aant.
  7
ROMANS
  0
LINE
  8
DIK
 10
-149.881549613079
 20
24.384441918051
 30
0.0
 11
-149.881549613079
 21
13.81954903515
 31
0.0
  0
TEXT
  8
DUN
 10
-143.75
 20
30.25
 30
0.0
 40
2.5
  1
Datum
  7
ROMANS
  0
TEXT
  8
DUN
 10
-153.75
 20
48.25
 30
0.0
 40
2.5
  1
Benaming
  7
ROMANS
  0
TEXT
  8
DUN
 10
-143.75
 20
42.25
 30
0.0
 40
2.5
  1
Schaal
  7
ROMANS
  0
LINE
  8
DUN
 10
-145.0
 20
47.0
 30
0.0
 11
-145.0
 21
29.0
 31
0.0
  0
LINE
  8
DIK
 10
-152.450142380332
 20
38.730609663178
 30
0.0
 11
-152.450142380332
 21
31.730609663178
 31
0.0
  0
LINE
  8
DUN
 10
-105.0
 20
57.0
 30
0.0
 11
-105.0
 21
5.0
 31
0.0
  0
LINE
  8
DUN
 10
-80.0
 20
57.0
 30
0.0
 11
-80.0
 21
47.0
 31
0.0
  0
TEXT
  8
DUN
 10
-103.75
 20
48.25
 30
0.0
 40
2.5
  1
Materiaal
  7
ROMANS
  0
TEXT
  8
DUN
 10
-103.75
 20
42.25
 30
0.0
 40
2.5
  1
Getekend
  7
ROMANS
  0
TEXT
  8
DUN
 10
-103.75
 20
36.25
 30
0.0
 40
2.5
  1
Semester
  7
ROMANS
  0
TEXT
  8
DUN
 10
-103.75
 20
11.25
 30
0.0
 40
2.5
  1
Opdracht
  7
ROMANS
  0
TEXT
  8
DUN
 10
-103.75
 20
25.25
 30
0.0
 40
2.5
  1
Benaming
  7
ROMANS
  0
TEXT
  8
DUN
 10
-103.75
 20
30.25
 30
0.0
 40
2.5
  1
Gezien
  7
ROMANS
  0
TEXT
  8
DUN
 10
-78.75
 20
48.25
 30
0.0
 40
2.5
  1
Afmetingen
  7
ROMANS
  0
LINE
  8
DUN
 10
-40.0
 20
57.0
 30
0.0
 11
-40.0
 21
47.0
 31
0.0
  0
TEXT
  8
DUN
 10
-43.75
 20
42.25
 30
0.0
 40
2.5
  1
Ruwheid NEN 3634
  7
ROMANS
  0
TEXT
  8
DUN
 10
-43.75
 20
36.25
 30
0.0
 40
2.5
  1
Maattol. NEN 406
  7
ROMANS
  0
TEXT
  8
DUN
 10
-43.75
 20
30.25
 30
0.0
 40
2.5
  1
Vorm/pl.tol NEN 1101
  7
ROMANS
  0
TEXT
  8
DUN
 10
-38.75
 20
48.25
 30
0.0
 40
2.5
  1
Opmerking
  7
ROMANS
  0
LINE
  8
DUN
 10
-55.0
 20
15.0
 30
0.0
 11
-55.0
 21
5.0
 31
0.0
  0
TEXT
  8
DUN
 10
-53.75
 20
11.25
 30
0.0
 40
2.5
  1
Tek.nr.
  7
ROMANS
  0
LINE
  8
DUN
 10
-45.0
 20
47.0
 30
0.0
 11
-45.0
 21
29.0
 31
0.0
  0
LINE
  8
DUN
 10
-12.5
 20
5.0
 30
0.0
 11
-12.5
 21
15.0
 31
0.0
  0
POINT
  8
DUN
 10
0.0
 20
5.0
 30
0.0
  0
POINT
  8
DIK
 10
0.0
 20
5.0
 30
0.0
  0
ENDBLK
  8
0
  0
BLOCK
  8
0
  2
REGEL
 70
     2
 10
0.0
 20
0.0
 30
0.0
  3
REGEL
  0
ATTDEF
  8
DUN
 10
-178.75
 20
1.25
 30
0.0
 40
2.5
  1

  3

  2
POS.NR.
 70
     0
  7
ROMANS
  0
ATTDEF
  8
DUN
 10
-166.25
 20
1.25
 30
0.0
 40
2.5
  1

  3

  2
AANTAL
 70
     0
  7
ROMANS
  0
ATTDEF
  8
DUN
 10
-153.75
 20
1.25
 30
0.0
 40
2.5
  1

  3

  2
BENAMING
 70
     0
  7
ROMANS
  0
ATTDEF
  8
DUN
 10
-103.75
 20
1.25
 30
0.0
 40
2.5
  1

  3

  2
MATERIAAL
 70
     0
  7
ROMANS
  0
ATTDEF
  8
DUN
 10
-78.75
 20
1.25
 30
0.0
 40
2.5
  1

  3

  2
AFMETINGEN
 70
     0
  7
ROMANS
  0
ATTDEF
  8
DUN
 10
-38.75
 20
1.25
 30
0.0
 40
2.5
  1

  3

  2
OPMERKINGEN
 70
     0
  7
ROMANS
  0
LINE
  8
DUN
 10
0.0
 20
5.0
 30
0.0
 11
-180.0
 21
5.0
 31
0.0
  0
LINE
  8
DUN
 10
-40.0
 20
5.0
 30
0.0
 11
-40.0
 21
0.0
 31
0.0
  0
LINE
  8
DUN
 10
-80.0
 20
5.0
 30
0.0
 11
-80.0
 21
0.0
 31
0.0
  0
LINE
  8
DUN
 10
-105.0
 20
5.0
 30
0.0
 11
-105.0
 21
0.0
 31
0.0
  0
LINE
  8
DUN
 10
-155.0
 20
5.0
 30
0.0
 11
-155.0
 21
0.0
 31
0.0
  0
LINE
  8
DUN
 10
-167.5
 20
5.0
 30
0.0
 11
-167.5
 21
0.0
 31
0.0
  0
LINE
  8
DIK
 10
-180.0
 20
5.0
 30
0.0
 11
-180.0
 21
0.0
 31
0.0
  0
ENDBLK
  8
0
  0
BLOCK
  8
0
  2
A0L
 70
     2
 10
0.0
 20
0.0
 30
0.0
  3
A0L
  0
LINE
  8
DUN
 10
0.0
 20
841.0
 30
0.0
 11
-1189.0
 21
841.0
 31
0.0
  0
LINE
  8
DUN
 10
-1189.0
 20
0.0
 30
0.0
 11
0.0
 21
0.0
 31
0.0
  0
POLYLINE
  8
DIK
 66
     1
 10
0.0
 20
0.0
 30
0.0
 70
     1
  0
VERTEX
  8
DIK
 10
-1169.0
 20
10.0
 30
0.0
  0
VERTEX
  8
DIK
 10
-10.0
 20
10.0
 30
0.0
  0
VERTEX
  8
DIK
 10
-10.0
 20
831.0
 30
0.0
  0
VERTEX
  8
DIK
 10
-1169.0
 20
831.0
 30
0.0
  0
SEQEND
  8
DIK
  0
LINE
  8
DUN
 10
-1189.0
 20
841.0
 30
0.0
 11
-1189.0
 21
0.0
 31
0.0
  0
LINE
  8
DUN
 10
-979.0
 20
0.0
 30
0.0
 11
-979.0
 21
10.0
 31
0.0
  0
LINE
  8
DUN
 10
-869.5
 20
0.0
 30
0.0
 11
-869.5
 21
10.0
 31
0.0
  0
LINE
  8
DUN
 10
-760.0
 20
0.0
 30
0.0
 11
-760.0
 21
10.0
 31
0.0
  0
LINE
  8
DUN
 10
-1189.0
 20
297.0
 30
0.0
 11
-1169.0
 21
297.0
 31
0.0
  0
LINE
  8
DUN
 10
-1189.0
 20
594.0
 30
0.0
 11
-1169.0
 21
594.0
 31
0.0
  0
LINE
  8
DUN
 10
-979.0
 20
831.0
 30
0.0
 11
-979.0
 21
841.0
 31
0.0
  0
LINE
  8
DUN
 10
-869.5
 20
831.0
 30
0.0
 11
-869.5
 21
841.0
 31
0.0
  0
LINE
  8
DUN
 10
-760.0
 20
831.0
 30
0.0
 11
-760.0
 21
841.0
 31
0.0
  0
LINE
  8
DUN
 10
0.0
 20
0.0
 30
0.0
 11
0.0
 21
841.0
 31
0.0
  0
LINE
  8
DUN
 10
-570.0
 20
0.0
 30
0.0
 11
-570.0
 21
10.0
 31
0.0
  0
LINE
  8
DUN
 10
-380.0
 20
0.0
 30
0.0
 11
-380.0
 21
10.0
 31
0.0
  0
INSERT
  8
HARTLIJN-DUBBEL
  2
TEKENH
 10
-10.0
 20
10.0
 30
0.0
  0
ATTDEF
  8
DUN
 10
-69.916666666667
 20
16.25
 30
0.0
 40
3.5
  1

  3

  2
TEKENINGNUMMER
 70
     0
  7
ROMANS
 72
     2
 11
-23.75
 21
16.25
 31
0.0
  0
LINE
  8
DUN
 10
-190.0
 20
0.0
 30
0.0
 11
-190.0
 21
10.0
 31
0.0
  0
ATTDEF
  8
DUN
 10
-140.416666666667
 20
46.25
 30
0.0
 40
2.5
  1
mm
  3

  2
MAATEENHEID
 70
     8
  7
ROMANS
 72
     2
 11
-116.25
 21
46.25
 31
0.0
  0
ATTDEF
  8
DUN
 10
-129.940476190476
 20
52.25
 30
0.0
 40
2.5
  1

  3

  2
SCHAAL
 70
     0
  7
ROMANS
 72
     2
 11
-116.25
 21
52.25
 31
0.0
  0
ATTDEF
  8
DUN
 10
-127.797619047619
 20
40.25
 30
0.0
 40
2.5
  1

  3

  2
DATUM
 70
     0
  7
ROMANS
 72
     2
 11
-116.25
 21
40.25
 31
0.0
  0
ATTDEF
  8
DUN
 10
-93.083333333333
 20
16.25
 30
0.0
 40
3.5
  1

  3

  2
OPDRACHT
 70
     0
  7
ROMANS
 72
     2
 11
-66.25
 21
16.25
 31
0.0
  0
ATTDEF
  8
DUN
 10
-74.702380952381
 20
52.25
 30
0.0
 40
2.5
  1

  3

  2
GETEKEND
 70
     0
  7
ROMANS
 72
     2
 11
-56.25
 21
52.25
 31
0.0
  0
ATTDEF
  8
DUN
 10
-74.702380952381
 20
46.25
 30
0.0
 40
2.5
  1

  3

  2
SEMESTER
 70
     0
  7
ROMANS
 72
     2
 11
-56.25
 21
46.25
 31
0.0
  0
ATTDEF
  8
DIK
 10
-48.690476190476
 20
27.5
 30
0.0
 40
5.0
  1

  3

  2
BENAMING
 70
     0
  7
ROMANS
 72
     2
 11
-12.5
 21
27.5
 31
0.0
  0
TEXT
  8
DUN
 10
-19.5
 20
18.5
 30
0.0
 40
3.0
  1
A0
 72
     2
 11
-15.0
 21
18.5
 31
0.0
  0
LINE
  8
DUN
 10
-570.0
 20
831.0
 30
0.0
 11
-570.0
 21
841.0
 31
0.0
  0
LINE
  8
DUN
 10
-380.0
 20
831.0
 30
0.0
 11
-380.0
 21
841.0
 31
0.0
  0
LINE
  8
DUN
 10
-10.0
 20
297.0
 30
0.0
 11
0.0
 21
297.0
 31
0.0
  0
LINE
  8
DUN
 10
-10.0
 20
594.0
 30
0.0
 11
0.0
 21
594.0
 31
0.0
  0
LINE
  8
DUN
 10
-190.0
 20
831.0
 30
0.0
 11
-190.0
 21
841.0
 31
0.0
  0
ENDBLK
  8
0
  0
BLOCK
  8
0
  2
A0S
 70
     2
 10
0.0
 20
0.0
 30
0.0
  3
A0S
  0
LINE
  8
DUN
 10
-841.0
 20
1188.0
 30
0.0
 11
-841.0
 21
0.0
 31
0.0
  0
LINE
  8
DUN
 10
0.0
 20
0.0
 30
0.0
 11
0.0
 21
1188.0
 31
0.0
  0
POLYLINE
  8
DIK
 66
     1
 10
0.0
 20
0.0
 30
0.0
 70
     1
  0
VERTEX
  8
DIK
 10
-821.0
 20
10.0
 30
0.0
  0
VERTEX
  8
DIK
 10
-10.0
 20
10.0
 30
0.0
  0
VERTEX
  8
DIK
 10
-10.0
 20
1178.0
 30
0.0
  0
VERTEX
  8
DIK
 10
-821.0
 20
1178.0
 30
0.0
  0
SEQEND
  8
DIK
  0
LINE
  8
DUN
 10
-841.0
 20
0.0
 30
0.0
 11
0.0
 21
0.0
 31
0.0
  0
LINE
  8
DUN
 10
-631.0
 20
0.0
 30
0.0
 11
-631.0
 21
10.0
 31
0.0
  0
LINE
  8
DUN
 10
-505.5
 20
0.0
 30
0.0
 11
-505.5
 21
10.0
 31
0.0
  0
LINE
  8
DUN
 10
-380.0
 20
0.0
 30
0.0
 11
-380.0
 21
10.0
 31
0.0
  0
INSERT
  8
DUN
  2
TEKENH
 10
-10.0
 20
10.0
 30
0.0
  0
ATTDEF
  8
DUN
 10
-69.916666666667
 20
16.25
 30
0.0
 40
3.5
  1

  3

  2
TEKENINGNUMMER
 70
     0
  7
ROMANS
 72
     2
 11
-23.75
 21
16.25
 31
0.0
  0
LINE
  8
DUN
 10
-190.0
 20
0.0
 30
0.0
 11
-190.0
 21
10.0
 31
0.0
  0
ATTDEF
  8
DUN
 10
-140.416666666667
 20
46.25
 30
0.0
 40
2.5
  1
mm
  3

  2
MAATEENHEID
 70
     8
  7
ROMANS
 72
     2
 11
-116.25
 21
46.25
 31
0.0
  0
ATTDEF
  8
DUN
 10
-129.940476190476
 20
52.25
 30
0.0
 40
2.5
  1

  3

  2
SCHAAL
 70
     0
  7
ROMANS
 72
     2
 11
-116.25
 21
52.25
 31
0.0
  0
ATTDEF
  8
DUN
 10
-127.797619047619
 20
40.25
 30
0.0
 40
2.5
  1

  3

  2
DATUM
 70
     0
  7
ROMANS
 72
     2
 11
-116.25
 21
40.25
 31
0.0
  0
ATTDEF
  8
DUN
 10
-93.083333333333
 20
16.25
 30
0.0
 40
3.5
  1

  3

  2
OPDRACHT
 70
     0
  7
ROMANS
 72
     2
 11
-66.25
 21
16.25
 31
0.0
  0
ATTDEF
  8
DUN
 10
-74.702380952381
 20
52.25
 30
0.0
 40
2.5
  1

  3

  2
GETEKEND
 70
     0
  7
ROMANS
 72
     2
 11
-56.25
 21
52.25
 31
0.0
  0
ATTDEF
  8
DUN
 10
-74.702380952381
 20
46.25
 30
0.0
 40
2.5
  1

  3

  2
SEMESTER
 70
     0
  7
ROMANS
 72
     2
 11
-56.25
 21
46.25
 31
0.0
  0
ATTDEF
  8
DIK
 10
-48.690476190476
 20
27.5
 30
0.0
 40
5.0
  1

  3

  2
BENAMING
 70
     0
  7
ROMANS
 72
     2
 11
-12.5
 21
27.5
 31
0.0
  0
TEXT
  8
DUN
 10
-19.5
 20
18.5
 30
0.0
 40
3.0
  1
A0
 72
     2
 11
-15.0
 21
18.5
 31
0.0
  0
LINE
  8
DUN
 10
0.0
 20
1188.0
 30
0.0
 11
-841.0
 21
1188.0
 31
0.0
  0
LINE
  8
DUN
 10
-841.0
 20
297.0
 30
0.0
 11
-821.0
 21
297.0
 31
0.0
  0
LINE
  8
DUN
 10
-841.0
 20
594.0
 30
0.0
 11
-821.0
 21
594.0
 31
0.0
  0
LINE
  8
DUN
 10
-841.0
 20
891.0
 30
0.0
 11
-821.0
 21
891.0
 31
0.0
  0
LINE
  8
DUN
 10
-10.0
 20
297.0
 30
0.0
 11
0.0
 21
297.0
 31
0.0
  0
LINE
  8
DUN
 10
-10.0
 20
594.0
 30
0.0
 11
0.0
 21
594.0
 31
0.0
  0
LINE
  8
DUN
 10
-631.0
 20
1178.0
 30
0.0
 11
-631.0
 21
1188.0
 31
0.0
  0
LINE
  8
DUN
 10
-505.5
 20
1178.0
 30
0.0
 11
-505.5
 21
1188.0
 31
0.0
  0
LINE
  8
DUN
 10
-380.0
 20
1178.0
 30
0.0
 11
-380.0
 21
1188.0
 31
0.0
  0
LINE
  8
DUN
 10
-10.0
 20
891.0
 30
0.0
 11
0.0
 21
891.0
 31
0.0
  0
LINE
  8
DUN
 10
-190.0
 20
1178.0
 30
0.0
 11
-190.0
 21
1188.0
 31
0.0
  0
ENDBLK
  8
0
  0
BLOCK
  8
0
  2
A1S
 70
     2
 10
0.0
 20
0.0
 30
0.0
  3
A1S
  0
LINE
  8
DIK
 10
-10.0
 20
830.0
 30
0.0
 11
-574.0
 21
830.0
 31
0.0
  0
LINE
  8
DIK
 10
-574.0
 20
10.0
 30
0.0
 11
-10.0
 21
10.0
 31
0.0
  0
LINE
  8
DUN
 10
0.0
 20
840.0
 30
0.0
 11
-594.0
 21
840.0
 31
0.0
  0
LINE
  8
DUN
 10
-594.0
 20
0.0
 30
0.0
 11
0.0
 21
0.0
 31
0.0
  0
LINE
  8
DIK
 10
-574.0
 20
830.0
 30
0.0
 11
-574.0
 21
10.0
 31
0.0
  0
LINE
  8
DUN
 10
-594.0
 20
840.0
 30
0.0
 11
-594.0
 21
0.0
 31
0.0
  0
LINE
  8
DUN
 10
-594.0
 20
297.0
 30
0.0
 11
-574.0
 21
297.0
 31
0.0
  0
LINE
  8
DUN
 10
-594.0
 20
594.0
 30
0.0
 11
-574.0
 21
594.0
 31
0.0
  0
LINE
  8
DIK
 10
-10.0
 20
10.0
 30
0.0
 11
-10.0
 21
830.0
 31
0.0
  0
LINE
  8
DUN
 10
0.0
 20
0.0
 30
0.0
 11
0.0
 21
840.0
 31
0.0
  0
INSERT
  8
DUN
  2
TEKENH
 10
-10.0
 20
10.0
 30
0.0
  0
ATTDEF
  8
DUN
 10
-74.702380952381
 20
52.25
 30
0.0
 40
2.5
  1

  3

  2
GETEKEND
 70
     0
  7
ROMANS
 72
     2
 11
-56.25
 21
52.25
 31
0.0
  0
ATTDEF
  8
DUN
 10
-74.702380952381
 20
46.25
 30
0.0
 40
2.5
  1

  3

  2
SEMESTER
 70
     0
  7
ROMANS
 72
     2
 11
-56.25
 21
46.25
 31
0.0
  0
ATTDEF
  8
DUN
 10
-69.916666666667
 20
16.25
 30
0.0
 40
3.5
  1

  3

  2
TEKENINGNUMMER
 70
     0
  7
ROMANS
 72
     2
 11
-23.75
 21
16.25
 31
0.0
  0
LINE
  8
DUN
 10
-478.0
 20
0.0
 30
0.0
 11
-478.0
 21
10.0
 31
0.0
  0
LINE
  8
DUN
 10
-382.0
 20
0.0
 30
0.0
 11
-382.0
 21
10.0
 31
0.0
  0
LINE
  8
DUN
 10
-286.0
 20
0.0
 30
0.0
 11
-286.0
 21
10.0
 31
0.0
  0
LINE
  8
DUN
 10
-190.0
 20
0.0
 30
0.0
 11
-190.0
 21
10.0
 31
0.0
  0
ATTDEF
  8
DUN
 10
-129.940476190476
 20
52.25
 30
0.0
 40
2.5
  1

  3

  2
SCHAAL
 70
     0
  7
ROMANS
 72
     2
 11
-116.25
 21
52.25
 31
0.0
  0
ATTDEF
  8
DUN
 10
-140.416666666667
 20
46.25
 30
0.0
 40
2.5
  1
mm
  3

  2
MAATEENHEID
 70
     8
  7
ROMANS
 72
     2
 11
-116.25
 21
46.25
 31
0.0
  0
ATTDEF
  8
DUN
 10
-127.797619047619
 20
40.25
 30
0.0
 40
2.5
  1

  3

  2
DATUM
 70
     0
  7
ROMANS
 72
     2
 11
-116.25
 21
40.25
 31
0.0
  0
ATTDEF
  8
DUN
 10
-93.083333333333
 20
16.25
 30
0.0
 40
3.5
  1

  3

  2
OPDRACHT
 70
     0
  7
ROMANS
 72
     2
 11
-66.25
 21
16.25
 31
0.0
  0
TEXT
  8
DUN
 10
-19.0
 20
18.5
 30
0.0
 40
3.0
  1
A1
 72
     2
 11
-15.0
 21
18.5
 31
0.0
  0
ATTDEF
  8
DIK
 10
-48.690476190476
 20
27.5
 30
0.0
 40
5.0
  1

  3

  2
BENAMING
 70
     0
  7
ROMANS
 72
     2
 11
-12.5
 21
27.5
 31
0.0
  0
LINE
  8
DUN
 10
-478.0
 20
830.0
 30
0.0
 11
-478.0
 21
840.0
 31
0.0
  0
LINE
  8
DUN
 10
-382.0
 20
830.0
 30
0.0
 11
-382.0
 21
840.0
 31
0.0
  0
LINE
  8
DUN
 10
-286.0
 20
830.0
 30
0.0
 11
-286.0
 21
840.0
 31
0.0
  0
LINE
  8
DUN
 10
-190.0
 20
830.0
 30
0.0
 11
-190.0
 21
840.0
 31
0.0
  0
LINE
  8
DUN
 10
-10.0
 20
297.0
 30
0.0
 11
0.0
 21
297.0
 31
0.0
  0
LINE
  8
DUN
 10
-10.0
 20
594.0
 30
0.0
 11
0.0
 21
594.0
 31
0.0
  0
ENDBLK
  8
0
  0
BLOCK
  8
0
  2
A1L
 70
     2
 10
0.0
 20
0.0
 30
0.0
  3
A1L
  0
LINE
  8
DUN
 10
0.0
 20
594.0
 30
0.0
 11
-841.0
 21
594.0
 31
0.0
  0
LINE
  8
DUN
 10
-841.0
 20
0.0
 30
0.0
 11
0.0
 21
0.0
 31
0.0
  0
POLYLINE
  8
DIK
 66
     1
 10
0.0
 20
0.0
 30
0.0
 70
     1
  0
VERTEX
  8
DIK
 10
-821.0
 20
10.0
 30
0.0
  0
VERTEX
  8
DIK
 10
-10.0
 20
10.0
 30
0.0
  0
VERTEX
  8
DIK
 10
-10.0
 20
584.0
 30
0.0
  0
VERTEX
  8
DIK
 10
-821.0
 20
584.0
 30
0.0
  0
SEQEND
  8
DIK
  0
LINE
  8
DUN
 10
-841.0
 20
594.0
 30
0.0
 11
-841.0
 21
0.0
 31
0.0
  0
LINE
  8
DUN
 10
-631.0
 20
0.0
 30
0.0
 11
-631.0
 21
10.0
 31
0.0
  0
LINE
  8
DUN
 10
-505.5
 20
0.0
 30
0.0
 11
-505.5
 21
10.0
 31
0.0
  0
LINE
  8
DUN
 10
-505.5
 20
584.0
 30
0.0
 11
-505.5
 21
594.0
 31
0.0
  0
LINE
  8
DUN
 10
-631.0
 20
584.0
 30
0.0
 11
-631.0
 21
594.0
 31
0.0
  0
LINE
  8
DUN
 10
-841.0
 20
297.0
 30
0.0
 11
-821.0
 21
297.0
 31
0.0
  0
LINE
  8
DUN
 10
0.0
 20
0.0
 30
0.0
 11
0.0
 21
594.0
 31
0.0
  0
INSERT
  8
HARTLIJN-DUBBEL
  2
TEKENH
 10
-10.0
 20
10.0
 30
0.0
  0
ATTDEF
  8
DUN
 10
-93.083333333334
 20
16.25
 30
0.0
 40
3.5
  1

  3

  2
OPDRACHT
 70
     0
  7
ROMANS
 72
     2
 11
-66.25
 21
16.25
 31
0.0
  0
LINE
  8
DUN
 10
-380.0
 20
0.0
 30
0.0
 11
-380.0
 21
10.0
 31
0.0
  0
LINE
  8
DUN
 10
-190.0
 20
0.0
 30
0.0
 11
-190.0
 21
10.0
 31
0.0
  0
ATTDEF
  8
DUN
 10
-140.416666666667
 20
46.25
 30
0.0
 40
2.5
  1
mm
  3

  2
MAATEENHEID
 70
     8
  7
ROMANS
 72
     2
 11
-116.25
 21
46.25
 31
0.0
  0
ATTDEF
  8
DUN
 10
-129.940476190476
 20
52.25
 30
0.0
 40
2.5
  1

  3

  2
SCHAAL
 70
     0
  7
ROMANS
 72
     2
 11
-116.25
 21
52.25
 31
0.0
  0
ATTDEF
  8
DUN
 10
-127.797619047619
 20
40.25
 30
0.0
 40
2.5
  1

  3

  2
DATUM
 70
     0
  7
ROMANS
 72
     2
 11
-116.25
 21
40.25
 31
0.0
  0
ATTDEF
  8
DUN
 10
-69.916666666667
 20
16.25
 30
0.0
 40
3.5
  1

  3

  2
TEKENINGNUMMER
 70
     0
  7
ROMANS
 72
     2
 11
-23.75
 21
16.25
 31
0.0
  0
ATTDEF
  8
DIK
 10
-48.690476190476
 20
27.5
 30
0.0
 40
5.0
  1

  3

  2
BENAMING
 70
     0
  7
ROMANS
 72
     2
 11
-12.5
 21
27.5
 31
0.0
  0
ATTDEF
  8
DUN
 10
-74.702380952381
 20
52.25
 30
0.0
 40
2.5
  1

  3

  2
GETEKEND
 70
     0
  7
ROMANS
 72
     2
 11
-56.25
 21
52.25
 31
0.0
  0
ATTDEF
  8
DUN
 10
-74.702380952381
 20
46.25
 30
0.0
 40
2.5
  1

  3

  2
SEMESTER
 70
     0
  7
ROMANS
 72
     2
 11
-56.25
 21
46.25
 31
0.0
  0
TEXT
  8
DUN
 10
-19.0
 20
18.5
 30
0.0
 40
3.0
  1
A1
 72
     2
 11
-15.0
 21
18.5
 31
0.0
  0
LINE
  8
DUN
 10
-190.0
 20
584.0
 30
0.0
 11
-190.0
 21
594.0
 31
0.0
  0
LINE
  8
DUN
 10
-380.0
 20
584.0
 30
0.0
 11
-380.0
 21
594.0
 31
0.0
  0
LINE
  8
DUN
 10
-10.0
 20
297.0
 30
0.0
 11
0.0
 21
297.0
 31
0.0
  0
ENDBLK
  8
0
  0
BLOCK
  8
0
  2
A2L
 70
     2
 10
0.0
 20
0.0
 30
0.0
  3
A2L
  0
LINE
  8
DUN
 10
0.0
 20
420.0
 30
0.0
 11
-594.0
 21
420.0
 31
0.0
  0
LINE
  8
DUN
 10
-594.0
 20
0.0
 30
0.0
 11
0.0
 21
0.0
 31
0.0
  0
POLYLINE
  8
DIK
 66
     1
 10
0.0
 20
0.0
 30
0.0
 70
     1
  0
VERTEX
  8
DIK
 10
-574.0
 20
10.0
 30
0.0
  0
VERTEX
  8
DIK
 10
-10.0
 20
10.0
 30
0.0
  0
VERTEX
  8
DIK
 10
-10.0
 20
410.0
 30
0.0
  0
VERTEX
  8
DIK
 10
-574.0
 20
410.0
 30
0.0
  0
SEQEND
  8
DIK
  0
LINE
  8
DUN
 10
-594.0
 20
420.0
 30
0.0
 11
-594.0
 21
0.0
 31
0.0
  0
LINE
  8
DUN
 10
-594.0
 20
297.0
 30
0.0
 11
-574.0
 21
297.0
 31
0.0
  0
LINE
  8
DUN
 10
0.0
 20
0.0
 30
0.0
 11
0.0
 21
420.0
 31
0.0
  0
INSERT
  8
DIK
  2
TEKENH
 10
-10.0
 20
10.0
 30
0.0
  0
ATTDEF
  8
DUN
 10
-74.702380952381
 20
52.25
 30
0.0
 40
2.5
  1

  3

  2
GETEKEND
 70
     0
  7
ROMANS
 72
     2
 11
-56.25
 21
52.25
 31
0.0
  0
ATTDEF
  8
DUN
 10
-74.702380952381
 20
46.25
 30
0.0
 40
2.5
  1

  3

  2
SEMESTER
 70
     0
  7
ROMANS
 72
     2
 11
-56.25
 21
46.25
 31
0.0
  0
ATTDEF
  8
DUN
 10
-69.916666666667
 20
16.25
 30
0.0
 40
3.5
  1

  3

  2
TEKENINGNUMMER
 70
     0
  7
ROMANS
 72
     2
 11
-23.75
 21
16.25
 31
0.0
  0
LINE
  8
DUN
 10
-478.0
 20
0.0
 30
0.0
 11
-478.0
 21
10.0
 31
0.0
  0
LINE
  8
DUN
 10
-382.0
 20
0.0
 30
0.0
 11
-382.0
 21
10.0
 31
0.0
  0
LINE
  8
DUN
 10
-286.0
 20
0.0
 30
0.0
 11
-286.0
 21
10.0
 31
0.0
  0
LINE
  8
DUN
 10
-190.0
 20
0.0
 30
0.0
 11
-190.0
 21
10.0
 31
0.0
  0
ATTDEF
  8
DUN
 10
-140.416666666667
 20
46.25
 30
0.0
 40
2.5
  1
mm
  3

  2
MAATEENHEID
 70
     8
  7
ROMANS
 72
     2
 11
-116.25
 21
46.25
 31
0.0
  0
ATTDEF
  8
DUN
 10
-129.940476190476
 20
52.25
 30
0.0
 40
2.5
  1

  3

  2
SCHAAL
 70
     0
  7
ROMANS
 72
     2
 11
-116.25
 21
52.25
 31
0.0
  0
ATTDEF
  8
DUN
 10
-127.797619047619
 20
40.25
 30
0.0
 40
2.5
  1

  3

  2
DATUM
 70
     0
  7
ROMANS
 72
     2
 11
-116.25
 21
40.25
 31
0.0
  0
ATTDEF
  8
DUN
 10
-93.083333333333
 20
16.25
 30
0.0
 40
3.5
  1

  3

  2
OPDRACHT
 70
     0
  7
ROMANS
 72
     2
 11
-66.25
 21
16.25
 31
0.0
  0
ATTDEF
  8
DIK
 10
-48.690476190476
 20
27.5
 30
0.0
 40
5.0
  1

  3

  2
BENAMING
 70
     0
  7
ROMANS
 72
     2
 11
-12.5
 21
27.5
 31
0.0
  0
TEXT
  8
DUN
 10
-20.0
 20
18.5
 30
0.0
 40
3.0
  1
A2
 72
     2
 11
-15.0
 21
18.5
 31
0.0
  0
LINE
  8
DUN
 10
-478.0
 20
410.0
 30
0.0
 11
-478.0
 21
420.0
 31
0.0
  0
LINE
  8
DUN
 10
-382.0
 20
410.0
 30
0.0
 11
-382.0
 21
420.0
 31
0.0
  0
LINE
  8
DUN
 10
-286.0
 20
410.0
 30
0.0
 11
-286.0
 21
420.0
 31
0.0
  0
LINE
  8
DUN
 10
-190.0
 20
410.0
 30
0.0
 11
-190.0
 21
420.0
 31
0.0
  0
LINE
  8
DUN
 10
-10.0
 20
297.0
 30
0.0
 11
0.0
 21
297.0
 31
0.0
  0
ENDBLK
  8
0
  0
BLOCK
  8
0
  2
A2S
 70
     2
 10
0.0
 20
0.0
 30
0.0
  3
A2S
  0
LINE
  8
DIK
 10
-400.0
 20
584.0
 30
0.0
 11
-400.0
 21
10.0
 31
0.0
  0
LINE
  8
DIK
 10
-10.0
 20
10.0
 30
0.0
 11
-10.0
 21
584.0
 31
0.0
  0
LINE
  8
DUN
 10
-420.0
 20
594.0
 30
0.0
 11
-420.0
 21
0.0
 31
0.0
  0
LINE
  8
DUN
 10
0.0
 20
0.0
 30
0.0
 11
0.0
 21
594.0
 31
0.0
  0
LINE
  8
DIK
 10
-400.0
 20
10.0
 30
0.0
 11
-10.0
 21
10.0
 31
0.0
  0
LINE
  8
DUN
 10
-420.0
 20
0.0
 30
0.0
 11
0.0
 21
0.0
 31
0.0
  0
INSERT
  8
DIK
  2
TEKENH
 10
-10.0
 20
10.0
 30
0.0
  0
ATTDEF
  8
DUN
 10
-93.083333333334
 20
16.25
 30
0.0
 40
3.5
  1

  3

  2
OPDRACHT
 70
     0
  7
ROMANS
 72
     2
 11
-66.25
 21
16.25
 31
0.0
  0
LINE
  8
DUN
 10
-295.0
 20
0.0
 30
0.0
 11
-295.0
 21
10.0
 31
0.0
  0
LINE
  8
DUN
 10
-420.0
 20
297.0
 30
0.0
 11
-400.0
 21
297.0
 31
0.0
  0
LINE
  8
DUN
 10
-190.0
 20
0.0
 30
0.0
 11
-190.0
 21
10.0
 31
0.0
  0
ATTDEF
  8
DUN
 10
-140.416666666667
 20
46.25
 30
0.0
 40
2.5
  1
mm
  3

  2
MAATEENHEID
 70
     8
  7
ROMANS
 72
     2
 11
-116.25
 21
46.25
 31
0.0
  0
ATTDEF
  8
DUN
 10
-127.797619047619
 20
40.25
 30
0.0
 40
2.5
  1

  3

  2
DATUM
 70
     0
  7
ROMANS
 72
     2
 11
-116.25
 21
40.25
 31
0.0
  0
ATTDEF
  8
DUN
 10
-129.940476190476
 20
52.25
 30
0.0
 40
2.5
  1

  3

  2
SCHAAL
 70
     0
  7
ROMANS
 72
     2
 11
-116.25
 21
52.25
 31
0.0
  0
ATTDEF
  8
DUN
 10
-69.916666666667
 20
16.25
 30
0.0
 40
3.5
  1

  3

  2
TEKENINGNUMMER
 70
     0
  7
ROMANS
 72
     2
 11
-23.75
 21
16.25
 31
0.0
  0
ATTDEF
  8
DIK
 10
-48.690476190476
 20
27.5
 30
0.0
 40
5.0
  1

  3

  2
BENAMING
 70
     0
  7
ROMANS
 72
     2
 11
-12.5
 21
27.5
 31
0.0
  0
ATTDEF
  8
DUN
 10
-74.702380952381
 20
46.25
 30
0.0
 40
2.5
  1

  3

  2
SEMESTER
 70
     0
  7
ROMANS
 72
     2
 11
-56.25
 21
46.25
 31
0.0
  0
TEXT
  8
DUN
 10
-20.0
 20
28.5
 30
0.0
 40
3.0
  1
A2
 72
     2
 11
-15.0
 21
28.5
 31
0.0
  0
ATTDEF
  8
DUN
 10
-74.702380952381
 20
52.25
 30
0.0
 40
2.5
  1

  3

  2
GETEKEND
 70
     0
  7
ROMANS
 72
     2
 11
-56.25
 21
52.25
 31
0.0
  0
LINE
  8
DUN
 10
-10.0
 20
297.0
 30
0.0
 11
0.0
 21
297.0
 31
0.0
  0
LINE
  8
DIK
 10
-10.0
 20
584.0
 30
0.0
 11
-400.0
 21
584.0
 31
0.0
  0
LINE
  8
DUN
 10
0.0
 20
594.0
 30
0.0
 11
-420.0
 21
594.0
 31
0.0
  0
LINE
  8
DUN
 10
-295.0
 20
584.0
 30
0.0
 11
-295.0
 21
594.0
 31
0.0
  0
LINE
  8
DUN
 10
-190.0
 20
584.0
 30
0.0
 11
-190.0
 21
594.0
 31
0.0
  0
ENDBLK
  8
0
  0
BLOCK
  8
0
  2
A3S
 70
     2
 10
0.0
 20
0.0
 30
0.0
  3
A3S
  0
LINE
  8
DIK
 10
-277.0
 20
410.0
 30
0.0
 11
-277.0
 21
10.0
 31
0.0
  0
LINE
  8
DIK
 10
-10.0
 20
10.0
 30
0.0
 11
-10.0
 21
410.0
 31
0.0
  0
LINE
  8
DUN
 10
-297.0
 20
420.0
 30
0.0
 11
-297.0
 21
0.0
 31
0.0
  0
LINE
  8
DUN
 10
0.0
 20
0.0
 30
0.0
 11
0.0
 21
420.0
 31
0.0
  0
LINE
  8
DIK
 10
-277.0
 20
10.0
 30
0.0
 11
-10.0
 21
10.0
 31
0.0
  0
LINE
  8
DUN
 10
-297.0
 20
0.0
 30
0.0
 11
0.0
 21
0.0
 31
0.0
  0
LINE
  8
DUN
 10
-233.5
 20
0.0
 30
0.0
 11
-233.5
 21
10.0
 31
0.0
  0
LINE
  8
DUN
 10
-297.0
 20
297.0
 30
0.0
 11
-277.0
 21
297.0
 31
0.0
  0
INSERT
  8
0
  2
TEKENH
 10
-10.0
 20
10.0
 30
0.0
  0
ATTDEF
  8
DUN
 10
-129.940476190476
 20
52.25
 30
0.0
 40
2.5
  1

  3

  2
SCHAAL
 70
     0
  7
ROMANS
 72
     2
 11
-116.25
 21
52.25
 31
0.0
  0
LINE
  8
DUN
 10
-190.0
 20
0.0
 30
0.0
 11
-190.0
 21
10.0
 31
0.0
  0
ATTDEF
  8
DUN
 10
-140.416666666667
 20
46.25
 30
0.0
 40
2.5
  1
mm
  3

  2
MAATEENHEID
 70
     8
  7
ROMANS
 72
     2
 11
-116.25
 21
46.25
 31
0.0
  0
ATTDEF
  8
DUN
 10
-127.797619047619
 20
40.25
 30
0.0
 40
2.5
  1

  3

  2
DATUM
 70
     0
  7
ROMANS
 72
     2
 11
-116.25
 21
40.25
 31
0.0
  0
ATTDEF
  8
DUN
 10
-74.702380952381
 20
52.25
 30
0.0
 40
2.5
  1

  3

  2
GETEKEND
 70
     0
  7
ROMANS
 72
     2
 11
-56.25
 21
52.25
 31
0.0
  0
ATTDEF
  8
DUN
 10
-69.916666666667
 20
16.25
 30
0.0
 40
3.5
  1

  3

  2
TEKENINGNUMMER
 70
     0
  7
ROMANS
 72
     2
 11
-23.75
 21
16.25
 31
0.0
  0
ATTDEF
  8
DUN
 10
-93.083333333333
 20
16.25
 30
0.0
 40
3.5
  1

  3

  2
OPDRACHT
 70
     0
  7
ROMANS
 72
     2
 11
-66.25
 21
16.25
 31
0.0
  0
ATTDEF
  8
DUN
 10
-74.702380952381
 20
46.25
 30
0.0
 40
2.5
  1

  3

  2
SEMESTER
 70
     0
  7
ROMANS
 72
     2
 11
-56.25
 21
46.25
 31
0.0
  0
ATTDEF
  8
DIK
 10
-48.690476190476
 20
27.5
 30
0.0
 40
5.0
  1

  3

  2
BENAMING
 70
     0
  7
ROMANS
 72
     2
 11
-12.5
 21
27.5
 31
0.0
  0
TEXT
  8
DUN
 10
-20.0
 20
18.5
 30
0.0
 40
3.0
  1
A3
 72
     2
 11
-15.0
 21
18.5
 31
0.0
  0
LINE
  8
DUN
 10
-10.0
 20
297.0
 30
0.0
 11
0.0
 21
297.0
 31
0.0
  0
LINE
  8
DIK
 10
-10.0
 20
410.0
 30
0.0
 11
-277.0
 21
410.0
 31
0.0
  0
LINE
  8
DUN
 10
0.0
 20
420.0
 30
0.0
 11
-297.0
 21
420.0
 31
0.0
  0
LINE
  8
DUN
 10
-233.5
 20
410.0
 30
0.0
 11
-233.5
 21
420.0
 31
0.0
  0
LINE
  8
DUN
 10
-190.0
 20
410.0
 30
0.0
 11
-190.0
 21
420.0
 31
0.0
  0
ENDBLK
  8
0
  0
BLOCK
  8
0
  2
A3L
 70
     2
 10
0.0
 20
0.0
 30
0.0
  3
A3L
  0
LINE
  8
DUN
 10
-420.0
 20
297.0
 30
0.0
 11
0.0
 21
297.0
 31
0.0
  0
LINE
  8
DUN
 10
0.0
 20
0.0
 30
0.0
 11
-420.0
 21
0.0
 31
0.0
  0
LINE
  8
DIK
 10
-400.0
 20
287.0
 30
0.0
 11
-10.0
 21
287.0
 31
0.0
  0
LINE
  8
DIK
 10
-10.0
 20
10.0
 30
0.0
 11
-400.0
 21
10.0
 31
0.0
  0
LINE
  8
DUN
 10
-420.0
 20
0.0
 30
0.0
 11
-420.0
 21
297.0
 31
0.0
  0
LINE
  8
DIK
 10
-400.0
 20
10.0
 30
0.0
 11
-400.0
 21
287.0
 31
0.0
  0
INSERT
  8
0
  2
TEKENH
 10
-10.0
 20
10.0
 30
0.0
  0
LINE
  8
DUN
 10
-295.0
 20
10.0
 30
0.0
 11
-295.0
 21
0.0
 31
0.0
  0
LINE
  8
DUN
 10
-190.0
 20
10.0
 30
0.0
 11
-190.0
 21
0.0
 31
0.0
  0
ATTDEF
  8
DUN
 10
-127.797619047619
 20
40.25
 30
0.0
 40
2.5
  1

  3

  2
DATUM
 70
     0
  7
ROMANS
 72
     2
 11
-116.25
 21
40.25
 31
0.0
  0
ATTDEF
  8
DUN
 10
-129.940476190476
 20
52.25
 30
0.0
 40
2.5
  1

  3

  2
SCHAAL
 70
     0
  7
ROMANS
 72
     2
 11
-116.25
 21
52.25
 31
0.0
  0
ATTDEF
  8
DUN
 10
-140.416666666667
 20
46.25
 30
0.0
 40
2.5
  1
mm
  3

  2
MAATEENHEID
 70
     8
  7
ROMANS
 72
     2
 11
-116.25
 21
46.25
 31
0.0
  0
LINE
  8
DUN
 10
-295.0
 20
297.0
 30
0.0
 11
-295.0
 21
287.0
 31
0.0
  0
LINE
  8
DUN
 10
-190.0
 20
297.0
 30
0.0
 11
-190.0
 21
287.0
 31
0.0
  0
LINE
  8
DUN
 10
0.0
 20
297.0
 30
0.0
 11
0.0
 21
0.0
 31
0.0
  0
LINE
  8
DIK
 10
-10.0
 20
287.0
 30
0.0
 11
-10.0
 21
10.0
 31
0.0
  0
ATTDEF
  8
DUN
 10
-69.916666666667
 20
16.25
 30
0.0
 40
3.5
  1

  3

  2
TEKENINGNUMMER
 70
     0
  7
ROMANS
 72
     2
 11
-23.75
 21
16.25
 31
0.0
  0
ATTDEF
  8
DUN
 10
-93.083333333333
 20
16.25
 30
0.0
 40
3.5
  1

  3

  2
OPDRACHT
 70
     0
  7
ROMANS
 72
     2
 11
-66.25
 21
16.25
 31
0.0
  0
ATTDEF
  8
DIK
 10
-48.690476190476
 20
27.5
 30
0.0
 40
5.0
  1

  3

  2
BENAMING
 70
     0
  7
ROMANS
 72
     2
 11
-12.5
 21
27.5
 31
0.0
  0
TEXT
  8
DUN
 10
-20.0
 20
18.5
 30
0.0
 40
3.0
  1
A3
 72
     2
 11
-15.0
 21
18.5
 31
0.0
  0
ATTDEF
  8
DUN
 10
-74.702380952381
 20
52.25
 30
0.0
 40
2.5
  1

  3

  2
GETEKEND
 70
     0
  7
ROMANS
 72
     2
 11
-56.25
 21
52.25
 31
0.0
  0
ATTDEF
  8
DUN
 10
-74.702380952381
 20
46.25
 30
0.0
 40
2.5
  1

  3

  2
SEMESTER
 70
     0
  7
ROMANS
 72
     2
 11
-56.25
 21
46.25
 31
0.0
  0
ENDBLK
  8
0
  0
BLOCK
  8
0
  2
PIJLP
 70
     0
 10
0.0
 20
0.0
 30
0.0
  3
PIJLP
  0
LINE
  8
0
  6
BYBLOCK
 62
     0
 10
0.0
 20
0.0
 30
0.0
 11
-1.0
 21
0.1666665
 31
0.0
  0
LINE
  8
0
  6
BYBLOCK
 62
     0
 10
0.0
 20
0.0
 30
0.0
 11
-1.0
 21
-0.1666665
 31
0.0
  0
LINE
  8
0
  6
BYBLOCK
 62
     0
 10
-1.0
 20
0.1666665
 30
0.0
 11
-1.0
 21
-0.1666665
 31
0.0
  0
ENDBLK
  8
0
  0
BLOCK
  8
0
  2
ACAD1C46
 70
     0
 10
0.0
 20
0.0
 30
0.0
  3
ACAD1C46
  0
LINE
  8
DIK
 10
2523.258905887266
 20
4094.608821982904
 30
0.0
 11
2973.258905887266
 21
4094.608821982904
 31
0.0
  0
LINE
  8
DIK
 10
2523.258905887266
 20
3955.3359739189
 30
0.0
 11
4423.258905887269
 21
3955.3359739189
 31
0.0
  0
LINE
  8
DIK
 10
2523.258905887268
 20
4037.2511783478
 30
0.0
 11
4423.258905887268
 21
4037.251178347799
 31
0.0
  0
DIMENSION
  8
DUN
  2
*D12
 10
5933.258905887267
 20
6546.659841049042
 30
0.0
 11
3473.258905887268
 21
6616.659841049043
 31
0.0
  1
4900
 13
1013.258905887268
 23
6005.391802102487
 33
0.0
 14
5933.258905887267
 24
6012.331135935135
 34
0.0
  3
STANDAARD
  0
LINE
  8
DIK
 10
1013.258905887268
 20
6253.986244612342
 30
0.0
 11
5933.258905887267
 21
6253.986244612342
 31
0.0
  0
LINE
  8
DIK
 10
1013.258905887268
 20
1824.197223515947
 30
0.0
 11
5933.258905887267
 21
1824.197223515947
 31
0.0
  0
DIMENSION
  8
DUN
  2
*D13
 10
767.86948442447
 20
1824.197223515947
 30
0.0
 11
697.86948442447
 21
4039.091734064145
 31
0.0
  1
4400
 13
1316.277129531532
 23
6253.986244612342
 33
0.0
 14
1198.265354720823
 24
1824.197223515947
 34
0.0
 50
90.0
  3
STANDAARD
  0
LINE
  8
DIK
 10
1013.258905887268
 20
6253.986244612342
 30
0.0
 11
1013.258905887268
 21
1824.197223515947
 31
0.0
  0
DIMENSION
  8
DUN
  2
*D14
 10
1013.258905887268
 20
4048.499685618301
 30
0.0
 11
1763.258905887268
 21
4118.499685618301
 31
0.0
 13
2513.258905887268
 23
4034.621017953003
 33
0.0
 14
1013.258905887268
 24
4048.499685618301
 34
0.0
  3
STANDAARD
  0
LINE
  8
DIK
 10
2523.258905887268
 20
4094.608821982904
 30
0.0
 11
2523.258905887268
 21
3955.3359739189
 31
0.0
  0
LINE
  8
DIK
 10
2513.258905887268
 20
4091.608821982904
 30
0.0
 11
2513.258905887268
 21
3958.3359739189
 31
0.0
  0
LINE
  8
DIK
 10
2523.258905887268
 20
3958.3359739189
 30
0.0
 11
2513.258905887268
 21
3958.3359739189
 31
0.0
  0
LINE
  8
DIK
 10
2523.258905887268
 20
4091.608821982904
 30
0.0
 11
2513.258905887268
 21
4091.608821982904
 31
0.0
  0
LINE
  8
DIK
 10
5933.258905887267
 20
6253.986244612342
 30
0.0
 11
5933.258905887267
 21
1824.197223515947
 31
0.0
  0
DIMENSION
  8
DUN
  2
*D15
 10
3030.918820301182
 20
6253.986244612342
 30
0.0
 11
2960.918820301182
 21
5503.986244612342
 31
0.0
 13
3017.03506921149
 23
4753.986244612342
 33
0.0
 14
3079.511888308618
 24
6253.986244612342
 34
0.0
 50
90.0
  3
STANDAARD
  0
LINE
  8
DIK
 10
3073.258905887266
 20
4655.577923822765
 30
0.0
 11
3873.258905887266
 21
4655.577923822765
 31
0.0
  0
LINE
  8
DIK
 10
3073.258905887266
 20
4613.577923822764
 30
0.0
 11
3873.258905887266
 21
4613.577923822764
 31
0.0
  0
LINE
  8
DIK
 10
3073.258905887267
 20
4483.50499291745
 30
0.0
 11
3873.258905887267
 21
4483.50499291745
 31
0.0
  0
LINE
  8
DIK
 10
3073.258905887267
 20
4441.50499291745
 30
0.0
 11
3873.258905887267
 21
4441.50499291745
 31
0.0
  0
LINE
  8
DIK
 10
3073.258905887267
 20
4094.608821982904
 30
0.0
 11
3873.258905887265
 21
4094.608821982904
 31
0.0
  0
LINE
  8
DIK
 10
3073.258905887267
 20
4269.432062012135
 30
0.0
 11
3873.258905887267
 21
4269.432062012135
 31
0.0
  0
LINE
  8
DIK
 10
3073.258905887267
 20
4311.432062012136
 30
0.0
 11
3873.258905887267
 21
4311.432062012136
 31
0.0
  0
LINE
  8
DIK
 10
2623.258905887267
 20
4094.608821982904
 30
0.0
 11
2623.258905887267
 21
4250.281711467564
 31
0.0
  0
LINE
  8
DIK
 10
2723.258905887267
 20
4094.608821982904
 30
0.0
 11
2723.258905887266
 21
4250.281711467564
 31
0.0
  0
LINE
  8
DIK
 10
3073.258905887267
 20
4037.2511783478
 30
0.0
 11
3073.258905887267
 21
4753.986244612342
 31
0.0
  0
LINE
  8
DIK
 10
2973.258905887266
 20
4037.2511783478
 30
0.0
 11
2973.258905887266
 21
4753.986244612342
 31
0.0
  0
LINE
  8
DIK
 10
2723.258905887267
 20
3324.197223515947
 30
0.0
 11
2723.258905887267
 21
3955.335973918901
 31
0.0
  0
LINE
  8
DIK
 10
2623.258905887267
 20
3324.197223515947
 30
0.0
 11
2623.258905887267
 21
3955.3359739189
 31
0.0
  0
LINE
  8
DIK
 10
2623.258905887267
 20
3324.197223515947
 30
0.0
 11
2723.258905887267
 21
3324.197223515947
 31
0.0
  0
LINE
  8
DIK
 10
2652.258905887267
 20
4168.366507038664
 30
0.0
 11
2652.258905887267
 21
4094.608821982904
 31
0.0
  0
LINE
  8
DIK
 10
2694.258905887267
 20
4168.366507038664
 30
0.0
 11
2694.258905887267
 21
4094.608821982904
 31
0.0
  0
POLYLINE
  8
DIK
 66
     1
 10
0.0
 20
0.0
 30
0.0
 70
     1
  0
VERTEX
  8
DIK
 10
2684.465602938293
 20
3994.372132587698
 30
0.0
 42
0.133223216557
  0
VERTEX
  8
DIK
 10
2683.598954563871
 20
3997.567021408043
 30
0.0
 42
0.106753618288
  0
VERTEX
  8
DIK
 10
2680.823262044207
 20
4000.591843250722
 30
0.0
 42
0.08284259485
 70
     2
 50
144.727593125782
  0
VERTEX
  8
DIK
 10
2676.95621766966
 20
4002.46132651186
 30
0.0
 42
0.071371869756
 50
144.727593125782
  0
VERTEX
  8
DIK
 10
2672.029873258919
 20
4003.168131761384
 30
0.0
 42
0.071371869756
  0
VERTEX
  8
DIK
 10
2667.103528848179
 20
4002.46132651186
 30
0.0
 42
0.08284259485
  0
VERTEX
  8
DIK
 10
2663.23648447363
 20
4000.591843250722
 30
0.0
 42
0.106753618288
 70
     2
 50
215.272406874218
  0
VERTEX
  8
DIK
 10
2660.460791953967
 20
3997.567021408044
 30
0.0
 42
0.133223216557
 50
215.272406874218
  0
VERTEX
  8
DIK
 10
2659.594143579545
 20
3994.372132587698
 30
0.0
 42
0.133223216557
  0
VERTEX
  8
DIK
 10
2660.460791953966
 20
3991.177243767352
 30
0.0
 42
0.106753618288
  0
VERTEX
  8
DIK
 10
2663.23648447363
 20
3988.152421924673
 30
0.0
 42
0.08284259485
 70
     2
 50
324.727593125782
  0
VERTEX
  8
DIK
 10
2667.103528848179
 20
3986.282938663536
 30
0.0
 42
0.071371869756
 50
324.727593125782
  0
VERTEX
  8
DIK
 10
2672.029873258919
 20
3985.576133414013
 30
0.0
 42
0.071371869756
  0
VERTEX
  8
DIK
 10
2676.95621766966
 20
3986.282938663537
 30
0.0
 42
0.08284259485
  0
VERTEX
  8
DIK
 10
2680.823262044207
 20
3988.152421924673
 30
0.0
 42
0.106753618288
 70
     2
 50
35.272406874218
  0
VERTEX
  8
DIK
 10
2683.59895456387
 20
3991.177243767351
 30
0.0
 42
0.133223216557
 50
35.272406874218
  0
SEQEND
  8
DIK
  0
POLYLINE
  8
DIK
 66
     1
 10
0.0
 20
0.0
 30
0.0
  0
VERTEX
  8
DIK
 10
2694.258905887267
 20
4168.366507038664
 30
0.0
 42
0.147930405564
  0
VERTEX
  8
DIK
 10
2692.857715686874
 20
4172.998845409825
 30
0.0
 42
0.10712198275
  0
VERTEX
  8
DIK
 10
2688.108148292185
 20
4177.603476272039
 30
0.0
 42
0.076221767252
 70
     2
 50
148.11632785357
  0
VERTEX
  8
DIK
 10
2681.65343477393
 20
4180.365458191966
 30
0.0
 42
0.06312775161
 50
148.11632785357
  0
VERTEX
  8
DIK
 10
2673.258905887267
 20
4181.429554203727
 30
0.0
 42
0.06312775161
  0
VERTEX
  8
DIK
 10
2664.864377000605
 20
4180.365458191966
 30
0.0
 42
0.076221767252
  0
VERTEX
  8
DIK
 10
2658.40966348235
 20
4177.603476272039
 30
0.0
 42
0.10712198275
 70
     2
 50
211.88367214643
  0
VERTEX
  8
DIK
 10
2653.660096087661
 20
4172.998845409825
 30
0.0
 42
0.147930405564
 50
211.88367214643
  0
VERTEX
  8
DIK
 10
2652.258905887267
 20
4168.366507038664
 30
0.0
 42
0.147930405564
  0
SEQEND
  8
DIK
  0
LINE
  8
DIK
 10
2973.258905887266
 20
4119.166382776699
 30
0.0
 11
3073.258905887267
 21
4119.166382776699
 31
0.0
  0
LINE
  8
DIK
 10
2623.258905887267
 20
4250.281711467564
 30
0.0
 11
2723.258905887266
 21
4250.281711467564
 31
0.0
  0
ARC
  8
DIK
 10
2973.258905887268
 20
4462.50499291745
 30
0.0
 40
17.5
 50
90.0
 51
270.0
  0
ARC
  8
DIK
 10
2973.258905887268
 20
4290.432062012136
 30
0.0
 40
17.5
 50
90.0
 51
270.0
  0
ARC
  8
DIK
 10
2973.258905887267
 20
4634.577923822764
 30
0.0
 40
17.5
 50
90.0
 51
270.0
  0
LINE
  8
DIK
 10
2973.258905887266
 20
4753.986244612342
 30
0.0
 11
3073.258905887267
 21
4753.986244612342
 31
0.0
  0
LINE
  8
DIK
 10
4223.258905887266
 20
4094.608821982919
 30
0.0
 11
4223.258905887264
 21
4250.281711467579
 31
0.0
  0
LINE
  8
DIK
 10
4323.258905887266
 20
4094.608821982921
 30
0.0
 11
4323.258905887264
 21
4250.28171146758
 31
0.0
  0
LINE
  8
DIK
 10
4223.258905887266
 20
4094.608821982904
 30
0.0
 11
4223.258905887266
 21
4250.281711467564
 31
0.0
  0
LINE
  8
DIK
 10
4323.258905887267
 20
4094.608821982904
 30
0.0
 11
4323.258905887267
 21
4250.281711467564
 31
0.0
  0
LINE
  8
DIK
 10
3973.258905887267
 20
4037.2511783478
 30
0.0
 11
3973.258905887267
 21
4753.986244612341
 31
0.0
  0
LINE
  8
DIK
 10
3873.258905887266
 20
4037.251178347799
 30
0.0
 11
3873.258905887266
 21
4753.986244612342
 31
0.0
  0
LINE
  8
DIK
 10
3973.258905887267
 20
4094.608821982904
 30
0.0
 11
4423.258905887269
 21
4094.608821982904
 31
0.0
  0
LINE
  8
DIK
 10
3873.258905887266
 20
4119.166382776699
 30
0.0
 11
3973.258905887268
 21
4119.166382776699
 31
0.0
  0
LINE
  8
DIK
 10
4223.258905887266
 20
3324.197223515947
 30
0.0
 11
4223.258905887266
 21
3955.3359739189
 31
0.0
  0
LINE
  8
DIK
 10
4323.258905887267
 20
3324.197223515947
 30
0.0
 11
4323.258905887267
 21
3955.3359739189
 31
0.0
  0
LINE
  8
DIK
 10
4223.258905887266
 20
3324.197223515947
 30
0.0
 11
4323.258905887267
 21
3324.197223515947
 31
0.0
  0
POLYLINE
  8
DIK
 66
     1
 10
0.0
 20
0.0
 30
0.0
  0
VERTEX
  8
DIK
 10
4252.258905887265
 20
4168.36650703868
 30
0.0
 42
-0.147930405564
  0
VERTEX
  8
DIK
 10
4253.660096087657
 20
4172.998845409841
 30
0.0
 42
-0.10712198275
  0
VERTEX
  8
DIK
 10
4258.409663482348
 20
4177.603476272055
 30
0.0
 42
-0.076221767252
 70
     2
 50
31.883672146431
  0
VERTEX
  8
DIK
 10
4264.864377000602
 20
4180.365458191982
 30
0.0
 42
-0.06312775161
  0
VERTEX
  8
DIK
 10
4273.258905887264
 20
4181.429554203743
 30
0.0
 42
-0.06312775161
  0
VERTEX
  8
DIK
 10
4281.653434773928
 20
4180.365458191982
 30
0.0
 42
-0.076221767252
  0
VERTEX
  8
DIK
 10
4288.108148292183
 20
4177.603476272056
 30
0.0
 42
-0.10712198275
 70
     2
 50
328.116327853571
  0
VERTEX
  8
DIK
 10
4292.857715686871
 20
4172.998845409841
 30
0.0
 42
-0.147930405564
  0
VERTEX
  8
DIK
 10
4294.258905887264
 20
4168.36650703868
 30
0.0
 42
-0.147930405564
  0
SEQEND
  8
DIK
  0
POLYLINE
  8
DIK
 66
     1
 10
0.0
 20
0.0
 30
0.0
 70
     1
  0
VERTEX
  8
DIK
 10
4262.052208836243
 20
3994.372132587713
 30
0.0
 42
-0.133223216557
  0
VERTEX
  8
DIK
 10
4262.918857210665
 20
3997.567021408059
 30
0.0
 42
-0.106753618288
  0
VERTEX
  8
DIK
 10
4265.694549730328
 20
4000.591843250738
 30
0.0
 42
-0.08284259485
 70
     2
 50
35.272406874219
  0
VERTEX
  8
DIK
 10
4269.561594104875
 20
4002.461326511876
 30
0.0
 42
-0.071371869756
  0
VERTEX
  8
DIK
 10
4274.487938515617
 20
4003.168131761399
 30
0.0
 42
-0.071371869756
  0
VERTEX
  8
DIK
 10
4279.414282926357
 20
4002.461326511877
 30
0.0
 42
-0.08284259485
  0
VERTEX
  8
DIK
 10
4283.281327300906
 20
4000.591843250738
 30
0.0
 42
-0.106753618288
 70
     2
 50
324.727593125783
  0
VERTEX
  8
DIK
 10
4286.057019820568
 20
3997.56702140806
 30
0.0
 42
-0.133223216557
  0
VERTEX
  8
DIK
 10
4286.923668194991
 20
3994.372132587713
 30
0.0
 42
-0.133223216557
  0
VERTEX
  8
DIK
 10
4286.057019820569
 20
3991.177243767369
 30
0.0
 42
-0.106753618288
  0
VERTEX
  8
DIK
 10
4283.281327300906
 20
3988.152421924689
 30
0.0
 42
-0.08284259485
 70
     2
 50
215.272406874219
  0
VERTEX
  8
DIK
 10
4279.414282926357
 20
3986.282938663551
 30
0.0
 42
-0.071371869756
  0
VERTEX
  8
DIK
 10
4274.487938515617
 20
3985.576133414028
 30
0.0
 42
-0.071371869756
  0
VERTEX
  8
DIK
 10
4269.561594104875
 20
3986.282938663553
 30
0.0
 42
-0.08284259485
  0
VERTEX
  8
DIK
 10
4265.694549730328
 20
3988.152421924689
 30
0.0
 42
-0.106753618288
 70
     2
 50
144.727593125783
  0
VERTEX
  8
DIK
 10
4262.918857210665
 20
3991.177243767366
 30
0.0
 42
-0.133223216557
  0
SEQEND
  8
DIK
  0
LINE
  8
DIK
 10
4252.258905887265
 20
4168.36650703868
 30
0.0
 11
4252.258905887266
 21
4094.608821982919
 31
0.0
  0
LINE
  8
DIK
 10
4294.258905887264
 20
4168.36650703868
 30
0.0
 11
4294.258905887266
 21
4094.60882198292
 31
0.0
  0
LINE
  8
DIK
 10
4433.258905887267
 20
4091.608821982904
 30
0.0
 11
4433.258905887267
 21
3958.3359739189
 31
0.0
  0
LINE
  8
DIK
 10
4423.258905887268
 20
4094.608821982904
 30
0.0
 11
4423.258905887268
 21
3955.3359739189
 31
0.0
  0
LINE
  8
DIK
 10
4423.258905887268
 20
3958.3359739189
 30
0.0
 11
4433.258905887267
 21
3958.3359739189
 31
0.0
  0
LINE
  8
DIK
 10
4423.258905887268
 20
4091.608821982904
 30
0.0
 11
4433.258905887267
 21
4091.608821982904
 31
0.0
  0
LINE
  8
DIK
 10
3873.258905887266
 20
4753.986244612342
 30
0.0
 11
3973.258905887268
 21
4753.986244612342
 31
0.0
  0
ARC
  8
DIK
 10
3973.258905887267
 20
4290.432062012136
 30
0.0
 40
17.5
 50
270.0
 51
90.0
  0
ARC
  8
DIK
 10
3973.258905887267
 20
4462.50499291745
 30
0.0
 40
17.5
 50
270.0
 51
90.0
  0
ARC
  8
DIK
 10
3973.258905887266
 20
4634.577923822764
 30
0.0
 40
17.5
 50
270.0
 51
90.0
  0
LINE
  8
DIK
 10
4223.258905887264
 20
4250.281711467564
 30
0.0
 11
4323.258905887264
 21
4250.281711467564
 31
0.0
  0
ENDBLK
  8
0
  0
BLOCK
  8
0
  2
*D12
 70
    65
 10
0.0
 20
0.0
 30
0.0
  3
*D
  0
LINE
  8
0
  6
BYBLOCK
 10
1013.258905887268
 20
6005.391802102487
 30
0.0
 11
1013.258905887268
 21
6547.659841049044
 31
0.0
  0
LINE
  8
0
  6
BYBLOCK
 10
5933.258905887267
 20
6012.331135935135
 30
0.0
 11
5933.258905887267
 21
6547.659841049044
 31
0.0
  0
LINE
  8
0
  6
BYBLOCK
 10
1113.258905887268
 20
6546.659841049042
 30
0.0
 11
5833.258905887267
 21
6546.659841049042
 31
0.0
  0
SOLID
  8
0
  6
BYBLOCK
 10
1113.258905887268
 20
6563.32650771571
 30
0.0
 11
1113.258905887268
 21
6529.993174382376
 31
0.0
 12
1013.258905887268
 22
6546.659841049042
 32
0.0
 13
1013.258905887268
 23
6546.659841049042
 33
0.0
  0
SOLID
  8
0
  6
BYBLOCK
 10
5833.258905887267
 20
6563.32650771571
 30
0.0
 11
5833.258905887267
 21
6529.993174382376
 31
0.0
 12
5933.258905887267
 22
6546.659841049042
 32
0.0
 13
5933.258905887267
 23
6546.659841049042
 33
0.0
  0
TEXT
  8
0
  6
BYBLOCK
 10
3339.925572553934
 20
6581.659841049043
 30
0.0
 40
70.0
  1
4900
  7
ROMANS
 72
     1
 11
3473.258905887268
 21
6616.659841049043
 31
0.0
 73
     2
  0
POINT
  8
DEFPOINTS
  6
BYBLOCK
 62
     0
 10
1013.258905887268
 20
6005.391802102487
 30
0.0
  0
POINT
  8
DEFPOINTS
  6
BYBLOCK
 62
     0
 10
5933.258905887267
 20
6012.331135935135
 30
0.0
  0
POINT
  8
DEFPOINTS
  6
BYBLOCK
 62
     0
 10
5933.258905887267
 20
6546.659841049042
 30
0.0
  0
ENDBLK
  8
0
  0
BLOCK
  8
0
  2
*D13
 70
    65
 10
0.0
 20
0.0
 30
0.0
  3
*D
  0
LINE
  8
0
  6
BYBLOCK
 10
1316.277129531532
 20
6253.986244612342
 30
0.0
 11
766.86948442447
 21
6253.986244612342
 31
0.0
  0
LINE
  8
0
  6
BYBLOCK
 10
1198.265354720823
 20
1824.197223515947
 30
0.0
 11
766.86948442447
 21
1824.197223515947
 31
0.0
  0
LINE
  8
0
  6
BYBLOCK
 10
767.86948442447
 20
6153.986244612341
 30
0.0
 11
767.86948442447
 21
1924.197223515947
 31
0.0
  0
SOLID
  8
0
  6
BYBLOCK
 10
751.202817757804
 20
6153.986244612341
 30
0.0
 11
784.536151091137
 21
6153.986244612341
 31
0.0
 12
767.86948442447
 22
6253.986244612342
 32
0.0
 13
767.86948442447
 23
6253.986244612342
 33
0.0
  0
SOLID
  8
0
  6
BYBLOCK
 10
751.202817757804
 20
1924.197223515947
 30
0.0
 11
784.536151091137
 21
1924.197223515947
 31
0.0
 12
767.86948442447
 22
1824.197223515947
 32
0.0
 13
767.86948442447
 23
1824.197223515947
 33
0.0
  0
TEXT
  8
0
  6
BYBLOCK
 10
732.86948442447
 20
3905.758400730811
 30
0.0
 40
70.0
  1
4400
 50
90.0
  7
ROMANS
 72
     1
 11
697.86948442447
 21
4039.091734064145
 31
0.0
 73
     2
  0
POINT
  8
DEFPOINTS
  6
BYBLOCK
 62
     0
 10
1316.277129531532
 20
6253.986244612342
 30
0.0
  0
POINT
  8
DEFPOINTS
  6
BYBLOCK
 62
     0
 10
1198.265354720823
 20
1824.197223515947
 30
0.0
  0
POINT
  8
DEFPOINTS
  6
BYBLOCK
 62
     0
 10
767.86948442447
 20
1824.197223515947
 30
0.0
  0
ENDBLK
  8
0
  0
BLOCK
  8
0
  2
*D14
 70
    65
 10
0.0
 20
0.0
 30
0.0
  3
*D
  0
LINE
  8
0
  6
BYBLOCK
 10
2513.258905887268
 20
4034.621017953003
 30
0.0
 11
2513.258905887268
 21
4049.4996856183
 31
0.0
  0
LINE
  8
0
  6
BYBLOCK
 10
1013.258905887268
 20
4048.499685618301
 30
0.0
 11
1013.258905887268
 21
4049.4996856183
 31
0.0
  0
LINE
  8
0
  6
BYBLOCK
 10
2413.258905887268
 20
4048.499685618301
 30
0.0
 11
1113.258905887268
 21
4048.499685618301
 31
0.0
  0
SOLID
  8
0
  6
BYBLOCK
 10
2413.258905887268
 20
4065.166352284967
 30
0.0
 11
2413.258905887268
 21
4031.833018951634
 31
0.0
 12
2513.258905887268
 22
4048.499685618301
 32
0.0
 13
2513.258905887268
 23
4048.499685618301
 33
0.0
  0
SOLID
  8
0
  6
BYBLOCK
 10
1113.258905887268
 20
4065.166352284967
 30
0.0
 11
1113.258905887268
 21
4031.833018951634
 31
0.0
 12
1013.258905887268
 22
4048.499685618301
 32
0.0
 13
1013.258905887268
 23
4048.499685618301
 33
0.0
  0
TEXT
  8
0
  6
BYBLOCK
 10
1624.925572553935
 20
4083.499685618301
 30
0.0
 40
70.0
  1
1500
  7
ROMANS
 72
     1
 11
1763.258905887268
 21
4118.499685618301
 31
0.0
 73
     2
  0
POINT
  8
DEFPOINTS
  6
BYBLOCK
 62
     0
 10
2513.258905887268
 20
4034.621017953003
 30
0.0
  0
POINT
  8
DEFPOINTS
  6
BYBLOCK
 62
     0
 10
1013.258905887268
 20
4048.499685618301
 30
0.0
  0
POINT
  8
DEFPOINTS
  6
BYBLOCK
 62
     0
 10
1013.258905887268
 20
4048.499685618301
 30
0.0
  0
ENDBLK
  8
0
  0
BLOCK
  8
0
  2
*D15
 70
    65
 10
0.0
 20
0.0
 30
0.0
  3
*D
  0
LINE
  8
0
  6
BYBLOCK
 10
3017.03506921149
 20
4753.986244612342
 30
0.0
 11
3031.918820301183
 21
4753.986244612342
 31
0.0
  0
LINE
  8
0
  6
BYBLOCK
 10
3079.511888308618
 20
6253.986244612342
 30
0.0
 11
3029.918820301182
 21
6253.986244612342
 31
0.0
  0
LINE
  8
0
  6
BYBLOCK
 10
3030.918820301182
 20
4853.986244612341
 30
0.0
 11
3030.918820301182
 21
6153.986244612341
 31
0.0
  0
SOLID
  8
0
  6
BYBLOCK
 10
3014.252153634516
 20
4853.986244612341
 30
0.0
 11
3047.585486967849
 21
4853.986244612341
 31
0.0
 12
3030.918820301182
 22
4753.986244612342
 32
0.0
 13
3030.918820301182
 23
4753.986244612342
 33
0.0
  0
SOLID
  8
0
  6
BYBLOCK
 10
3014.252153634516
 20
6153.986244612341
 30
0.0
 11
3047.585486967849
 21
6153.986244612341
 31
0.0
 12
3030.918820301182
 22
6253.986244612342
 32
0.0
 13
3030.918820301182
 23
6253.986244612342
 33
0.0
  0
TEXT
  8
0
  6
BYBLOCK
 10
2995.918820301183
 20
5365.652911279008
 30
0.0
 40
70.0
  1
1500
 50
90.0
  7
ROMANS
 72
     1
 11
2960.918820301182
 21
5503.986244612342
 31
0.0
 73
     2
  0
POINT
  8
DEFPOINTS
  6
BYBLOCK
 62
     0
 10
3017.03506921149
 20
4753.986244612342
 30
0.0
  0
POINT
  8
DEFPOINTS
  6
BYBLOCK
 62
     0
 10
3079.511888308618
 20
6253.986244612342
 30
0.0
  0
POINT
  8
DEFPOINTS
  6
BYBLOCK
 62
     0
 10
3030.918820301182
 20
6253.986244612342
 30
0.0
  0
ENDBLK
  8
0
  0
BLOCK
  8
0
  2
ACAD1313
 70
     0
 10
0.0
 20
0.0
 30
0.0
  3
ACAD1313
  0
LINE
  8
DIK
 10
2455.662186672503
 20
3776.163552988097
 30
0.0
 11
2455.662186672503
 21
3909.436401052101
 31
0.0
  0
LINE
  8
DIK
 10
2465.662186672501
 20
3773.163552988097
 30
0.0
 11
2465.662186672501
 21
3912.436401052101
 31
0.0
  0
LINE
  8
DIK
 10
4365.662186672502
 20
3773.163552988097
 30
0.0
 11
4365.662186672502
 21
3912.436401052101
 31
0.0
  0
LINE
  8
DIK
 10
4375.6621866725
 20
3776.163552988097
 30
0.0
 11
4375.6621866725
 21
3909.436401052101
 31
0.0
  0
POLYLINE
  8
DIK
 66
     1
 10
0.0
 20
0.0
 30
0.0
 70
     1
  0
VERTEX
  8
DIK
 10
4204.455489621476
 20
3873.400242383303
 30
0.0
 42
0.133223216557
  0
VERTEX
  8
DIK
 10
4205.322137995898
 20
3870.205353562957
 30
0.0
 42
0.106753618288
  0
VERTEX
  8
DIK
 10
4208.097830515563
 20
3867.180531720279
 30
0.0
 42
0.08284259485
 70
     2
 50
324.727593125782
  0
VERTEX
  8
DIK
 10
4211.96487489011
 20
3865.311048459141
 30
0.0
 42
0.071371869756
 50
144.727593125782
  0
VERTEX
  8
DIK
 10
4216.891219300851
 20
3864.604243209618
 30
0.0
 42
0.071371869756
  0
VERTEX
  8
DIK
 10
4221.81756371159
 20
3865.311048459141
 30
0.0
 42
0.08284259485
  0
VERTEX
  8
DIK
 10
4225.684608086138
 20
3867.180531720279
 30
0.0
 42
0.106753618288
 70
     2
 50
35.272406874218
  0
VERTEX
  8
DIK
 10
4228.460300605803
 20
3870.205353562957
 30
0.0
 42
0.133223216557
 50
215.272406874218
  0
VERTEX
  8
DIK
 10
4229.326948980225
 20
3873.400242383303
 30
0.0
 42
0.133223216557
  0
VERTEX
  8
DIK
 10
4228.460300605803
 20
3876.595131203649
 30
0.0
 42
0.106753618288
  0
VERTEX
  8
DIK
 10
4225.684608086138
 20
3879.619953046328
 30
0.0
 42
0.08284259485
 70
     2
 50
144.727593125782
  0
VERTEX
  8
DIK
 10
4221.817563711592
 20
3881.489436307465
 30
0.0
 42
0.071371869756
 50
324.727593125782
  0
VERTEX
  8
DIK
 10
4216.891219300851
 20
3882.196241556988
 30
0.0
 42
0.071371869756
  0
VERTEX
  8
DIK
 10
4211.96487489011
 20
3881.489436307464
 30
0.0
 42
0.08284259485
  0
VERTEX
  8
DIK
 10
4208.097830515563
 20
3879.619953046328
 30
0.0
 42
0.106753618288
 70
     2
 50
215.272406874218
  0
VERTEX
  8
DIK
 10
4205.322137995898
 20
3876.59513120365
 30
0.0
 42
0.133223216557
 50
35.272406874218
  0
SEQEND
  8
DIK
  0
POLYLINE
  8
DIK
 66
     1
 10
0.0
 20
0.0
 30
0.0
 70
     1
  0
VERTEX
  8
DIK
 10
2626.868883723526
 20
3873.400242383287
 30
0.0
 42
-0.133223216557
  0
VERTEX
  8
DIK
 10
2626.002235349105
 20
3870.205353562943
 30
0.0
 42
-0.106753618288
  0
VERTEX
  8
DIK
 10
2623.226542829441
 20
3867.180531720263
 30
0.0
 42
-0.08284259485
 70
     2
 50
215.272406874219
  0
VERTEX
  8
DIK
 10
2619.359498454894
 20
3865.311048459125
 30
0.0
 42
-0.071371869756
  0
VERTEX
  8
DIK
 10
2614.433154044152
 20
3864.604243209602
 30
0.0
 42
-0.071371869756
  0
VERTEX
  8
DIK
 10
2609.506809633413
 20
3865.311048459125
 30
0.0
 42
-0.08284259485
  0
VERTEX
  8
DIK
 10
2605.639765258864
 20
3867.180531720263
 30
0.0
 42
-0.106753618288
 70
     2
 50
144.727593125783
  0
VERTEX
  8
DIK
 10
2602.864072739201
 20
3870.205353562941
 30
0.0
 42
-0.133223216557
  0
VERTEX
  8
DIK
 10
2601.997424364778
 20
3873.400242383287
 30
0.0
 42
-0.133223216557
  0
VERTEX
  8
DIK
 10
2602.8640727392
 20
3876.595131203632
 30
0.0
 42
-0.106753618288
  0
VERTEX
  8
DIK
 10
2605.639765258864
 20
3879.619953046312
 30
0.0
 42
-0.08284259485
 70
     2
 50
35.272406874219
  0
VERTEX
  8
DIK
 10
2609.506809633412
 20
3881.489436307449
 30
0.0
 42
-0.071371869756
  0
VERTEX
  8
DIK
 10
2614.433154044152
 20
3882.196241556972
 30
0.0
 42
-0.071371869756
  0
VERTEX
  8
DIK
 10
2619.359498454894
 20
3881.489436307448
 30
0.0
 42
-0.08284259485
  0
VERTEX
  8
DIK
 10
2623.226542829441
 20
3879.619953046312
 30
0.0
 42
-0.106753618288
 70
     2
 50
324.727593125783
  0
VERTEX
  8
DIK
 10
2626.002235349103
 20
3876.595131203634
 30
0.0
 42
-0.133223216557
  0
SEQEND
  8
DIK
  0
INSERT
  8
DUN
 62
     1
  2
*X17
 10
0.0
 20
0.0
 30
0.0
1001
ACAD
1000
HATCH
1002
{
1070
    16
1000
AR-CONC
1040
1.0
1040
0.0
1002
}
  0
LINE
  8
DIK
 10
4365.662186672502
 20
3830.521196623201
 30
0.0
 11
2465.662186672501
 21
3830.521196623202
 31
0.0
  0
LINE
  8
DIK
 10
3815.662186672503
 20
3254.194451148237
 30
0.0
 11
3015.662186672502
 21
3254.194451148237
 31
0.0
  0
LINE
  8
DIK
 10
3815.662186672503
 20
3212.194451148237
 30
0.0
 11
3015.662186672502
 21
3212.194451148237
 31
0.0
  0
LINE
  8
DIK
 10
3815.662186672503
 20
3556.340312958865
 30
0.0
 11
3015.662186672502
 21
3556.340312958865
 31
0.0
  0
LINE
  8
DIK
 10
3815.662186672503
 20
3598.340312958865
 30
0.0
 11
3015.662186672502
 21
3598.340312958865
 31
0.0
  0
LINE
  8
DIK
 10
3815.662186672503
 20
3384.26738205355
 30
0.0
 11
3015.662186672502
 21
3384.26738205355
 31
0.0
  0
LINE
  8
DIK
 10
3815.662186672503
 20
3426.267382053551
 30
0.0
 11
3015.662186672502
 21
3426.267382053551
 31
0.0
  0
LINE
  8
DIK
 10
3815.662186672503
 20
3773.163552988097
 30
0.0
 11
3015.662186672503
 21
3773.163552988097
 31
0.0
  0
POLYLINE
  8
DIK
 66
     1
 10
0.0
 20
0.0
 30
0.0
  0
VERTEX
  8
DIK
 10
2636.662186672505
 20
3699.405867932322
 30
0.0
 42
-0.147930405564
  0
VERTEX
  8
DIK
 10
2635.260996472112
 20
3694.77352956116
 30
0.0
 42
-0.10712198275
  0
VERTEX
  8
DIK
 10
2630.511429077421
 20
3690.168898698946
 30
0.0
 42
-0.076221767252
 70
     2
 50
211.883672146431
  0
VERTEX
  8
DIK
 10
2624.056715559167
 20
3687.40691677902
 30
0.0
 42
-0.06312775161
  0
VERTEX
  8
DIK
 10
2615.662186672505
 20
3686.342820767258
 30
0.0
 42
-0.06312775161
  0
VERTEX
  8
DIK
 10
2607.267657785842
 20
3687.40691677902
 30
0.0
 42
-0.076221767252
  0
VERTEX
  8
DIK
 10
2600.812944267587
 20
3690.168898698945
 30
0.0
 42
-0.10712198275
 70
     2
 50
148.116327853571
  0
VERTEX
  8
DIK
 10
2596.063376872898
 20
3694.77352956116
 30
0.0
 42
-0.147930405564
  0
VERTEX
  8
DIK
 10
2594.662186672505
 20
3699.405867932321
 30
0.0
 42
-0.147930405564
  0
SEQEND
  8
DIK
  0
LINE
  8
DIK
 10
2665.662186672505
 20
3617.490663503438
 30
0.0
 11
2565.662186672505
 21
3617.490663503438
 31
0.0
  0
LINE
  8
DIK
 10
2915.662186672502
 20
3773.163552988097
 30
0.0
 11
2465.662186672501
 21
3773.163552988097
 31
0.0
  0
LINE
  8
DIK
 10
2565.662186672502
 20
3773.163552988097
 30
0.0
 11
2565.662186672502
 21
3617.490663503438
 31
0.0
  0
LINE
  8
DIK
 10
2565.662186672503
 20
3773.16355298808
 30
0.0
 11
2565.662186672505
 21
3617.490663503421
 31
0.0
  0
LINE
  8
DIK
 10
2594.662186672505
 20
3699.405867932321
 30
0.0
 11
2594.662186672503
 21
3773.16355298808
 31
0.0
  0
LINE
  8
DIK
 10
2465.662186672501
 20
3776.163552988097
 30
0.0
 11
2455.662186672503
 21
3776.163552988097
 31
0.0
  0
POLYLINE
  8
DIK
 66
     1
 10
0.0
 20
0.0
 30
0.0
  0
VERTEX
  8
DIK
 10
2815.662186672502
 20
3282.471886310265
 30
0.0
  0
VERTEX
  8
DIK
 10
2815.662186672502
 20
2682.471886310266
 30
0.0
  0
VERTEX
  8
DIK
 10
3115.662186672502
 20
2682.471886310266
 30
0.0
  0
VERTEX
  8
DIK
 10
3115.662186672502
 20
3212.194451148237
 30
0.0
  0
SEQEND
  8
DIK
  0
POLYLINE
  8
DIK
 66
     1
 10
0.0
 20
0.0
 30
0.0
  0
VERTEX
  8
DIK
 10
3115.662186672502
 20
3254.194451148237
 30
0.0
  0
VERTEX
  8
DIK
 10
3115.662186672502
 20
3282.471886310265
 30
0.0
  0
VERTEX
  8
DIK
 10
3015.662186672503
 20
3282.471886310266
 30
0.0
  0
SEQEND
  8
DIK
  0
LINE
  8
DIK
 10
2915.662186672502
 20
3830.521196623201
 30
0.0
 11
2915.662186672502
 21
2867.575453198519
 31
0.0
  0
LINE
  8
DIK
 10
3015.662186672503
 20
3830.521196623202
 30
0.0
 11
3015.662186672503
 21
2867.575453198519
 31
0.0
  0
LINE
  8
DIK
 10
3015.662186672503
 20
2867.575453198519
 30
0.0
 11
2915.662186672502
 21
2867.575453198519
 31
0.0
  0
ARC
  8
DIK
 10
2915.662186672502
 20
3233.194451148237
 30
0.0
 40
17.5
 50
90.0
 51
270.0
  0
ARC
  8
DIK
 10
2915.662186672502
 20
3577.340312958865
 30
0.0
 40
17.5
 50
90.0
 51
270.0
  0
POLYLINE
  8
DIK
 66
     1
 10
0.0
 20
0.0
 30
0.0
  0
VERTEX
  8
DIK
 10
2915.662186672502
 20
3282.471886310265
 30
0.0
  0
VERTEX
  8
DIK
 10
2815.662186672502
 20
3282.471886310265
 30
0.0
  0
SEQEND
  8
DIK
  0
ARC
  8
DIK
 10
2915.662186672502
 20
3405.267382053551
 30
0.0
 40
17.5
 50
90.0
 51
270.0
  0
LINE
  8
DIK
 10
2665.662186672503
 20
3773.163552988097
 30
0.0
 11
2665.662186672502
 21
3617.490663503438
 31
0.0
  0
LINE
  8
DIK
 10
2665.662186672503
 20
3773.163552988081
 30
0.0
 11
2665.662186672505
 21
3617.490663503423
 31
0.0
  0
LINE
  8
DIK
 10
2636.662186672505
 20
3699.405867932322
 30
0.0
 11
2636.662186672503
 21
3773.163552988081
 31
0.0
  0
LINE
  8
DIK
 10
3015.662186672503
 20
3748.605992194303
 30
0.0
 11
2915.662186672502
 21
3748.605992194303
 31
0.0
  0
LINE
  8
DIK
 10
4265.662186672503
 20
3617.490663503438
 30
0.0
 11
4165.662186672502
 21
3617.490663503438
 31
0.0
  0
LINE
  8
DIK
 10
4365.662186672502
 20
3773.163552988097
 30
0.0
 11
3915.662186672502
 21
3773.163552988097
 31
0.0
  0
POLYLINE
  8
DIK
 66
     1
 10
0.0
 20
0.0
 30
0.0
  0
VERTEX
  8
DIK
 10
3715.662186672502
 20
3212.194451148237
 30
0.0
  0
VERTEX
  8
DIK
 10
3715.662186672502
 20
2682.471886310266
 30
0.0
  0
VERTEX
  8
DIK
 10
4015.662186672503
 20
2682.471886310266
 30
0.0
  0
VERTEX
  8
DIK
 10
4015.662186672503
 20
3282.471886310265
 30
0.0
  0
VERTEX
  8
DIK
 10
3915.662186672502
 20
3282.471886310265
 30
0.0
  0
SEQEND
  8
DIK
  0
POLYLINE
  8
DUN
 66
     1
 10
0.0
 20
0.0
 30
0.0
  0
VERTEX
  8
DUN
 10
3715.662186672502
 20
3282.471886310265
 30
0.0
  0
VERTEX
  8
DUN
 10
3715.662186672502
 20
3254.194451148237
 30
0.0
  0
SEQEND
  8
DUN
  0
LINE
  8
DIK
 10
3815.662186672503
 20
3830.521196623201
 30
0.0
 11
3815.662186672502
 21
2867.575453198519
 31
0.0
  0
LINE
  8
DIK
 10
3915.662186672502
 20
3830.521196623201
 30
0.0
 11
3915.662186672502
 21
2867.575453198519
 31
0.0
  0
LINE
  8
DIK
 10
3915.662186672502
 20
2867.575453198519
 30
0.0
 11
3815.662186672502
 21
2867.575453198519
 31
0.0
  0
ARC
  8
DIK
 10
3915.662186672501
 20
3233.194451148237
 30
0.0
 40
17.5
 50
270.0
 51
90.0
  0
POLYLINE
  8
DIK
 66
     1
 10
0.0
 20
0.0
 30
0.0
  0
VERTEX
  8
DIK
 10
3815.662186672502
 20
3282.471886310265
 30
0.0
  0
VERTEX
  8
DIK
 10
3715.662186672502
 20
3282.471886310265
 30
0.0
  0
SEQEND
  8
DIK
  0
ARC
  8
DIK
 10
3915.662186672501
 20
3577.340312958865
 30
0.0
 40
17.5
 50
270.0
 51
90.0
  0
ARC
  8
DIK
 10
3915.662186672501
 20
3405.267382053551
 30
0.0
 40
17.5
 50
270.0
 51
90.0
  0
LINE
  8
DIK
 10
3915.662186672502
 20
3748.605992194303
 30
0.0
 11
3815.662186672503
 21
3748.605992194303
 31
0.0
  0
LINE
  8
DIK
 10
4165.662186672502
 20
3773.163552988097
 30
0.0
 11
4165.662186672502
 21
3617.490663503438
 31
0.0
  0
LINE
  8
DIK
 10
4265.662186672503
 20
3773.163552988097
 30
0.0
 11
4265.662186672503
 21
3617.490663503438
 31
0.0
  0
LINE
  8
DIK
 10
4236.662186672503
 20
3699.405867932338
 30
0.0
 11
4236.662186672503
 21
3773.163552988097
 31
0.0
  0
LINE
  8
DIK
 10
4194.662186672502
 20
3699.405867932338
 30
0.0
 11
4194.662186672502
 21
3773.163552988097
 31
0.0
  0
POLYLINE
  8
DIK
 66
     1
 10
0.0
 20
0.0
 30
0.0
  0
VERTEX
  8
DIK
 10
4194.662186672502
 20
3699.405867932338
 30
0.0
 42
0.147930405564
  0
VERTEX
  8
DIK
 10
4196.063376872896
 20
3694.773529561176
 30
0.0
 42
0.10712198275
  0
VERTEX
  8
DIK
 10
4200.812944267585
 20
3690.168898698961
 30
0.0
 42
0.076221767252
 70
     2
 50
328.11632785357
  0
VERTEX
  8
DIK
 10
4207.267657785838
 20
3687.406916779035
 30
0.0
 42
0.06312775161
 50
148.11632785357
  0
VERTEX
  8
DIK
 10
4215.662186672503
 20
3686.342820767273
 30
0.0
 42
0.06312775161
  0
VERTEX
  8
DIK
 10
4224.056715559164
 20
3687.406916779035
 30
0.0
 42
0.076221767252
  0
VERTEX
  8
DIK
 10
4230.511429077419
 20
3690.168898698961
 30
0.0
 42
0.10712198275
 70
     2
 50
31.88367214643
  0
VERTEX
  8
DIK
 10
4235.26099647211
 20
3694.773529561177
 30
0.0
 42
0.147930405564
 50
211.88367214643
  0
VERTEX
  8
DIK
 10
4236.662186672503
 20
3699.405867932338
 30
0.0
 42
0.147930405564
  0
SEQEND
  8
DIK
  0
LINE
  8
DIK
 10
4365.662186672502
 20
3776.163552988097
 30
0.0
 11
4375.6621866725
 21
3776.163552988097
 31
0.0
  0
LINE
  8
DIK
 10
4165.662186672502
 20
4738.925181821228
 30
0.0
 11
2665.662186672503
 21
4738.925181821229
 31
0.0
  0
LINE
  8
DIK
 10
4165.662186672502
 20
4796.282825456333
 30
0.0
 11
2665.662186672503
 21
4796.282825456333
 31
0.0
  0
LINE
  8
DIK
 10
4165.662186672502
 20
4882.874745974437
 30
0.0
 11
2665.662186672503
 21
4882.874745974437
 31
0.0
  0
LINE
  8
DIK
 10
4365.662186672502
 20
3912.436401052101
 30
0.0
 11
2465.662186672501
 21
3912.436401052101
 31
0.0
  0
LINE
  8
DIK
 10
2665.662186672503
 20
4935.555673520337
 30
0.0
 11
2565.662186672503
 21
4935.555673520338
 31
0.0
  0
LINE
  8
DIK
 10
2565.662186672503
 20
4935.555673520338
 30
0.0
 11
2565.662186672502
 21
3912.436401052101
 31
0.0
  0
LINE
  8
DIK
 10
2465.662186672501
 20
3909.436401052101
 30
0.0
 11
2455.662186672503
 21
3909.436401052101
 31
0.0
  0
LINE
  8
DIK
 10
2465.662186672503
 20
4882.874745974437
 30
0.0
 11
2465.662186672503
 21
4738.925181821228
 31
0.0
  0
LINE
  8
DIK
 10
2565.662186672503
 20
4738.925181821229
 30
0.0
 11
2465.662186672503
 21
4738.925181821229
 31
0.0
  0
LINE
  8
DIK
 10
2565.662186672503
 20
4796.282825456333
 30
0.0
 11
2465.662186672502
 21
4796.282825456333
 31
0.0
  0
LINE
  8
DIK
 10
2565.662186672503
 20
4882.874745974437
 30
0.0
 11
2465.662186672503
 21
4882.874745974437
 31
0.0
  0
POLYLINE
  8
DIK
 66
     1
 10
0.0
 20
0.0
 30
0.0
 70
     1
  0
VERTEX
  8
DIK
 10
2626.868883723526
 20
4894.298087517111
 30
0.0
 42
-0.133223216557
  0
VERTEX
  8
DIK
 10
2626.002235349105
 20
4891.103198696765
 30
0.0
 42
-0.106753618288
  0
VERTEX
  8
DIK
 10
2623.226542829441
 20
4888.078376854086
 30
0.0
 42
-0.08284259485
 70
     2
 50
215.272406874219
  0
VERTEX
  8
DIK
 10
2619.359498454894
 20
4886.208893592948
 30
0.0
 42
-0.071371869756
  0
VERTEX
  8
DIK
 10
2614.433154044152
 20
4885.502088343425
 30
0.0
 42
-0.071371869756
  0
VERTEX
  8
DIK
 10
2609.506809633413
 20
4886.208893592948
 30
0.0
 42
-0.08284259485
  0
VERTEX
  8
DIK
 10
2605.639765258864
 20
4888.078376854086
 30
0.0
 42
-0.106753618288
 70
     2
 50
144.727593125783
  0
VERTEX
  8
DIK
 10
2602.864072739201
 20
4891.103198696764
 30
0.0
 42
-0.133223216557
  0
VERTEX
  8
DIK
 10
2601.997424364778
 20
4894.298087517111
 30
0.0
 42
-0.133223216557
  0
VERTEX
  8
DIK
 10
2602.8640727392
 20
4897.492976337455
 30
0.0
 42
-0.106753618288
  0
VERTEX
  8
DIK
 10
2605.639765258864
 20
4900.517798180135
 30
0.0
 42
-0.08284259485
 70
     2
 50
35.272406874219
  0
VERTEX
  8
DIK
 10
2609.506809633412
 20
4902.387281441273
 30
0.0
 42
-0.071371869756
  0
VERTEX
  8
DIK
 10
2614.433154044152
 20
4903.094086690796
 30
0.0
 42
-0.071371869756
  0
VERTEX
  8
DIK
 10
2619.359498454894
 20
4902.387281441273
 30
0.0
 42
-0.08284259485
  0
VERTEX
  8
DIK
 10
2623.226542829441
 20
4900.517798180135
 30
0.0
 42
-0.106753618288
 70
     2
 50
324.727593125783
  0
VERTEX
  8
DIK
 10
2626.002235349103
 20
4897.492976337457
 30
0.0
 42
-0.133223216557
  0
SEQEND
  8
DIK
  0
LINE
  8
DIK
 10
2665.662186672503
 20
4935.555673520338
 30
0.0
 11
2665.662186672502
 21
3912.436401052101
 31
0.0
  0
LINE
  8
DIK
 10
4265.662186672503
 20
4935.555673520337
 30
0.0
 11
4165.662186672502
 21
4935.555673520337
 31
0.0
  0
LINE
  8
DIK
 10
4165.662186672502
 20
4935.555673520338
 30
0.0
 11
4165.662186672502
 21
3912.436401052099
 31
0.0
  0
LINE
  8
DIK
 10
4265.662186672503
 20
4935.555673520338
 30
0.0
 11
4265.662186672503
 21
3912.436401052101
 31
0.0
  0
LINE
  8
DIK
 10
4365.662186672502
 20
3909.436401052101
 30
0.0
 11
4375.6621866725
 21
3909.436401052101
 31
0.0
  0
LINE
  8
DIK
 10
4365.662186672502
 20
4882.874745974437
 30
0.0
 11
4365.662186672502
 21
4738.925181821228
 31
0.0
  0
LINE
  8
DIK
 10
4365.662186672502
 20
4738.925181821228
 30
0.0
 11
4265.662186672503
 21
4738.925181821228
 31
0.0
  0
LINE
  8
DIK
 10
4365.662186672503
 20
4796.282825456333
 30
0.0
 11
4265.662186672503
 21
4796.282825456333
 31
0.0
  0
LINE
  8
DIK
 10
4365.662186672502
 20
4882.874745974437
 30
0.0
 11
4265.662186672503
 21
4882.874745974437
 31
0.0
  0
POLYLINE
  8
DIK
 66
     1
 10
0.0
 20
0.0
 30
0.0
 70
     1
  0
VERTEX
  8
DIK
 10
4204.455489621476
 20
4894.298087517126
 30
0.0
 42
0.133223216557
  0
VERTEX
  8
DIK
 10
4205.322137995898
 20
4891.103198696782
 30
0.0
 42
0.106753618288
  0
VERTEX
  8
DIK
 10
4208.097830515563
 20
4888.078376854103
 30
0.0
 42
0.08284259485
 70
     2
 50
324.727593125782
  0
VERTEX
  8
DIK
 10
4211.96487489011
 20
4886.208893592965
 30
0.0
 42
0.071371869756
 50
144.727593125782
  0
VERTEX
  8
DIK
 10
4216.891219300851
 20
4885.502088343441
 30
0.0
 42
0.071371869756
  0
VERTEX
  8
DIK
 10
4221.81756371159
 20
4886.208893592965
 30
0.0
 42
0.08284259485
  0
VERTEX
  8
DIK
 10
4225.684608086138
 20
4888.078376854103
 30
0.0
 42
0.106753618288
 70
     2
 50
35.272406874218
  0
VERTEX
  8
DIK
 10
4228.460300605803
 20
4891.10319869678
 30
0.0
 42
0.133223216557
 50
215.272406874218
  0
VERTEX
  8
DIK
 10
4229.326948980225
 20
4894.298087517126
 30
0.0
 42
0.133223216557
  0
VERTEX
  8
DIK
 10
4228.460300605803
 20
4897.492976337471
 30
0.0
 42
0.106753618288
  0
VERTEX
  8
DIK
 10
4225.684608086138
 20
4900.517798180151
 30
0.0
 42
0.08284259485
 70
     2
 50
144.727593125782
  0
VERTEX
  8
DIK
 10
4221.817563711592
 20
4902.387281441289
 30
0.0
 42
0.071371869756
 50
324.727593125782
  0
VERTEX
  8
DIK
 10
4216.891219300851
 20
4903.094086690812
 30
0.0
 42
0.071371869756
  0
VERTEX
  8
DIK
 10
4211.96487489011
 20
4902.387281441287
 30
0.0
 42
0.08284259485
  0
VERTEX
  8
DIK
 10
4208.097830515563
 20
4900.517798180151
 30
0.0
 42
0.106753618288
 70
     2
 50
215.272406874218
  0
VERTEX
  8
DIK
 10
4205.322137995898
 20
4897.492976337474
 30
0.0
 42
0.133223216557
 50
35.272406874218
  0
SEQEND
  8
DIK
  0
ENDBLK
  8
0
  0
BLOCK
  8
0
  2
*X17
 70
    65
 10
0.0
 20
0.0
 30
0.0
  3
*X
  0
LINE
  8
0
 62
     0
 10
3079.798637173503
 20
2738.127812996362
 30
0.0
 11
3092.043741138031
 21
2752.720959637779
 31
0.0
  0
LINE
  8
0
 62
     0
 10
3738.050470314197
 20
3056.485161312552
 30
0.0
 11
3750.295574278725
 21
3071.078307953969
 31
0.0
  0
LINE
  8
0
 62
     0
 10
3773.293891735858
 20
2865.428316076651
 30
0.0
 11
3785.538995700387
 21
2880.021462718067
 31
0.0
  0
LINE
  8
0
 62
     0
 10
3920.2351393102
 20
3040.546075773649
 30
0.0
 11
3932.480243274729
 21
3055.139222415065
 31
0.0
  0
LINE
  8
0
 62
     0
 10
3815.334368790373
 20
2682.471886310266
 30
0.0
 11
3820.782417122048
 21
2688.964617482166
 31
0.0
  0
LINE
  8
0
 62
     0
 10
3955.478560731862
 20
2849.489230537748
 30
0.0
 11
3967.723664696391
 21
2864.082377179165
 31
0.0
  0
LINE
  8
0
 62
     0
 10
2897.613968177499
 20
2754.066898535265
 30
0.0
 11
2909.859072142027
 21
2768.660045176682
 31
0.0
  0
LINE
  8
0
 62
     0
 10
3044.555215751842
 20
2929.184658232264
 30
0.0
 11
3056.80031971637
 21
2943.77780487368
 31
0.0
  0
LINE
  8
0
 62
     0
 10
2862.370546755838
 20
2945.123743771166
 30
0.0
 11
2874.615650720366
 21
2959.716890412583
 31
0.0
  0
LINE
  8
0
 62
     0
 10
3015.662186672503
 20
3127.80960635651
 30
0.0
 11
3021.556898294709
 21
3134.834650109581
 31
0.0
  0
LINE
  8
0
 62
     0
 10
2827.127125334177
 20
3136.180589007068
 30
0.0
 11
2839.372229298705
 21
3150.773735648485
 31
0.0
  0
LINE
  8
0
 62
     0
 10
2862.369599767011
 20
2945.121126556916
 30
0.0
 11
2877.551606965929
 21
2943.792873037442
 31
0.0
  0
LINE
  8
0
 62
     0
 10
3773.290031702103
 20
2865.425915388458
 30
0.0
 11
3788.472038901022
 21
2864.097661868984
 31
0.0
  0
LINE
  8
0
 62
     0
 10
3955.474118089121
 20
2849.486873154766
 30
0.0
 11
3970.65612528804
 21
2848.158619635292
 31
0.0
  0
LINE
  8
0
 62
     0
 10
3044.553686154029
 20
2929.182084323225
 30
0.0
 11
3059.735693352947
 21
2927.85383080375
 31
0.0
  0
LINE
  8
0
 62
     0
 10
2827.126773791344
 20
3136.177769439097
 30
0.0
 11
2842.308780990262
 21
3134.849515919623
 31
0.0
  0
LINE
  8
0
 62
     0
 10
3920.231292113454
 20
3040.543516036946
 30
0.0
 11
3935.413299312372
 21
3039.215262517472
 31
0.0
  0
LINE
  8
0
 62
     0
 10
3015.662186672503
 20
3119.683058138816
 30
0.0
 11
3024.49286737728
 21
3118.910473685931
 31
0.0
  0
LINE
  8
0
 62
     0
 10
3738.047205726437
 20
3056.482558270638
 30
0.0
 11
3753.229212925354
 21
3055.154304751163
 31
0.0
  0
LINE
  8
0
 62
     0
 10
2897.612425742678
 20
2754.064483674737
 30
0.0
 11
2912.794432941596
 21
2752.736230155262
 31
0.0
  0
LINE
  8
0
 62
     0
 10
3079.796512129696
 20
2738.125441441045
 30
0.0
 11
3094.978519328615
 21
2736.797187921571
 31
0.0
  0
LINE
  8
0
 62
     0
 10
3821.98864069248
 20
2682.471886310265
 30
0.0
 11
3820.795955621048
 21
2688.937895255209
 31
0.0
  0
LINE
  8
0
 62
     0
 10
3788.491396968224
 20
2864.07345301047
 30
0.0
 11
3785.554618908876
 21
2879.994867351857
 31
0.0
  0
LINE
  8
0
 62
     0
 10
3753.250060256053
 20
3055.130425107118
 30
0.0
 11
3750.313282196705
 21
3071.051839448506
 31
0.0
  0
LINE
  8
0
 62
     0
 10
3716.531785638748
 20
3254.194451148237
 30
0.0
 11
3715.662186672501
 21
3258.908884848248
 31
0.0
  0
LINE
  8
0
 62
     0
 10
3970.675235346356
 20
2848.133168734113
 30
0.0
 11
3967.738457287008
 21
2864.054583075501
 31
0.0
  0
LINE
  8
0
 62
     0
 10
3935.433898634184
 20
3039.190140830762
 30
0.0
 11
3932.497120574836
 21
3055.111555172149
 31
0.0
  0
LINE
  8
0
 62
     0
 10
3094.997380167872
 20
2736.777618019246
 30
0.0
 11
3092.060602108525
 21
2752.699032360633
 31
0.0
  0
LINE
  8
0
 62
     0
 10
3059.7560434557
 20
2927.834590115894
 30
0.0
 11
3056.819265396353
 21
2943.756004457282
 31
0.0
  0
LINE
  8
0
 62
     0
 10
3024.514706743529
 20
3118.891562212543
 30
0.0
 11
3021.577928684181
 21
3134.81297655393
 31
0.0
  0
LINE
  8
0
 62
     0
 10
2912.813541789741
 20
2752.717902295602
 30
0.0
 11
2909.876763730393
 21
2768.63931663699
 31
0.0
  0
LINE
  8
0
 62
     0
 10
2877.572205077569
 20
2943.77487439225
 30
0.0
 11
2874.635427018222
 21
2959.696288733638
 31
0.0
  0
LINE
  8
0
 62
     0
 10
2842.330868365397
 20
3134.831846488899
 30
0.0
 11
2839.39409030605
 21
3150.753260830286
 31
0.0
  0
LINE
  8
0
 62
     0
 10
2882.524515709691
 20
2730.445042441556
 30
0.0
 11
2902.308193549218
 21
2751.063886156512
 31
0.0
  0
LINE
  8
0
 62
     0
 10
3915.662186672502
 20
3158.066627378304
 30
0.0
 11
3919.274543482126
 21
3161.831479450019
 31
0.0
  0
LINE
  8
0
 62
     0
 10
3933.165772460404
 20
2851.744183222854
 30
0.0
 11
3952.949450299931
 21
2872.363026937811
 31
0.0
  0
LINE
  8
0
 62
     0
 10
2848.849608891885
 20
3019.913494953763
 30
0.0
 11
2868.633286731412
 21
3040.53233866872
 31
0.0
  0
LINE
  8
0
 62
     0
 10
3086.253742966209
 20
3267.339619533243
 30
0.0
 11
3100.773077563097
 21
3282.471886310266
 31
0.0
  0
LINE
  8
0
 62
     0
 10
3955.757043525423
 20
2848.234099071437
 30
0.0
 11
3952.950806190722
 21
2872.356417720799
 31
0.0
  0
LINE
  8
0
 62
     0
 10
3922.082195509016
 20
3137.701922863775
 30
0.0
 11
3919.275958174315
 21
3161.824241513137
 31
0.0
  0
LINE
  8
0
 62
     0
 10
3108.844948061083
 20
3263.82872657064
 30
0.0
 11
3106.676121272141
 21
3282.471886310266
 31
0.0
  0
LINE
  8
0
 62
     0
 10
2905.115561611254
 20
2726.935346888253
 30
0.0
 11
2902.309324276553
 21
2751.057665537615
 31
0.0
  0
LINE
  8
0
 62
     0
 10
2871.440713594846
 20
3016.403170680592
 30
0.0
 11
2868.634476260146
 21
3040.525489329953
 31
0.0
  0
LINE
  8
0
 62
     0
 10
2848.855269767206
 20
3019.901414327173
 30
0.0
 11
2871.445193068072
 21
3016.397849676565
 31
0.0
  0
LINE
  8
0
 62
     0
 10
3933.171588208772
 20
2851.730311097957
 30
0.0
 11
3955.761511509637
 21
2848.226746447349
 31
0.0
  0
LINE
  8
0
 62
     0
 10
3086.25987558114
 20
3267.326532187771
 30
0.0
 11
3108.849798882006
 21
3263.822967537162
 31
0.0
  0
LINE
  8
0
 62
     0
 10
3915.662186672502
 20
3138.691096840302
 30
0.0
 11
3922.087037713179
 21
3137.69464011525
 31
0.0
  0
LINE
  8
0
 62
     0
 10
2882.529743563664
 20
2730.433520659272
 30
0.0
 11
2905.119666864529
 21
2726.929956008663
 31
0.0
  0
LINE
  8
0
 62
     0
 10
2990.997397088634
 20
2781.136363754793
 30
0.0
 11
3008.782104213406
 21
2787.963273193631
 31
0.0
  0
LINE
  8
0
 62
     0
 10
3782.861733415798
 20
2924.639585036198
 30
0.0
 11
3800.64644054057
 21
2931.466494475036
 31
0.0
  0
LINE
  8
0
 62
     0
 10
3996.278218913058
 20
3006.562498302253
 30
0.0
 11
4014.062926037831
 21
3013.389407741092
 31
0.0
  0
LINE
  8
0
 62
     0
 10
3721.060127753922
 20
2740.45115325338
 30
0.0
 11
3738.844834878693
 21
2747.278062692218
 31
0.0
  0
LINE
  8
0
 62
     0
 10
3934.476613251182
 20
2822.374066519436
 30
0.0
 11
3952.261320375953
 21
2829.200975958274
 31
0.0
  0
LINE
  8
0
 62
     0
 10
2839.38251725325
 20
2883.401882271556
 30
0.0
 11
2857.167224378022
 21
2890.228791710394
 31
0.0
  0
LINE
  8
0
 62
     0
 10
3052.799002750511
 20
2965.324795537611
 30
0.0
 11
3070.583709875283
 21
2972.151704976449
 31
0.0
  0
LINE
  8
0
 62
     0
 10
2901.184122915128
 20
3067.590314054374
 30
0.0
 11
2915.662186672502
 21
3073.147922027779
 31
0.0
  0
LINE
  8
0
 62
     0
 10
3114.600608412388
 20
3149.51322732043
 30
0.0
 11
3115.662186672501
 21
3149.920729034862
 31
0.0
  0
LINE
  8
0
 62
     0
 10
3114.604955953408
 20
3149.506040759312
 30
0.0
 11
3115.662186672502
 21
3148.792929635016
 31
0.0
  0
LINE
  8
0
 62
     0
 10
3721.062521028873
 20
2740.445248012392
 30
0.0
 11
3733.697053634612
 21
2731.923148163498
 31
0.0
  0
LINE
  8
0
 62
     0
 10
3782.864549376519
 20
2924.633214134711
 30
0.0
 11
3795.499081982259
 21
2916.111114285817
 31
0.0
  0
LINE
  8
0
 62
     0
 10
3934.478940645385
 20
2822.368015947981
 30
0.0
 11
3947.113473251124
 21
2813.845916099087
 31
0.0
  0
LINE
  8
0
 62
     0
 10
3996.280968993032
 20
3006.5559820703
 30
0.0
 11
4008.915501598772
 21
2998.033882221406
 31
0.0
  0
LINE
  8
0
 62
     0
 10
2901.188536336895
 20
3067.583272823724
 30
0.0
 11
2913.823068942634
 21
3059.061172974829
 31
0.0
  0
LINE
  8
0
 62
     0
 10
3052.802927605762
 20
2965.318074636993
 30
0.0
 11
3065.437460211501
 21
2956.795974788099
 31
0.0
  0
LINE
  8
0
 62
     0
 10
2839.386507989248
 20
2883.395306701404
 30
0.0
 11
2852.021040594987
 21
2874.87320685251
 31
0.0
  0
LINE
  8
0
 62
     0
 10
2991.000899258115
 20
2781.130108514674
 30
0.0
 11
3003.635431863854
 21
2772.60800866578
 31
0.0
  0
LINE
  8
0
 62
     0
 10
3733.699498512939
 20
2731.92447386712
 30
0.0
 11
3738.849682231284
 21
2747.273470826768
 31
0.0
  0
LINE
  8
0
 62
     0
 10
3795.501703133073
 20
2916.112437382901
 30
0.0
 11
3800.651886851418
 21
2931.46143434255
 31
0.0
  0
LINE
  8
0
 62
     0
 10
3947.115989283064
 20
2813.847331583178
 30
0.0
 11
3952.266173001408
 21
2829.196328542826
 31
0.0
  0
LINE
  8
0
 62
     0
 10
4008.918193903198
 20
2998.03529509896
 30
0.0
 11
4014.068377621543
 21
3013.384292058608
 31
0.0
  0
LINE
  8
0
 62
     0
 10
3003.63794467271
 20
2772.608970034454
 30
0.0
 11
3008.788128391055
 21
2787.957966994103
 31
0.0
  0
LINE
  8
0
 62
     0
 10
3065.440149292844
 20
2956.796933550236
 30
0.0
 11
3070.590333011189
 21
2972.145930509885
 31
0.0
  0
LINE
  8
0
 62
     0
 10
2852.02365852272
 20
2874.874075834178
 30
0.0
 11
2857.173842241065
 21
2890.223072793827
 31
0.0
  0
LINE
  8
0
 62
     0
 10
2913.825863142854
 20
3059.062039349961
 30
0.0
 11
2915.662186672502
 21
3064.534800287226
 31
0.0
  0
LINE
  8
0
 62
     0
 10
3078.053397802627
 20
2690.613723549552
 30
0.0
 11
3078.053397802627
 21
2690.613723549552
 31
0.0
  0
LINE
  8
0
 62
     0
 10
3742.840655886306
 20
3200.722927941693
 30
0.0
 11
3742.840655886306
 21
3200.722927941693
 31
0.0
  0
LINE
  8
0
 62
     0
 10
3081.142001053219
 20
2775.168762422705
 30
0.0
 11
3081.142001053219
 21
2775.168762422705
 31
0.0
  0
LINE
  8
0
 62
     0
 10
2949.217732853048
 20
2756.124781307154
 30
0.0
 11
2949.217732853048
 21
2756.124781307154
 31
0.0
  0
LINE
  8
0
 62
     0
 10
3084.23060430381
 20
2859.723801295859
 30
0.0
 11
3084.23060430381
 21
2859.723801295859
 31
0.0
  0
LINE
  8
0
 62
     0
 10
2820.920676124689
 20
2739.864057445032
 30
0.0
 11
2820.920676124689
 21
2739.864057445032
 31
0.0
  0
LINE
  8
0
 62
     0
 10
2952.30633610364
 20
2840.679820180308
 30
0.0
 11
2952.30633610364
 21
2840.679820180308
 31
0.0
  0
LINE
  8
0
 62
     0
 10
3087.319207554402
 20
2944.278840169011
 30
0.0
 11
3087.319207554402
 21
2944.278840169011
 31
0.0
  0
LINE
  8
0
 62
     0
 10
2824.009279375281
 20
2824.419096318185
 30
0.0
 11
2824.009279375281
 21
2824.419096318185
 31
0.0
  0
LINE
  8
0
 62
     0
 10
3090.407810804994
 20
3028.833879042164
 30
0.0
 11
3090.407810804994
 21
3028.833879042164
 31
0.0
  0
LINE
  8
0
 62
     0
 10
2827.097882625872
 20
2908.974135191338
 30
0.0
 11
2827.097882625872
 21
2908.974135191338
 31
0.0
  0
LINE
  8
0
 62
     0
 10
3093.496414055585
 20
3113.388917915318
 30
0.0
 11
3093.496414055585
 21
3113.388917915318
 31
0.0
  0
LINE
  8
0
 62
     0
 10
2830.186485876464
 20
2993.529174064491
 30
0.0
 11
2830.186485876464
 21
2993.529174064491
 31
0.0
  0
LINE
  8
0
 62
     0
 10
3096.585017306177
 20
3197.943956788471
 30
0.0
 11
3096.585017306177
 21
3197.943956788471
 31
0.0
  0
LINE
  8
0
 62
     0
 10
2833.275089127056
 20
3078.084212937644
 30
0.0
 11
2833.275089127056
 21
3078.084212937644
 31
0.0
  0
LINE
  8
0
 62
     0
 10
2836.363692377648
 20
3162.639251810797
 30
0.0
 11
2836.363692377648
 21
3162.639251810797
 31
0.0
  0
LINE
  8
0
 62
     0
 10
2839.45229562824
 20
3247.19429068395
 30
0.0
 11
2839.45229562824
 21
3247.19429068395
 31
0.0
  0
LINE
  8
0
 62
     0
 10
3739.752052635714
 20
3116.16788906854
 30
0.0
 11
3739.752052635714
 21
3116.16788906854
 31
0.0
  0
LINE
  8
0
 62
     0
 10
3736.663449385122
 20
3031.612850195388
 30
0.0
 11
3736.663449385122
 21
3031.612850195388
 31
0.0
  0
LINE
  8
0
 62
     0
 10
4005.177854173393
 20
3237.651199650534
 30
0.0
 11
4005.177854173393
 21
3237.651199650534
 31
0.0
  0
LINE
  8
0
 62
     0
 10
3733.57484613453
 20
2947.057811322234
 30
0.0
 11
3733.57484613453
 21
2947.057811322234
 31
0.0
  0
LINE
  8
0
 62
     0
 10
4002.089250922801
 20
3153.096160777381
 30
0.0
 11
4002.089250922801
 21
3153.096160777381
 31
0.0
  0
LINE
  8
0
 62
     0
 10
3730.486242883939
 20
2862.502772449081
 30
0.0
 11
3730.486242883939
 21
2862.502772449081
 31
0.0
  0
LINE
  8
0
 62
     0
 10
3999.000647672209
 20
3068.541121904228
 30
0.0
 11
3999.000647672209
 21
3068.541121904228
 31
0.0
  0
LINE
  8
0
 62
     0
 10
3727.397639633347
 20
2777.947733575928
 30
0.0
 11
3727.397639633347
 21
2777.947733575928
 31
0.0
  0
LINE
  8
0
 62
     0
 10
3995.912044421618
 20
2983.986083031075
 30
0.0
 11
3995.912044421618
 21
2983.986083031075
 31
0.0
  0
LINE
  8
0
 62
     0
 10
3724.309036382755
 20
2693.392694702775
 30
0.0
 11
3724.309036382755
 21
2693.392694702775
 31
0.0
  0
LINE
  8
0
 62
     0
 10
3859.321907833518
 20
2796.99171469148
 30
0.0
 11
3859.321907833518
 21
2796.99171469148
 31
0.0
  0
LINE
  8
0
 62
     0
 10
3992.823441171025
 20
2899.431044157921
 30
0.0
 11
3992.823441171025
 21
2899.431044157921
 31
0.0
  0
LINE
  8
0
 62
     0
 10
3856.233304582925
 20
2712.436675818326
 30
0.0
 11
3856.233304582925
 21
2712.436675818326
 31
0.0
  0
LINE
  8
0
 62
     0
 10
3989.734837920433
 20
2814.876005284768
 30
0.0
 11
3989.734837920433
 21
2814.876005284768
 31
0.0
  0
LINE
  8
0
 62
     0
 10
3986.646234669841
 20
2730.320966411615
 30
0.0
 11
3986.646234669841
 21
2730.320966411615
 31
0.0
  0
LINE
  8
0
 62
     0
 10
2860.922871410076
 20
2844.004824164694
 30
0.0
 11
2860.922871410076
 21
2844.004824164694
 31
0.0
  0
LINE
  8
0
 62
     0
 10
3021.336667090635
 20
2865.123701013514
 30
0.0
 11
3021.336667090635
 21
2865.123701013514
 31
0.0
  0
LINE
  8
0
 62
     0
 10
3084.922983274845
 20
2873.494998351547
 30
0.0
 11
3084.922983274845
 21
2873.494998351547
 31
0.0
  0
LINE
  8
0
 62
     0
 10
3981.930738713077
 20
2991.588309710254
 30
0.0
 11
3981.930738713077
 21
2991.588309710254
 31
0.0
  0
LINE
  8
0
 62
     0
 10
3725.319031023139
 20
2957.804737482707
 30
0.0
 11
3725.319031023139
 21
2957.804737482707
 31
0.0
  0
LINE
  8
0
 62
     0
 10
2831.544621911004
 20
2931.520703604086
 30
0.0
 11
2831.544621911004
 21
2931.520703604086
 31
0.0
  0
LINE
  8
0
 62
     0
 10
3088.156329600941
 20
2965.304275831633
 30
0.0
 11
3088.156329600941
 21
2965.304275831633
 31
0.0
  0
LINE
  8
0
 62
     0
 10
3728.552377349236
 20
3049.614014962794
 30
0.0
 11
3728.552377349236
 21
3049.614014962794
 31
0.0
  0
LINE
  8
0
 62
     0
 10
3792.138693533445
 20
3057.985312300826
 30
0.0
 11
3792.138693533445
 21
3057.985312300826
 31
0.0
  0
LINE
  8
0
 62
     0
 10
2834.7779682371
 20
3023.329981084173
 30
0.0
 11
2834.7779682371
 21
3023.329981084173
 31
0.0
  0
LINE
  8
0
 62
     0
 10
2898.364284421309
 20
3031.701278422206
 30
0.0
 11
2898.364284421309
 21
3031.701278422206
 31
0.0
  0
LINE
  8
0
 62
     0
 10
3955.156268053129
 20
3170.830582497673
 30
0.0
 11
3955.156268053129
 21
3170.830582497673
 31
0.0
  0
LINE
  8
0
 62
     0
 10
3795.372039859541
 20
3149.794589780913
 30
0.0
 11
3795.372039859541
 21
3149.794589780913
 31
0.0
  0
LINE
  8
0
 62
     0
 10
2901.597630747405
 20
3123.510555902292
 30
0.0
 11
2901.597630747405
 21
3123.510555902292
 31
0.0
  0
LINE
  8
0
 62
     0
 10
3925.778018554056
 20
3258.346461937065
 30
0.0
 11
3925.778018554056
 21
3258.346461937065
 31
0.0
  0
LINE
  8
0
 62
     0
 10
3061.381858940993
 20
3144.546548619052
 30
0.0
 11
3061.381858940993
 21
3144.546548619052
 31
0.0
  0
LINE
  8
0
 62
     0
 10
2954.517004580329
 20
2764.943126195394
 30
0.0
 11
2954.517004580329
 21
2764.943126195394
 31
0.0
  0
LINE
  8
0
 62
     0
 10
3018.103320764539
 20
2773.314423533427
 30
0.0
 11
3018.103320764539
 21
2773.314423533427
 31
0.0
  0
LINE
  8
0
 62
     0
 10
3114.301232773917
 20
2785.979118912154
 30
0.0
 11
3114.301232773917
 21
2785.979118912154
 31
0.0
  0
LINE
  8
0
 62
     0
 10
3978.69739238698
 20
2899.779032230167
 30
0.0
 11
3978.69739238698
 21
2899.779032230167
 31
0.0
  0
LINE
  8
0
 62
     0
 10
3754.697280522211
 20
2870.288858043315
 30
0.0
 11
3754.697280522211
 21
2870.288858043315
 31
0.0
  0
LINE
  8
0
 62
     0
 10
3047.481570263611
 20
2685.798544094035
 30
0.0
 11
3047.481570263611
 21
2685.798544094035
 31
0.0
  0
LINE
  8
0
 62
     0
 10
3848.291413692465
 20
2791.227160074015
 30
0.0
 11
3848.291413692465
 21
2791.227160074015
 31
0.0
  0
LINE
  8
0
 62
     0
 10
3911.877729876675
 20
2799.598457412048
 30
0.0
 11
3911.877729876675
 21
2799.598457412048
 31
0.0
  0
LINE
  8
0
 62
     0
 10
4008.075641886053
 20
2812.263152790775
 30
0.0
 11
4008.075641886053
 21
2812.263152790775
 31
0.0
  0
LINE
  8
0
 62
     0
 10
3781.471751182159
 20
2691.046585255896
 30
0.0
 11
3781.471751182159
 21
2691.046585255896
 31
0.0
  0
LINE
  8
0
 62
     0
 10
3845.058067366369
 20
2699.417882593929
 30
0.0
 11
3845.058067366369
 21
2699.417882593929
 31
0.0
  0
LINE
  8
0
 62
     0
 10
3941.255979375747
 20
2712.082577972656
 30
0.0
 11
3941.255979375747
 21
2712.082577972656
 31
0.0
  0
LINE
  8
0
 62
     0
 10
3755.116371003285
 20
2733.369577782818
 30
0.0
 11
3755.116371003285
 21
2733.369577782818
 31
0.0
  0
LINE
  8
0
 62
     0
 10
3808.671727812403
 20
2699.251052652794
 30
0.0
 11
3808.671727812403
 21
2699.251052652794
 31
0.0
  0
LINE
  8
0
 62
     0
 10
3091.029946570219
 20
3156.439289395106
 30
0.0
 11
3091.029946570219
 21
3156.439289395106
 31
0.0
  0
LINE
  8
0
 62
     0
 10
3059.527828492642
 20
3257.160343808106
 30
0.0
 11
3059.527828492642
 21
3257.160343808106
 31
0.0
  0
LINE
  8
0
 62
     0
 10
3890.706966170157
 20
2727.640833790144
 30
0.0
 11
3890.706966170157
 21
2727.640833790144
 31
0.0
  0
LINE
  8
0
 62
     0
 10
3944.262322979275
 20
2693.522308660121
 30
0.0
 11
3944.262322979275
 21
2693.522308660121
 31
0.0
  0
LINE
  8
0
 62
     0
 10
3804.578384147278
 20
2863.162783835768
 30
0.0
 11
3804.578384147278
 21
2863.162783835768
 31
0.0
  0
LINE
  8
0
 62
     0
 10
3719.520909260582
 20
2998.002363378789
 30
0.0
 11
3719.520909260582
 21
2998.002363378789
 31
0.0
  0
LINE
  8
0
 62
     0
 10
3773.076266069701
 20
2963.883838248765
 30
0.0
 11
3773.076266069701
 21
2963.883838248765
 31
0.0
  0
LINE
  8
0
 62
     0
 10
3940.16897931415
 20
2857.434039843094
 30
0.0
 11
3940.16897931415
 21
2857.434039843094
 31
0.0
  0
LINE
  8
0
 62
     0
 10
3768.982922404575
 20
3127.79556943174
 30
0.0
 11
3768.982922404575
 21
3127.79556943174
 31
0.0
  0
LINE
  8
0
 62
     0
 10
3990.702099594325
 20
2986.544875393443
 30
0.0
 11
3990.702099594325
 21
2986.544875393443
 31
0.0
  0
LINE
  8
0
 62
     0
 10
3955.106637851622
 20
3251.177660989416
 30
0.0
 11
3955.106637851622
 21
3251.177660989416
 31
0.0
  0
LINE
  8
0
 62
     0
 10
4008.661994660741
 20
3217.059135859392
 30
0.0
 11
4008.661994660741
 21
3217.059135859392
 31
0.0
  0
LINE
  8
0
 62
     0
 10
2819.848756236477
 20
3167.896777380453
 30
0.0
 11
2819.848756236477
 21
3167.896777380453
 31
0.0
  0
LINE
  8
0
 62
     0
 10
3041.567933426226
 20
3026.646083342157
 30
0.0
 11
3041.567933426226
 21
3026.646083342157
 31
0.0
  0
LINE
  8
0
 62
     0
 10
3095.123290235344
 20
2992.527558212133
 30
0.0
 11
3095.123290235344
 21
2992.527558212133
 31
0.0
  0
LINE
  8
0
 62
     0
 10
2905.977338259355
 20
3032.37482733483
 30
0.0
 11
2905.977338259355
 21
3032.37482733483
 31
0.0
  0
LINE
  8
0
 62
     0
 10
2823.9420999016
 20
3003.985046197481
 30
0.0
 11
2823.9420999016
 21
3003.985046197481
 31
0.0
  0
LINE
  8
0
 62
     0
 10
2855.444217979179
 20
2903.263991784481
 30
0.0
 11
2855.444217979179
 21
2903.263991784481
 31
0.0
  0
LINE
  8
0
 62
     0
 10
3077.163395168928
 20
2762.013297746185
 30
0.0
 11
3077.163395168928
 21
2762.013297746185
 31
0.0
  0
LINE
  8
0
 62
     0
 10
2941.572800002058
 20
2767.742041738858
 30
0.0
 11
2941.572800002058
 21
2767.742041738858
 31
0.0
  0
LINE
  8
0
 62
     0
 10
2995.128156811176
 20
2733.623516608835
 30
0.0
 11
2995.128156811176
 21
2733.623516608835
 31
0.0
  0
LINE
  8
0
 62
     0
 10
2859.537561644303
 20
2739.352260601509
 30
0.0
 11
2859.537561644303
 21
2739.352260601509
 31
0.0
  0
LINE
  8
0
 62
     0
 10
3045.147755287288
 20
3258.609893485207
 30
0.0
 11
3045.147755287288
 21
3258.609893485207
 31
0.0
  0
LINE
  8
0
 62
     0
 10
3784.296144516385
 20
2742.467059928844
 30
0.0
 11
3784.296144516385
 21
2742.467059928844
 31
0.0
  0
LINE
  8
0
 62
     0
 10
3774.558027989946
 20
2912.552277397257
 30
0.0
 11
3774.558027989946
 21
2912.552277397257
 31
0.0
  0
LINE
  8
0
 62
     0
 10
3835.420272143622
 20
2856.782305758585
 30
0.0
 11
3835.420272143622
 21
2856.782305758585
 31
0.0
  0
LINE
  8
0
 62
     0
 10
3932.425325902404
 20
2767.893550962177
 30
0.0
 11
3932.425325902404
 21
2767.893550962177
 31
0.0
  0
LINE
  8
0
 62
     0
 10
3785.044903366881
 20
3064.104704290358
 30
0.0
 11
3785.044903366881
 21
3064.104704290358
 31
0.0
  0
LINE
  8
0
 62
     0
 10
3922.687209375964
 20
2937.978768430591
 30
0.0
 11
3922.687209375964
 21
2937.978768430591
 31
0.0
  0
LINE
  8
0
 62
     0
 10
3983.549453529639
 20
2882.208796791918
 30
0.0
 11
3983.549453529639
 21
2882.208796791918
 31
0.0
  0
LINE
  8
0
 62
     0
 10
3933.1740847529
 20
3089.531195323691
 30
0.0
 11
3933.1740847529
 21
3089.531195323691
 31
0.0
  0
LINE
  8
0
 62
     0
 10
3923.43596822646
 20
3259.616412792105
 30
0.0
 11
3923.43596822646
 21
3259.616412792105
 31
0.0
  0
LINE
  8
0
 62
     0
 10
3984.298212380137
 20
3203.846441153432
 30
0.0
 11
3984.298212380137
 21
3203.846441153432
 31
0.0
  0
LINE
  8
0
 62
     0
 10
2897.01857390127
 20
3233.183402451873
 30
0.0
 11
2897.01857390127
 21
3233.183402451873
 31
0.0
  0
LINE
  8
0
 62
     0
 10
3034.660879910353
 20
3107.057466592106
 30
0.0
 11
3034.660879910353
 21
3107.057466592106
 31
0.0
  0
LINE
  8
0
 62
     0
 10
3095.523124064028
 20
3051.287494953434
 30
0.0
 11
3095.523124064028
 21
3051.287494953434
 31
0.0
  0
LINE
  8
0
 62
     0
 10
2886.531698524334
 20
3081.630975558773
 30
0.0
 11
2886.531698524334
 21
3081.630975558773
 31
0.0
  0
LINE
  8
0
 62
     0
 10
3044.398996436792
 20
2936.972249123693
 30
0.0
 11
3044.398996436792
 21
2936.972249123693
 31
0.0
  0
LINE
  8
0
 62
     0
 10
2896.269815050774
 20
2911.54575809036
 30
0.0
 11
2896.269815050774
 21
2911.54575809036
 31
0.0
  0
LINE
  8
0
 62
     0
 10
3033.912121059856
 20
2785.419822230592
 30
0.0
 11
3033.912121059856
 21
2785.419822230592
 31
0.0
  0
LINE
  8
0
 62
     0
 10
3094.774365213532
 20
2729.64985059192
 30
0.0
 11
3094.774365213532
 21
2729.64985059192
 31
0.0
  0
LINE
  8
0
 62
     0
 10
2885.782939673838
 20
2759.993331197259
 30
0.0
 11
2885.782939673838
 21
2759.993331197259
 31
0.0
  0
LINE
  8
0
 62
     0
 10
2946.645183827513
 20
2704.223359558586
 30
0.0
 11
2946.645183827513
 21
2704.223359558586
 31
0.0
  0
ENDBLK
  8
0
  0
BLOCK
  8
0
  2
A4S
 70
    66
 10
0.0
 20
0.0
 30
0.0
  3
A4S
  0
LINE
  8
DIK
 62
     7
 10
200.0
 20
265.0
 30
0.0
 11
0.0
 21
265.0
 31
0.0
  0
LINE
  8
DIK
 62
     7
 10
200.0
 20
0.0
 30
0.0
 11
200.0
 21
265.0
 31
0.0
  0
LINE
  8
DIK
 62
     7
 10
0.0
 20
265.0
 30
0.0
 11
0.0
 21
0.0
 31
0.0
  0
LINE
  8
DIK
 62
     7
 10
0.0
 20
0.0
 30
0.0
 11
200.0
 21
0.0
 31
0.0
  0
ATTDEF
  8
DUN
 10
147.865671307955
 20
22.434008393964
 30
0.0
 40
2.5
  1

  3
ENTER SCHAAL
  2
SCHAAL
 70
     0
  7
ROMANS
  0
ATTDEF
  8
DUN
 10
145.636377606345
 20
8.700113658062
 30
0.0
 40
2.5
  1

  3
ENTER DATUM
  2
DATUM
 70
     0
  7
ROMANS
  0
ATTDEF
  8
DUN
 10
156.445440055308
 20
1.78439242479
 30
0.0
 40
2.5
  1

  3
ENTER GETEKEND
  2
GETEKEND
 70
     0
  7
ROMANS
  0
ATTDEF
  8
DUN
 10
158.146500326126
 20
15.696951461516
 30
0.0
 40
2.5
  1

  3
ENTER MAATEENHEID
  2
MAATEENHEID
 70
     0
  7
ROMANS
  0
LINE
  8
DUN
 10
175.484930200881
 20
7.0
 30
0.0
 11
175.484930200888
 21
28.086824045226
 31
0.0
  0
TEXT
  8
DUN
 10
183.535447511735
 20
14.274654940444
 30
0.0
 40
6.0
  1
A4
 72
     2
 11
193.535447511735
 21
14.274654940444
 31
0.0
  0
LINE
  8
HARTLIJN
 10
99.397680541595
 20
9.205368291648
 30
0.0
 11
129.463468913906
 21
9.205368291648
 31
0.0
  0
TEXT
  8
DUN
 10
97.533769335721
 20
17.224758628468
 30
0.0
 40
2.5
  1
Amerik. proj.
  7
ROMANS
  0
LINE
  8
HARTLIJN
 10
104.272293720125
 20
14.279512514899
 30
0.0
 11
104.272293720125
 21
4.131224068395
 31
0.0
  0
LINE
  8
DIK
 10
123.833626955384
 20
12.705368291648
 30
0.0
 11
123.833626955384
 21
5.705368291648
 31
0.0
  0
LINE
  8
DIK
 10
113.833626955384
 20
9.205368291648
 30
0.0
 11
113.833626955384
 21
7.705368291648
 31
0.0
  0
CIRCLE
  8
DIK
 10
104.272293720125
 20
9.205368291648
 30
0.0
 40
1.5
  0
CIRCLE
  8
DIK
 10
104.272293720125
 20
9.205368291648
 30
0.0
 40
3.5
  0
LINE
  8
DIK
 10
123.833626955384
 20
5.705368291648
 30
0.0
 11
113.833626955384
 21
7.705368291648
 31
0.0
  0
LINE
  8
DIK
 10
113.833626955384
 20
10.705368291648
 30
0.0
 11
123.833626955384
 21
12.705368291648
 31
0.0
  0
LINE
  8
DIK
 10
113.833626955384
 20
9.205368291648
 30
0.0
 11
113.833626955384
 21
10.705368291648
 31
0.0
  0
ATTDEF
  8
DUN
 10
22.990016895914
 20
22.936080960895
 30
0.0
 40
2.5
  1

  3
ENTER BENAMING
  2
BENAMING
 70
     0
  7
ROMANS
  0
LINE
  8
DUN
 10
95.000000000007
 20
28.0
 30
0.0
 11
95.0
 21
0.0
 31
0.0
  0
LINE
  8
DIK
 10
72.961352999424
 20
21.0
 30
0.0
 11
75.000000000007
 21
15.11418104776
 31
0.0
  0
LINE
  8
DIK
 10
71.903066960927
 20
21.0
 30
0.0
 11
75.000000000007
 21
12.058782040262
 31
0.0
  0
LINE
  8
DIK
 10
70.844780922431
 20
21.0
 30
0.0
 11
75.000000000007
 21
9.003383032734
 31
0.0
  0
LINE
  8
DIK
 10
74.019639037913
 20
21.0
 30
0.0
 11
75.000000000007
 21
18.169580055273
 31
0.0
  0
LINE
  8
DUN
 10
75.000000000007
 20
21.0
 30
0.0
 11
65.55335072997
 21
21.0
 31
0.0
  0
LINE
  8
DIK
 10
68.728208845452
 20
21.0
 30
0.0
 11
75.000000000007
 21
2.8925850177
 31
0.0
  0
LINE
  8
DIK
 10
66.611636768466
 20
21.0
 30
0.0
 11
73.885320746791
 21
0.0
 31
0.0
  0
LINE
  8
DIK
 10
65.55335072997
 20
21.0
 30
0.0
 11
72.827034708302
 21
0.0
 31
0.0
  0
LINE
  8
DIK
 10
69.786494883942
 20
21.0
 30
0.0
 11
75.0
 21
5.947984025228
 31
0.0
  0
LINE
  8
DIK
 10
67.669922806963
 20
21.0
 30
0.0
 11
74.943606785295
 21
-0.000000000004
 31
0.0
  0
LINE
  8
DIK
 10
1.463804241401
 20
0.0
 30
0.0
 11
0.0
 21
5.316870944927
 31
0.0
  0
LINE
  8
DIK
 10
2.50101073242
 20
0.0
 30
0.0
 11
0.0
 21
9.084241540022
 31
0.0
  0
LINE
  8
DIK
 10
3.538217223446
 20
0.0
 30
0.0
 11
0.0
 21
12.851612135131
 31
0.0
  0
LINE
  8
DIK
 10
4.575423714472
 20
0.0
 30
0.0
 11
0.0
 21
16.618982730237
 31
0.0
  0
LINE
  8
DIK
 10
6.649836696524
 20
0.0
 30
0.0
 11
0.868261520503
 21
21.0
 31
0.0
  0
LINE
  8
DIK
 10
7.68704318755
 20
0.0
 30
0.0
 11
1.905468011537
 21
21.0
 31
0.0
  0
LINE
  8
DIK
 10
5.612630205498
 20
0.0
 30
0.0
 11
0.0
 21
20.38635332535
 31
0.0
  0
TEXT
  8
DIK
 10
2.433881911842
 20
11.266736841375
 30
0.0
 40
10.0
  1
WICO COMFA
  7
SANSSERIFBOLD
  0
TEXT
  8
DUN
 10
8.276180271525
 20
2.267660635709
 30
0.0
 40
2.5344
  1
SPEEL- EN SPORTTOESTELLEN
  7
ROMANS
  0
TEXT
  8
DUN
 10
1.851294722146
 20
23.170176683692
 30
0.0
 40
2.5
  1
Benaming
  7
ROMANS
  0
LINE
  8
DUN
 10
95.0
 20
21.0
 30
0.0
 11
0.0
 21
21.0
 31
0.0
  0
TEXT
  8
DUN
 10
78.169817738555
 20
15.777124798966
 30
0.0
 40
2.5
  1
Tek.nr
  7
ROMANS
  0
ATTDEF
  8
DUN
 10
77.691695399204
 20
3.737867561333
 30
0.0
 40
2.5
  1

  3
ENTER TEK.NR.
  2
TEK.NR.
 70
     0
  7
ROMANS
  0
LINE
  8
DUN
 10
75.0
 20
21.0
 30
0.0
 11
75.0
 21
0.0
 31
0.0
  0
LINE
  8
DUN
 10
131.283769335722
 20
28.086824045226
 30
0.0
 11
131.283769335722
 21
0.0
 31
0.0
  0
LINE
  8
0
 62
     7
 10
200.0
 20
28.0
 30
0.0
 11
0.0
 21
28.0
 31
0.0
  0
LINE
  8
DUN
 10
200.0
 20
7.0
 30
0.0
 11
131.283769335722
 21
7.0
 31
0.0
  0
TEXT
  8
DUN
 10
132.236321313925
 20
15.843244574979
 30
0.0
 40
2.5
  1
Maateenheid
  7
ROMANS
  0
TEXT
  8
DUN
 10
132.388336007127
 20
1.767244013554
 30
0.0
 40
2.5
  1
Getekend
  7
ROMANS
  0
TEXT
  8
DUN
 10
132.319605468445
 20
22.496726978341
 30
0.0
 40
2.5
  1
Schaal
  7
ROMANS
  0
TEXT
  8
DUN
 10
132.236321313925
 20
8.678189956896
 30
0.0
 40
2.5
  1
Datum
  7
ROMANS
  0
LINE
  8
DUN
 10
175.484930200888
 20
14.0
 30
0.0
 11
131.283769335722
 21
14.0
 31
0.0
  0
LINE
  8
DUN
 10
175.484930200888
 20
21.0
 30
0.0
 11
131.283769335722
 21
21.0
 31
0.0
  0
ENDBLK
  8
0
  0
BLOCK
  8
0
  2
ACAD0F31
 70
     0
 10
0.0
 20
0.0
 30
0.0
  3
ACAD0F31
  0
INSERT
  8
DIK
  2
ACAD162F
 10
-526335.8633804267
 20
-349753.4138942679
 30
0.0
 41
15.0
 42
15.0
 43
15.0
  0
ENDBLK
  8
0
  0
BLOCK
  8
0
  2
ACAD162F
 70
    64
 10
0.0
 20
0.0
 30
0.0
  3
ACAD162F
  0
TEXT
  8
DUN
 62
     2
 10
35594.66690434648
 20
24198.56074463023
 30
0.0
 40
3.2
  1
Bij plaatsing, nummers op staanders naar kijkrichting toe houden.
  7
ROMANS
  0
TEXT
  8
DIK
 10
35594.59745236317
 20
24204.76535227344
 30
0.0
 40
3.2
  1
Maten hart op hart kuilen.
  7
ROMANS
  0
ENDBLK
  8
0
  0
BLOCK
  8
0
  2
ACAD2A4F
 70
     0
 10
0.0
 20
0.0
 30
0.0
  3
ACAD2A4F
  0
INSERT
  8
DUN
  2
ACAD1E01
 10
-19910.00673153074
 20
-105.876551739271
 30
0.0
 41
1.5
 42
1.5
 43
1.5
  0
ENDBLK
  8
0
  0
BLOCK
  8
0
  2
ACAD1E01
 70
    64
 10
0.0
 20
0.0
 30
0.0
  3
ACAD1E01
  0
INSERT
  8
DIK
  2
ACAD162F
 10
-526335.8633804267
 20
-349753.4138942679
 30
0.0
 41
15.0
 42
15.0
 43
15.0
  0
ENDBLK
  8
0
  0
BLOCK
  8
0
  2
*D23
 70
    65
 10
0.0
 20
0.0
 30
0.0
  3
*D
  0
LINE
  8
0
  6
BYBLOCK
 10
300.313628354434
 20
5127.16263373789
 30
0.0
 11
300.313628354434
 21
9325.750023755828
 31
0.0
  0
LINE
  8
0
  6
BYBLOCK
 10
5094.386665882591
 20
4447.590123949902
 30
0.0
 11
5094.386665882591
 21
9325.750023755828
 31
0.0
  0
LINE
  8
0
  6
BYBLOCK
 10
400.313628354434
 20
9324.750023755827
 30
0.0
 11
4994.386665882591
 21
9324.750023755827
 31
0.0
  0
SOLID
  8
0
  6
BYBLOCK
 10
400.313628354434
 20
9341.416690422493
 30
0.0
 11
400.313628354434
 21
9308.083357089161
 31
0.0
 12
300.313628354434
 22
9324.750023755827
 32
0.0
 13
300.313628354434
 23
9324.750023755827
 33
0.0
  0
SOLID
  8
0
  6
BYBLOCK
 10
4994.386665882591
 20
9341.416690422493
 30
0.0
 11
4994.386665882591
 21
9308.083357089161
 31
0.0
 12
5094.386665882591
 22
9324.750023755827
 32
0.0
 13
5094.386665882591
 23
9324.750023755827
 33
0.0
  0
TEXT
  8
0
  6
BYBLOCK
 10
2564.016813785178
 20
9359.750023755827
 30
0.0
 40
70.0
  1
4795
  7
ROMANS
 72
     1
 11
2697.350147118512
 21
9394.750023755827
 31
0.0
 73
     2
  0
POINT
  8
DEFPOINTS
  6
BYBLOCK
 62
     0
 10
300.313628354434
 20
5127.16263373789
 30
0.0
  0
POINT
  8
DEFPOINTS
  6
BYBLOCK
 62
     0
 10
5094.386665882591
 20
4447.590123949902
 30
0.0
  0
POINT
  8
DEFPOINTS
  6
BYBLOCK
 62
     0
 10
5094.386665882591
 20
9324.750023755827
 30
0.0
  0
ENDBLK
  8
0
  0
BLOCK
  8
0
  2
*D24
 70
    65
 10
0.0
 20
0.0
 30
0.0
  3
*D
  0
LINE
  8
0
  6
BYBLOCK
 10
2366.543605155677
 20
560.829081731959
 30
0.0
 11
5659.972000805039
 21
560.829081731959
 31
0.0
  0
LINE
  8
0
  6
BYBLOCK
 10
3139.930657126714
 20
9013.687424807677
 30
0.0
 11
5659.972000805039
 21
9013.687424807677
 31
0.0
  0
LINE
  8
0
  6
BYBLOCK
 10
5658.972000805039
 20
660.829081731959
 30
0.0
 11
5658.972000805039
 21
8913.687424807678
 31
0.0
  0
SOLID
  8
0
  6
BYBLOCK
 10
5642.305334138372
 20
660.829081731959
 30
0.0
 11
5675.638667471706
 21
660.829081731959
 31
0.0
 12
5658.972000805039
 22
560.829081731959
 32
0.0
 13
5658.972000805039
 23
560.829081731959
 33
0.0
  0
SOLID
  8
0
  6
BYBLOCK
 10
5642.305334138372
 20
8913.687424807678
 30
0.0
 11
5675.638667471706
 21
8913.687424807678
 31
0.0
 12
5658.972000805039
 22
9013.687424807677
 32
0.0
 13
5658.972000805039
 23
9013.687424807677
 33
0.0
  0
TEXT
  8
0
  6
BYBLOCK
 10
5623.972000805039
 20
4653.924919936486
 30
0.0
 40
70.0
  1
8455
 50
90.0
  7
ROMANS
 72
     1
 11
5588.972000805039
 21
4787.258253269819
 31
0.0
 73
     2
  0
POINT
  8
DEFPOINTS
  6
BYBLOCK
 62
     0
 10
2366.543605155677
 20
560.829081731959
 30
0.0
  0
POINT
  8
DEFPOINTS
  6
BYBLOCK
 62
     0
 10
3139.930657126714
 20
9013.687424807677
 30
0.0
  0
POINT
  8
DEFPOINTS
  6
BYBLOCK
 62
     0
 10
5658.972000805039
 20
9013.687424807677
 30
0.0
  0
ENDBLK
  8
0
  0
BLOCK
  8
0
  2
*D25
 70
    65
 10
0.0
 20
0.0
 30
0.0
  3
*D
  0
LINE
  8
0
  6
BYBLOCK
 10
3078.156577393718
 20
7513.817993646905
 30
0.0
 11
3076.9795890582
 21
7513.817993646905
 31
0.0
  0
LINE
  8
0
  6
BYBLOCK
 10
3079.213400483024
 20
8013.816876770615
 30
0.0
 11
3076.9795890582
 21
8013.816876770615
 31
0.0
  0
LINE
  8
0
  6
BYBLOCK
 10
3077.9795890582
 20
7613.817993646905
 30
0.0
 11
3077.9795890582
 21
7913.816876770615
 31
0.0
  0
SOLID
  8
0
  6
BYBLOCK
 10
3061.312922391533
 20
7613.817993646905
 30
0.0
 11
3094.646255724866
 21
7613.817993646905
 31
0.0
 12
3077.9795890582
 22
7513.817993646905
 32
0.0
 13
3077.9795890582
 23
7513.817993646905
 33
0.0
  0
SOLID
  8
0
  6
BYBLOCK
 10
3061.312922391533
 20
7913.816876770615
 30
0.0
 11
3094.646255724866
 21
7913.816876770615
 31
0.0
 12
3077.9795890582
 22
8013.816876770615
 32
0.0
 13
3077.9795890582
 23
8013.816876770615
 33
0.0
  0
TEXT
  8
0
  6
BYBLOCK
 10
3042.9795890582
 20
7663.81743520876
 30
0.0
 40
70.0
  1
500
 50
90.0
  7
ROMANS
 72
     1
 11
3007.9795890582
 21
7763.81743520876
 31
0.0
 73
     2
  0
POINT
  8
DEFPOINTS
  6
BYBLOCK
 62
     0
 10
3078.156577393718
 20
7513.817993646905
 30
0.0
  0
POINT
  8
DEFPOINTS
  6
BYBLOCK
 62
     0
 10
3079.213400483024
 20
8013.816876770615
 30
0.0
  0
POINT
  8
DEFPOINTS
  6
BYBLOCK
 62
     0
 10
3077.9795890582
 20
8013.816876770615
 30
0.0
  0
ENDBLK
  8
0
  0
BLOCK
  8
0
  2
*D26
 70
    65
 10
0.0
 20
0.0
 30
0.0
  3
*D
  0
LINE
  8
0
  6
BYBLOCK
 10
2200.313628354434
 20
5127.16263373789
 30
0.0
 11
2200.313628354434
 21
5126.108149861492
 31
0.0
  0
LINE
  8
0
  6
BYBLOCK
 10
300.313628354434
 20
5127.16263373789
 30
0.0
 11
300.313628354434
 21
5126.108149861492
 31
0.0
  0
LINE
  8
0
  6
BYBLOCK
 10
2100.313628354434
 20
5127.108149861492
 30
0.0
 11
400.313628354434
 21
5127.108149861492
 31
0.0
  0
SOLID
  8
0
  6
BYBLOCK
 10
2100.313628354434
 20
5143.774816528159
 30
0.0
 11
2100.313628354434
 21
5110.441483194826
 31
0.0
 12
2200.313628354434
 22
5127.108149861492
 32
0.0
 13
2200.313628354434
 23
5127.108149861492
 33
0.0
  0
SOLID
  8
0
  6
BYBLOCK
 10
400.313628354434
 20
5143.774816528159
 30
0.0
 11
400.313628354434
 21
5110.441483194826
 31
0.0
 12
300.313628354434
 22
5127.108149861492
 32
0.0
 13
300.313628354434
 23
5127.108149861492
 33
0.0
  0
TEXT
  8
0
  6
BYBLOCK
 10
1111.9802950211
 20
5162.108149861492
 30
0.0
 40
70.0
  1
1900
  7
ROMANS
 72
     1
 11
1250.313628354434
 21
5197.108149861493
 31
0.0
 73
     2
  0
POINT
  8
DEFPOINTS
  6
BYBLOCK
 62
     0
 10
2200.313628354434
 20
5127.16263373789
 30
0.0
  0
POINT
  8
DEFPOINTS
  6
BYBLOCK
 62
     0
 10
300.313628354434
 20
5127.16263373789
 30
0.0
  0
POINT
  8
DEFPOINTS
  6
BYBLOCK
 62
     0
 10
300.313628354434
 20
5127.108149861492
 30
0.0
  0
ENDBLK
  8
0
  0
BLOCK
  8
0
  2
*D27
 70
    65
 10
0.0
 20
0.0
 30
0.0
  3
*D
  0
LINE
  8
0
  6
BYBLOCK
 10
3194.38666588259
 20
4447.590123949902
 30
0.0
 11
3194.38666588259
 21
4450.918202172982
 31
0.0
  0
LINE
  8
0
  6
BYBLOCK
 10
5094.386665882591
 20
4447.590123949902
 30
0.0
 11
5094.386665882591
 21
4450.918202172982
 31
0.0
  0
LINE
  8
0
  6
BYBLOCK
 10
3294.386665882591
 20
4449.918202172982
 30
0.0
 11
4994.386665882591
 21
4449.918202172982
 31
0.0
  0
SOLID
  8
0
  6
BYBLOCK
 10
3294.386665882591
 20
4466.584868839649
 30
0.0
 11
3294.386665882591
 21
4433.251535506315
 31
0.0
 12
3194.38666588259
 22
4449.918202172982
 32
0.0
 13
3194.38666588259
 23
4449.918202172982
 33
0.0
  0
SOLID
  8
0
  6
BYBLOCK
 10
4994.386665882591
 20
4466.584868839649
 30
0.0
 11
4994.386665882591
 21
4433.251535506315
 31
0.0
 12
5094.386665882591
 22
4449.918202172982
 32
0.0
 13
5094.386665882591
 23
4449.918202172982
 33
0.0
  0
TEXT
  8
0
  6
BYBLOCK
 10
4006.053332549257
 20
4484.918202172981
 30
0.0
 40
70.0
  1
1900
  7
ROMANS
 72
     1
 11
4144.386665882591
 21
4519.918202172982
 31
0.0
 73
     2
  0
POINT
  8
DEFPOINTS
  6
BYBLOCK
 62
     0
 10
3194.38666588259
 20
4447.590123949902
 30
0.0
  0
POINT
  8
DEFPOINTS
  6
BYBLOCK
 62
     0
 10
5094.386665882591
 20
4447.590123949902
 30
0.0
  0
POINT
  8
DEFPOINTS
  6
BYBLOCK
 62
     0
 10
5094.386665882591
 20
4449.918202172982
 30
0.0
  0
ENDBLK
  8
0
  0
BLOCK
  8
0
  2
*D28
 70
    65
 10
0.0
 20
0.0
 30
0.0
  3
*D
  0
LINE
  8
0
  6
BYBLOCK
 10
3035.048951115525
 20
5995.043351886957
 30
0.0
 11
3035.048951115525
 21
5993.681511485605
 31
0.0
  0
LINE
  8
0
  6
BYBLOCK
 10
4685.048951115525
 20
5995.043351886957
 30
0.0
 11
4685.048951115525
 21
5993.681511485605
 31
0.0
  0
LINE
  8
0
  6
BYBLOCK
 10
3135.048951115525
 20
5994.681511485605
 30
0.0
 11
4585.048951115525
 21
5994.681511485605
 31
0.0
  0
SOLID
  8
0
  6
BYBLOCK
 10
3135.048951115525
 20
6011.348178152272
 30
0.0
 11
3135.048951115525
 21
5978.014844818939
 31
0.0
 12
3035.048951115525
 22
5994.681511485605
 32
0.0
 13
3035.048951115525
 23
5994.681511485605
 33
0.0
  0
SOLID
  8
0
  6
BYBLOCK
 10
4585.048951115525
 20
6011.348178152272
 30
0.0
 11
4585.048951115525
 21
5978.014844818939
 31
0.0
 12
4685.048951115525
 22
5994.681511485605
 32
0.0
 13
4685.048951115525
 23
5994.681511485605
 33
0.0
  0
TEXT
  8
0
  6
BYBLOCK
 10
3721.715617782191
 20
6029.681511485605
 30
0.0
 40
70.0
  1
1650
  7
ROMANS
 72
     1
 11
3860.048951115525
 21
6064.681511485606
 31
0.0
 73
     2
  0
POINT
  8
DEFPOINTS
  6
BYBLOCK
 62
     0
 10
3035.048951115525
 20
5995.043351886957
 30
0.0
  0
POINT
  8
DEFPOINTS
  6
BYBLOCK
 62
     0
 10
4685.048951115525
 20
5995.043351886957
 30
0.0
  0
POINT
  8
DEFPOINTS
  6
BYBLOCK
 62
     0
 10
4685.048951115525
 20
5994.681511485605
 30
0.0
  0
ENDBLK
  8
0
  0
BLOCK
  8
0
  2
*D29
 70
    65
 10
0.0
 20
0.0
 30
0.0
  3
*D
  0
LINE
  8
0
  6
BYBLOCK
 10
2316.543716843306
 20
2060.934764040888
 30
0.0
 11
2317.814469358966
 21
2060.934764040888
 31
0.0
  0
LINE
  8
0
  6
BYBLOCK
 10
2315.486893753994
 20
1560.935880917178
 30
0.0
 11
2317.814469358966
 21
1560.935880917178
 31
0.0
  0
LINE
  8
0
  6
BYBLOCK
 10
2316.814469358966
 20
1960.934764040888
 30
0.0
 11
2316.814469358966
 21
1660.935880917178
 31
0.0
  0
SOLID
  8
0
  6
BYBLOCK
 10
2300.147802692299
 20
1960.934764040888
 30
0.0
 11
2333.481136025632
 21
1960.934764040888
 31
0.0
 12
2316.814469358966
 22
2060.934764040888
 32
0.0
 13
2316.814469358966
 23
2060.934764040888
 33
0.0
  0
SOLID
  8
0
  6
BYBLOCK
 10
2300.147802692299
 20
1660.935880917178
 30
0.0
 11
2333.481136025632
 21
1660.935880917178
 31
0.0
 12
2316.814469358966
 22
1560.935880917178
 32
0.0
 13
2316.814469358966
 23
1560.935880917178
 33
0.0
  0
TEXT
  8
0
  6
BYBLOCK
 10
2281.814469358966
 20
1710.935322479033
 30
0.0
 40
70.0
  1
500
 50
90.0
  7
ROMANS
 72
     1
 11
2246.814469358966
 21
1810.935322479033
 31
0.0
 73
     2
  0
POINT
  8
DEFPOINTS
  6
BYBLOCK
 62
     0
 10
2316.543716843306
 20
2060.934764040888
 30
0.0
  0
POINT
  8
DEFPOINTS
  6
BYBLOCK
 62
     0
 10
2315.486893753994
 20
1560.935880917178
 30
0.0
  0
POINT
  8
DEFPOINTS
  6
BYBLOCK
 62
     0
 10
2316.814469358966
 20
1560.935880917178
 30
0.0
  0
ENDBLK
  8
0
  0
BLOCK
  8
0
  2
*X30
 70
    65
 10
0.0
 20
0.0
 30
0.0
  3
*X
  0
LINE
  8
0
 62
     0
 10
768.511186599986
 20
2833.970094445891
 30
0.0
 11
4638.221936625544
 21
6703.68084447145
 31
0.0
  0
LINE
  8
0
 62
     0
 10
768.701399908841
 20
2923.962868965437
 30
0.0
 11
4638.412149934399
 21
6793.673618990998
 31
0.0
  0
LINE
  8
0
 62
     0
 10
768.891613217695
 20
3013.955643484983
 30
0.0
 11
4638.602363243256
 21
6883.666393510544
 31
0.0
  0
LINE
  8
0
 62
     0
 10
769.081826526549
 20
3103.948418004529
 30
0.0
 11
4638.792576552111
 21
6973.659168030091
 31
0.0
  0
LINE
  8
0
 62
     0
 10
769.272039835404
 20
3193.941192524075
 30
0.0
 11
4638.982789860967
 21
7063.651942549638
 31
0.0
  0
LINE
  8
0
 62
     0
 10
769.462253144258
 20
3283.93396704362
 30
0.0
 11
4639.173003169823
 21
7153.644717069185
 31
0.0
  0
LINE
  8
0
 62
     0
 10
769.652466453112
 20
3373.926741563166
 30
0.0
 11
4639.363216478677
 21
7243.637491588732
 31
0.0
  0
LINE
  8
0
 62
     0
 10
769.842679761967
 20
3463.919516082712
 30
0.0
 11
4639.553429787532
 21
7333.630266108279
 31
0.0
  0
LINE
  8
0
 62
     0
 10
770.032893070821
 20
3553.912290602259
 30
0.0
 11
4639.743643096388
 21
7423.623040627826
 31
0.0
  0
LINE
  8
0
 62
     0
 10
770.223106379675
 20
3643.905065121804
 30
0.0
 11
2221.607356191599
 21
5095.289314933729
 31
0.0
  0
LINE
  8
0
 62
     0
 10
2458.877640924214
 20
5332.559599666343
 30
0.0
 11
4639.93065526116
 21
7513.61261400329
 31
0.0
  0
LINE
  8
0
 62
     0
 10
770.413319688529
 20
3733.89783964135
 30
0.0
 11
2560.097645196626
 21
5523.582165149447
 31
0.0
  0
LINE
  8
0
 62
     0
 10
3033.124206735465
 20
5996.608726688286
 30
0.0
 11
4637.394394306105
 21
7600.878914258926
 31
0.0
  0
LINE
  8
0
 62
     0
 10
2850.047830986215
 20
5813.532350939036
 30
0.0
 11
2962.039667303768
 21
5925.524187256589
 31
0.0
  0
LINE
  8
0
 62
     0
 10
770.603532997384
 20
3823.890614160896
 30
0.0
 11
2912.515004671355
 21
5965.802085834867
 31
0.0
  0
LINE
  8
0
 62
     0
 10
3096.273059463778
 20
6149.56014062729
 30
0.0
 11
4630.279921261938
 21
7683.567002425449
 31
0.0
  0
LINE
  8
0
 62
     0
 10
753.048061303677
 20
3896.137703677881
 30
0.0
 11
3054.374217385015
 21
6197.463859759219
 31
0.0
  0
LINE
  8
0
 62
     0
 10
3096.463272772633
 20
6239.552915146838
 30
0.0
 11
4619.188178628497
 21
7762.277821002702
 31
0.0
  0
LINE
  8
0
 62
     0
 10
712.531979578621
 20
3945.424183163515
 30
0.0
 11
3054.564430693871
 21
6287.456634278766
 31
0.0
  0
LINE
  8
0
 62
     0
 10
3096.653486081488
 20
6329.545689666383
 30
0.0
 11
4604.570415992892
 21
7837.462619577785
 31
0.0
  0
LINE
  8
0
 62
     0
 10
673.546689441699
 20
3996.241454237285
 30
0.0
 11
3054.754644002727
 21
6377.449408798313
 31
0.0
  0
LINE
  8
0
 62
     0
 10
3096.843699390344
 20
6419.538464185931
 30
0.0
 11
4586.774399457448
 21
7909.469164253036
 31
0.0
  0
LINE
  8
0
 62
     0
 10
636.112751444362
 20
4048.61007745064
 30
0.0
 11
3054.944857311582
 21
6467.442183317861
 31
0.0
  0
LINE
  8
0
 62
     0
 10
3097.033912699199
 20
6509.531238705478
 30
0.0
 11
4566.073503969093
 21
7978.570829975372
 31
0.0
  0
LINE
  8
0
 62
     0
 10
600.256647525122
 20
4102.556534742092
 30
0.0
 11
3055.135070620437
 21
6557.434957837408
 31
0.0
  0
LINE
  8
0
 62
     0
 10
3097.224126008055
 20
6599.524013225026
 30
0.0
 11
4508.49598513227
 21
8010.795872349239
 31
0.0
  0
LINE
  8
0
 62
     0
 10
566.011269766992
 20
4158.113718194653
 30
0.0
 11
3055.325283929293
 21
6647.427732356955
 31
0.0
  0
LINE
  8
0
 62
     0
 10
3097.414339316911
 20
6689.516787744572
 30
0.0
 11
4418.88283483735
 21
8010.985283265013
 31
0.0
  0
LINE
  8
0
 62
     0
 10
533.41655276134
 20
4215.321562399694
 30
0.0
 11
3055.515497238149
 21
6737.420506876501
 31
0.0
  0
LINE
  8
0
 62
     0
 10
3097.604552625766
 20
6779.509562264119
 30
0.0
 11
4329.269684542429
 21
8011.174694180782
 31
0.0
  0
LINE
  8
0
 62
     0
 10
502.520279525273
 20
4274.227850374318
 30
0.0
 11
3055.705710547004
 21
6827.413281396048
 31
0.0
  0
LINE
  8
0
 62
     0
 10
3097.794765934621
 20
6869.502336783666
 30
0.0
 11
4239.656534247509
 21
8011.364105096554
 31
0.0
  0
LINE
  8
0
 62
     0
 10
473.379101633336
 20
4334.889233693072
 30
0.0
 11
3055.89592385586
 21
6917.406055915596
 31
0.0
  0
LINE
  8
0
 62
     0
 10
3097.984979243477
 20
6959.495111303213
 30
0.0
 11
4150.043383952589
 21
8011.553516012325
 31
0.0
  0
LINE
  8
0
 62
     0
 10
446.059828868191
 20
4397.372522138618
 30
0.0
 11
3056.086137164716
 21
7007.398830435143
 31
0.0
  0
LINE
  8
0
 62
     0
 10
3098.175192552333
 20
7049.48788582276
 30
0.0
 11
4060.430233657669
 21
8011.742926928096
 31
0.0
  0
LINE
  8
0
 62
     0
 10
420.641064143039
 20
4461.756318624157
 30
0.0
 11
3056.276350473571
 21
7097.391604954689
 31
0.0
  0
LINE
  8
0
 62
     0
 10
3098.365405861188
 20
7139.480660342307
 30
0.0
 11
3970.817083362748
 21
8011.932337843868
 31
0.0
  0
LINE
  8
0
 62
     0
 10
397.215288594503
 20
4528.133104286313
 30
0.0
 11
3056.466563782427
 21
7187.384379474236
 31
0.0
  0
LINE
  8
0
 62
     0
 10
3098.555619170044
 20
7229.473434861854
 30
0.0
 11
3881.203933067829
 21
8012.121748759637
 31
0.0
  0
LINE
  8
0
 62
     0
 10
375.891544163551
 20
4596.611921066053
 30
0.0
 11
3056.656777091282
 21
7277.377153993785
 31
0.0
  0
LINE
  8
0
 62
     0
 10
3098.745832478899
 20
7319.466209381401
 30
0.0
 11
3791.590782772908
 21
8012.311159675411
 31
0.0
  0
LINE
  8
0
 62
     0
 10
356.798924091044
 20
4667.321862204238
 30
0.0
 11
3056.846990400138
 21
7367.369928513331
 31
0.0
  0
LINE
  8
0
 62
     0
 10
3127.997536412539
 20
7438.520474525732
 30
0.0
 11
3701.977632477988
 21
8012.50057059118
 31
0.0
  0
LINE
  8
0
 62
     0
 10
3098.936045787755
 20
7409.458983900948
 30
0.0
 11
3103.241810731935
 21
7413.764748845127
 31
0.0
  0
LINE
  8
0
 62
     0
 10
340.091177912157
 20
4740.416677236042
 30
0.0
 11
3027.97571308421
 21
7428.301212408094
 31
0.0
  0
LINE
  8
0
 62
     0
 10
3113.417964061355
 20
7513.743463385242
 30
0.0
 11
3612.364482183068
 21
8012.689981506952
 31
0.0
  0
LINE
  8
0
 62
     0
 10
325.952887965901
 20
4816.080948500478
 30
0.0
 11
3522.751331888148
 21
8012.879392422723
 31
0.0
  0
LINE
  8
0
 62
     0
 10
314.607916859764
 20
4894.538538605033
 30
0.0
 11
3433.138181593227
 21
8013.068803338496
 31
0.0
  0
LINE
  8
0
 62
     0
 10
306.331229413197
 20
4976.064412369156
 30
0.0
 11
3343.525031298307
 21
8013.258214254266
 31
0.0
  0
LINE
  8
0
 62
     0
 10
301.46589287989
 20
5061.001637046541
 30
0.0
 11
3253.911881003386
 21
8013.447625170037
 31
0.0
  0
LINE
  8
0
 62
     0
 10
300.448329291931
 20
5149.786634669273
 30
0.0
 11
3164.298730708467
 21
8013.637036085809
 31
0.0
  0
LINE
  8
0
 62
     0
 10
303.847324890526
 20
5242.98819147856
 30
0.0
 11
3074.685580413546
 21
8013.82644700158
 31
0.0
  0
LINE
  8
0
 62
     0
 10
312.427269034898
 20
5341.370696833624
 30
0.0
 11
2985.072430118626
 21
8014.015857917351
 31
0.0
  0
LINE
  8
0
 62
     0
 10
327.257098175582
 20
5446.003087184999
 30
0.0
 11
2895.459279823706
 21
8014.205268833121
 31
0.0
  0
LINE
  8
0
 62
     0
 10
349.913437168666
 20
5558.461987388775
 30
0.0
 11
2805.846129528785
 21
8014.394679748894
 31
0.0
  0
LINE
  8
0
 62
     0
 10
382.902508322207
 20
5681.253619753007
 30
0.0
 11
2716.232979233865
 21
8014.584090664666
 31
0.0
  0
LINE
  8
0
 62
     0
 10
430.685568246522
 20
5818.839240888014
 30
0.0
 11
2626.619828938945
 21
8014.773501580437
 31
0.0
  0
LINE
  8
0
 62
     0
 10
502.903430416969
 20
5980.859664269153
 30
0.0
 11
2537.006678644024
 21
8014.962912496207
 31
0.0
  0
LINE
  8
0
 62
     0
 10
632.07077841228
 20
6199.829573475154
 30
0.0
 11
2447.393528349104
 21
8015.15232341198
 31
0.0
  0
LINE
  8
0
 62
     0
 10
850.961776302802
 20
6508.523132576369
 30
0.0
 11
2357.780378054183
 21
8015.341734327751
 31
0.0
  0
LINE
  8
0
 62
     0
 10
1044.568123151108
 20
6791.932040635366
 30
0.0
 11
2268.167227759263
 21
8015.531145243521
 31
0.0
  0
LINE
  8
0
 62
     0
 10
1238.174469999414
 20
7075.340948694363
 30
0.0
 11
2178.554077464343
 21
8015.720556159292
 31
0.0
  0
LINE
  8
0
 62
     0
 10
1431.78081684772
 20
7358.749856753362
 30
0.0
 11
2088.940927169423
 21
8015.909967075064
 31
0.0
  0
LINE
  8
0
 62
     0
 10
1540.559809891879
 20
7557.331411008211
 30
0.0
 11
1999.327776874503
 21
8016.099377990835
 31
0.0
  0
LINE
  8
0
 62
     0
 10
1546.39130665864
 20
7652.965468985665
 30
0.0
 11
1909.714626579583
 21
8016.288788906607
 31
0.0
  0
LINE
  8
0
 62
     0
 10
1559.592425645523
 20
7755.969149183239
 30
0.0
 11
1820.101476284662
 21
8016.478199822378
 31
0.0
  0
LINE
  8
0
 62
     0
 10
1582.488197338226
 20
7868.667482086634
 30
0.0
 11
1730.488325989742
 21
8016.667610738149
 31
0.0
  0
LINE
  8
0
 62
     0
 10
1619.258343914063
 20
7995.240189873163
 30
0.0
 11
1640.875175694821
 21
8016.857021653921
 31
0.0
  0
LINE
  8
0
 62
     0
 10
768.320973291132
 20
2743.977319926346
 30
0.0
 11
4638.031723316689
 21
6613.688069951903
 31
0.0
  0
LINE
  8
0
 62
     0
 10
768.130759982278
 20
2653.9845454068
 30
0.0
 11
4637.841510007834
 21
6523.695295432356
 31
0.0
  0
LINE
  8
0
 62
     0
 10
767.940546673423
 20
2563.991770887254
 30
0.0
 11
4637.651296698979
 21
6433.70252091281
 31
0.0
  0
LINE
  8
0
 62
     0
 10
767.750333364569
 20
2473.998996367708
 30
0.0
 11
4645.934221474856
 21
6352.182884477995
 31
0.0
  0
LINE
  8
0
 62
     0
 10
767.560120055715
 20
2384.006221848162
 30
0.0
 11
4660.746311391751
 21
6277.192413184198
 31
0.0
  0
LINE
  8
0
 62
     0
 10
767.369906746861
 20
2294.013447328616
 30
0.0
 11
4672.390622526064
 21
6199.03416310782
 31
0.0
  0
LINE
  8
0
 62
     0
 10
767.179693438006
 20
2204.02067280907
 30
0.0
 11
4680.509655176313
 21
6117.350634547378
 31
0.0
  0
LINE
  8
0
 62
     0
 10
766.989480129152
 20
2114.027898289524
 30
0.0
 11
3009.41402364497
 21
4356.452441805345
 31
0.0
  0
LINE
  8
0
 62
     0
 10
3046.67407213742
 20
4393.712490297794
 30
0.0
 11
4684.64214779918
 21
6031.680565959553
 31
0.0
  0
LINE
  8
0
 62
     0
 10
766.995532109193
 20
2024.231389058874
 30
0.0
 11
2618.243833582965
 21
3875.479690532646
 31
0.0
  0
LINE
  8
0
 62
     0
 10
2721.797471364969
 20
3979.03332831465
 30
0.0
 11
4684.177140518933
 21
5941.412997468614
 31
0.0
  0
LINE
  8
0
 62
     0
 10
771.520470041955
 20
1938.953765780944
 30
0.0
 11
2330.627281302954
 21
3498.060577041944
 31
0.0
  0
LINE
  8
0
 62
     0
 10
2459.757591886357
 20
3627.190887625347
 30
0.0
 11
4678.277407558933
 21
5845.710703297923
 31
0.0
  0
LINE
  8
0
 62
     0
 10
2380.94337132329
 20
3548.37666706228
 30
0.0
 11
2388.673052454658
 21
3556.106348193648
 31
0.0
  0
LINE
  8
0
 62
     0
 10
780.351581329668
 20
1857.982315857966
 30
0.0
 11
2298.323161305813
 21
3375.953895834111
 31
0.0
  0
LINE
  8
0
 62
     0
 10
2340.41221669343
 20
3418.042951221728
 30
0.0
 11
4665.742754402895
 21
5743.373488931194
 31
0.0
  0
LINE
  8
0
 62
     0
 10
792.95733049795
 20
1780.785503815557
 30
0.0
 11
2298.132947996958
 21
3285.961121314564
 31
0.0
  0
LINE
  8
0
 62
     0
 10
2340.222003384574
 20
3328.050176702181
 30
0.0
 11
4664.008857725367
 21
5651.837031042974
 31
0.0
  0
LINE
  8
0
 62
     0
 10
808.933903241802
 20
1706.959515348717
 30
0.0
 11
2297.942734688102
 21
3195.968346795017
 31
0.0
  0
LINE
  8
0
 62
     0
 10
2340.031790075718
 20
3238.057402182634
 30
0.0
 11
4703.689587600781
 21
5601.715199707696
 31
0.0
  0
LINE
  8
0
 62
     0
 10
827.967308598956
 20
1636.19035949518
 30
0.0
 11
2297.752521379246
 21
3105.97557227547
 31
0.0
  0
LINE
  8
0
 62
     0
 10
2339.841576766863
 20
3148.064627663087
 30
0.0
 11
4741.828985323067
 21
5550.052036219291
 31
0.0
  0
LINE
  8
0
 62
     0
 10
849.809055872176
 20
1568.229545557708
 30
0.0
 11
2297.562308070391
 21
3015.982797755923
 31
0.0
  0
LINE
  8
0
 62
     0
 10
2339.651363458008
 20
3058.07185314354
 30
0.0
 11
4778.403303327888
 21
5496.82379301342
 31
0.0
  0
LINE
  8
0
 62
     0
 10
935.235322418313
 20
1563.853250893154
 30
0.0
 11
2297.372094761535
 21
2925.990023236376
 31
0.0
  0
LINE
  8
0
 62
     0
 10
2339.461150149152
 20
2968.079078623993
 30
0.0
 11
4813.382621558806
 21
5442.000550033648
 31
0.0
  0
LINE
  8
0
 62
     0
 10
1024.848472713232
 20
1563.663839977381
 30
0.0
 11
2297.181881452679
 21
2835.997248716829
 31
0.0
  0
LINE
  8
0
 62
     0
 10
2339.270936840296
 20
2878.086304104445
 30
0.0
 11
4846.730283314234
 21
5385.545650578383
 31
0.0
  0
LINE
  8
0
 62
     0
 10
1114.461623008151
 20
1563.474429061609
 30
0.0
 11
2296.991668143824
 21
2746.004474197281
 31
0.0
  0
LINE
  8
0
 62
     0
 10
2339.080723531441
 20
2788.093529584898
 30
0.0
 11
4878.402172245293
 21
5327.414978298751
 31
0.0
  0
LINE
  8
0
 62
     0
 10
1204.074773303071
 20
1563.285018145837
 30
0.0
 11
2296.801454834968
 21
2656.011699677734
 31
0.0
  0
LINE
  8
0
 62
     0
 10
2338.890510222585
 20
2698.100755065351
 30
0.0
 11
4908.345795096504
 21
5267.556039939269
 31
0.0
  0
LINE
  8
0
 62
     0
 10
1293.68792359799
 20
1563.095607230064
 30
0.0
 11
2296.611241526113
 21
2566.018925158187
 31
0.0
  0
LINE
  8
0
 62
     0
 10
2338.700296913729
 20
2608.107980545804
 30
0.0
 11
4936.499122104603
 21
5205.906805736677
 31
0.0
  0
LINE
  8
0
 62
     0
 10
1383.301073892909
 20
1562.906196314292
 30
0.0
 11
2296.421028217257
 21
2476.02615063864
 31
0.0
  0
LINE
  8
0
 62
     0
 10
2338.510083604874
 20
2518.115206026257
 30
0.0
 11
4962.789119437033
 21
5142.394241858416
 31
0.0
  0
LINE
  8
0
 62
     0
 10
1472.914224187828
 20
1562.716785398519
 30
0.0
 11
2296.230814908402
 21
2386.033376119093
 31
0.0
  0
LINE
  8
0
 62
     0
 10
2338.319870296018
 20
2428.12243150671
 30
0.0
 11
4987.129883290718
 21
5076.93244450141
 31
0.0
  0
LINE
  8
0
 62
     0
 10
1562.527374482747
 20
1562.527374482747
 30
0.0
 11
2296.040601599546
 21
2296.040601599546
 31
0.0
  0
LINE
  8
0
 62
     0
 10
2338.129656987163
 20
2338.129656987163
 30
0.0
 11
5009.420249576845
 21
5009.420249576845
 31
0.0
  0
LINE
  8
0
 62
     0
 10
1652.140524777666
 20
1562.337963566975
 30
0.0
 11
2295.85038829069
 21
2206.047827079999
 31
0.0
  0
LINE
  8
0
 62
     0
 10
2337.939443678307
 20
2248.136882467616
 30
0.0
 11
5029.540700548325
 21
4939.738139337632
 31
0.0
  0
LINE
  8
0
 62
     0
 10
1741.753675072585
 20
1562.148552651203
 30
0.0
 11
5047.349310510686
 21
4867.744188089303
 31
0.0
  0
LINE
  8
0
 62
     0
 10
1831.366825367505
 20
1561.95914173543
 30
0.0
 11
2313.170606291677
 21
2043.762922659603
 31
0.0
  0
LINE
  8
0
 62
     0
 10
2330.31334348921
 20
2060.905659857136
 30
0.0
 11
5062.676350346035
 21
4793.26866671396
 31
0.0
  0
LINE
  8
0
 62
     0
 10
1920.979975662424
 20
1561.769730819658
 30
0.0
 11
5075.316976031516
 21
4716.106731188751
 31
0.0
  0
LINE
  8
0
 62
     0
 10
2010.593125957343
 20
1561.580319903885
 30
0.0
 11
5085.021107153417
 21
4636.008301099959
 31
0.0
  0
LINE
  8
0
 62
     0
 10
2100.206276252262
 20
1561.390908988113
 30
0.0
 11
5091.47905833292
 21
4552.663691068771
 31
0.0
  0
LINE
  8
0
 62
     0
 10
2189.819426547181
 20
1561.201498072341
 30
0.0
 11
5094.300522489504
 21
4465.682594014663
 31
0.0
  0
LINE
  8
0
 62
     0
 10
2279.432576842101
 20
1561.012087156568
 30
0.0
 11
5092.982706316855
 21
4374.562216631323
 31
0.0
  0
LINE
  8
0
 62
     0
 10
2369.04572713702
 20
1560.822676240796
 30
0.0
 11
5086.859856214013
 21
4278.63680531779
 31
0.0
  0
LINE
  8
0
 62
     0
 10
2458.658877431939
 20
1560.633265325023
 30
0.0
 11
5075.018823080756
 21
4176.993210973841
 31
0.0
  0
LINE
  8
0
 62
     0
 10
2548.272027726858
 20
1560.443854409251
 30
0.0
 11
5056.147587314752
 21
4068.319413997144
 31
0.0
  0
LINE
  8
0
 62
     0
 10
2637.885178021777
 20
1560.254443493479
 30
0.0
 11
5028.236998679592
 21
3950.606264151294
 31
0.0
  0
LINE
  8
0
 62
     0
 10
2727.498328316696
 20
1560.065032577706
 30
0.0
 11
4987.911204044795
 21
3820.477908305805
 31
0.0
  0
LINE
  8
0
 62
     0
 10
2817.111478611616
 20
1559.875621661934
 30
0.0
 11
4928.588172112156
 21
3671.352315162474
 31
0.0
  0
LINE
  8
0
 62
     0
 10
2906.724628906534
 20
1559.686210746162
 30
0.0
 11
4833.160149059927
 21
3486.121730899554
 31
0.0
  0
LINE
  8
0
 62
     0
 10
2996.337779201454
 20
1559.496799830389
 30
0.0
 11
4633.056592592459
 21
3196.215613221394
 31
0.0
  0
LINE
  8
0
 62
     0
 10
3085.950929496373
 20
1559.307388914617
 30
0.0
 11
4448.036143832605
 21
2921.392603250849
 31
0.0
  0
LINE
  8
0
 62
     0
 10
3175.564079791292
 20
1559.117977998845
 30
0.0
 11
4263.015695072752
 21
2646.569593280304
 31
0.0
  0
LINE
  8
0
 62
     0
 10
3265.177230086211
 20
1558.928567083072
 30
0.0
 11
4077.995246312899
 21
2371.746583309759
 31
0.0
  0
LINE
  8
0
 62
     0
 10
3354.790380381131
 20
1558.7391561673
 30
0.0
 11
3892.974797553046
 21
2096.923573339214
 31
0.0
  0
LINE
  8
0
 62
     0
 10
3444.403530676049
 20
1558.549745251527
 30
0.0
 11
3864.278395797903
 21
1978.424610373382
 31
0.0
  0
LINE
  8
0
 62
     0
 10
3534.016680970969
 20
1558.360334335755
 30
0.0
 11
3855.596756829344
 21
1879.94041019413
 31
0.0
  0
LINE
  8
0
 62
     0
 10
3623.629831265887
 20
1558.170923419983
 30
0.0
 11
3838.720554543045
 21
1773.26164669714
 31
0.0
  0
LINE
  8
0
 62
     0
 10
3713.242981560807
 20
1557.98151250421
 30
0.0
 11
3810.734081905394
 21
1655.472612848798
 31
0.0
  0
ENDBLK
  8
0
  0
BLOCK
  8
0
  2
*D31
 70
    65
 10
0.0
 20
0.0
 30
0.0
  3
*D
  0
LINE
  8
0
  6
BYBLOCK
 10
3866.540254526809
 20
2062.658612464023
 30
0.0
 11
5091.707020286597
 21
2062.658612464023
 31
0.0
  0
LINE
  8
0
  6
BYBLOCK
 10
2366.543605155677
 20
560.829081731959
 30
0.0
 11
5091.707020286597
 21
560.829081731959
 31
0.0
  0
LINE
  8
0
  6
BYBLOCK
 10
5090.707020286597
 20
1962.658612464023
 30
0.0
 11
5090.707020286597
 21
660.829081731959
 31
0.0
  0
SOLID
  8
0
  6
BYBLOCK
 10
5074.04035361993
 20
1962.658612464023
 30
0.0
 11
5107.373686953263
 21
1962.658612464023
 31
0.0
 12
5090.707020286597
 22
2062.658612464023
 32
0.0
 13
5090.707020286597
 23
2062.658612464023
 33
0.0
  0
SOLID
  8
0
  6
BYBLOCK
 10
5074.04035361993
 20
660.829081731959
 30
0.0
 11
5107.373686953263
 21
660.829081731959
 31
0.0
 12
5090.707020286597
 22
560.829081731959
 32
0.0
 13
5090.707020286597
 23
560.829081731959
 33
0.0
  0
TEXT
  8
0
  6
BYBLOCK
 10
5055.707020286598
 20
1173.410513764657
 30
0.0
 40
70.0
  1
1500
 50
90.0
  7
ROMANS
 72
     1
 11
5020.707020286597
 21
1311.743847097991
 31
0.0
 73
     2
  0
POINT
  8
DEFPOINTS
  6
BYBLOCK
 62
     0
 10
3866.540254526809
 20
2062.658612464023
 30
0.0
  0
POINT
  8
DEFPOINTS
  6
BYBLOCK
 62
     0
 10
2366.543605155677
 20
560.829081731959
 30
0.0
  0
POINT
  8
DEFPOINTS
  6
BYBLOCK
 62
     0
 10
5090.707020286597
 20
560.829081731959
 30
0.0
  0
ENDBLK
  8
0
  0
BLOCK
  8
0
  2
*D32
 70
    65
 10
0.0
 20
0.0
 30
0.0
  3
*D
  0
LINE
  8
0
  6
BYBLOCK
 10
2266.543828530934
 20
2061.040446349818
 30
0.0
 11
2266.543828530934
 21
2059.024592469453
 31
0.0
  0
LINE
  8
0
  6
BYBLOCK
 10
766.736949292201
 20
2036.971275442462
 30
0.0
 11
766.736949292201
 21
2061.024592469453
 31
0.0
  0
LINE
  8
0
  6
BYBLOCK
 10
2166.543828530935
 20
2060.024592469453
 30
0.0
 11
866.736949292201
 21
2060.024592469453
 31
0.0
  0
SOLID
  8
0
  6
BYBLOCK
 10
2166.543828530935
 20
2076.691259136119
 30
0.0
 11
2166.543828530935
 21
2043.357925802786
 31
0.0
 12
2266.543828530934
 22
2060.024592469453
 32
0.0
 13
2266.543828530934
 23
2060.024592469453
 33
0.0
  0
SOLID
  8
0
  6
BYBLOCK
 10
866.736949292201
 20
2076.691259136119
 30
0.0
 11
866.736949292201
 21
2043.357925802786
 31
0.0
 12
766.736949292201
 22
2060.024592469453
 32
0.0
 13
766.736949292201
 23
2060.024592469453
 33
0.0
  0
TEXT
  8
0
  6
BYBLOCK
 10
1378.307055578235
 20
2095.024592469453
 30
0.0
 40
70.0
  1
1500
  7
ROMANS
 72
     1
 11
1516.640388911568
 21
2130.024592469453
 31
0.0
 73
     2
  0
POINT
  8
DEFPOINTS
  6
BYBLOCK
 62
     0
 10
2266.543828530934
 20
2061.040446349818
 30
0.0
  0
POINT
  8
DEFPOINTS
  6
BYBLOCK
 62
     0
 10
766.736949292201
 20
2036.971275442462
 30
0.0
  0
POINT
  8
DEFPOINTS
  6
BYBLOCK
 62
     0
 10
766.736949292201
 20
2060.024592469453
 30
0.0
  0
ENDBLK
  8
0
  0
BLOCK
  8
0
  2
*D33
 70
    65
 10
0.0
 20
0.0
 30
0.0
  3
*D
  0
LINE
  8
0
  6
BYBLOCK
 10
3127.963578512557
 20
7422.454481800909
 30
0.0
 11
3127.963578512557
 21
7420.009062427565
 31
0.0
  0
LINE
  8
0
  6
BYBLOCK
 10
4639.736004408113
 20
7424.164522654784
 30
0.0
 11
4639.736004408113
 21
7420.009062427565
 31
0.0
  0
LINE
  8
0
  6
BYBLOCK
 10
3227.963578512557
 20
7421.009062427565
 30
0.0
 11
4539.736004408112
 21
7421.009062427565
 31
0.0
  0
SOLID
  8
0
  6
BYBLOCK
 10
3227.963578512557
 20
7437.675729094233
 30
0.0
 11
3227.963578512557
 21
7404.342395760899
 31
0.0
 12
3127.963578512557
 22
7421.009062427565
 32
0.0
 13
3127.963578512557
 23
7421.009062427565
 33
0.0
  0
SOLID
  8
0
  6
BYBLOCK
 10
4539.736004408112
 20
7437.675729094233
 30
0.0
 11
4539.736004408112
 21
7404.342395760899
 31
0.0
 12
4639.736004408113
 22
7421.009062427565
 32
0.0
 13
4639.736004408113
 23
7421.009062427565
 33
0.0
  0
TEXT
  8
0
  6
BYBLOCK
 10
3745.516458127001
 20
7456.009062427566
 30
0.0
 40
70.0
  1
1500
  7
ROMANS
 72
     1
 11
3883.849791460335
 21
7491.009062427565
 31
0.0
 73
     2
  0
POINT
  8
DEFPOINTS
  6
BYBLOCK
 62
     0
 10
3127.963578512557
 20
7422.454481800909
 30
0.0
  0
POINT
  8
DEFPOINTS
  6
BYBLOCK
 62
     0
 10
4639.736004408113
 20
7424.164522654784
 30
0.0
  0
POINT
  8
DEFPOINTS
  6
BYBLOCK
 62
     0
 10
4639.736004408113
 20
7421.009062427565
 30
0.0
  0
ENDBLK
  8
0
  0
BLOCK
  8
0
  2
AKX00
 70
     0
 10
0.0
 20
0.0
 30
0.0
  3
AKX00
  0
LINE
  8
STREEPLIJN
 10
41288.3743923103
 20
30213.04295098595
 30
0.0
 11
41288.3743923103
 21
26713.04295098597
 31
0.0
  0
LINE
  8
STREEPLIJN
 10
40288.3743923103
 20
30213.04295098595
 30
0.0
 11
40288.3743923103
 21
26713.04295098596
 31
0.0
  0
LINE
  8
STREEPLIJN
 10
42288.3743923103
 20
30213.04295098596
 30
0.0
 11
42288.3743923103
 21
26713.04295098597
 31
0.0
  0
LINE
  8
STREEPLIJN
 10
43288.3743923103
 20
30213.04295098596
 30
0.0
 11
43288.3743923103
 21
26713.04295098597
 31
0.0
  0
LINE
  8
STREEPLIJN
 10
44288.3743923103
 20
30213.04295098596
 30
0.0
 11
44288.3743923103
 21
26713.04295098597
 31
0.0
  0
LINE
  8
STREEPLIJN
 10
39288.3743923103
 20
30213.04295098595
 30
0.0
 11
39288.3743923103
 21
26713.04295098596
 31
0.0
  0
LINE
  8
STREEPLIJN
 10
38288.37439231029
 20
30213.04295098595
 30
0.0
 11
38288.37439231029
 21
26713.04295098596
 31
0.0
  0
LINE
  8
STREEPLIJN
 10
37288.3743923103
 20
30213.04295098596
 30
0.0
 11
37288.3743923103
 21
26713.04295098596
 31
0.0
  0
LINE
  8
STREEPLIJN
 10
37288.3743923103
 20
26713.04295098596
 30
0.0
 11
44288.3743923103
 21
26713.04295098597
 31
0.0
  0
LINE
  8
STREEPLIJN
 10
37288.3743923103
 20
30213.04295098595
 30
0.0
 11
44288.3743923103
 21
30213.04295098595
 31
0.0
  0
LINE
  8
STREEPLIJN
 10
37288.3743923103
 20
27213.04295098596
 30
0.0
 11
44288.3743923103
 21
27213.04295098597
 31
0.0
  0
LINE
  8
STREEPLIJN
 10
37288.3743923103
 20
28213.04295098596
 30
0.0
 11
44288.3743923103
 21
28213.04295098597
 31
0.0
  0
LINE
  8
STREEPLIJN
 10
37288.3743923103
 20
29213.04295098596
 30
0.0
 11
44288.3743923103
 21
29213.04295098597
 31
0.0
  0
TEXT
  8
DIK
 10
42966.9401188307
 20
24156.21017759142
 30
0.0
 40
150.0
  1
afgerond= 25 tegels
  7
ROMANS
  0
POLYLINE
  8
DUN
 66
     1
 10
0.0
 20
0.0
 30
0.0
 70
     1
  0
VERTEX
  8
DUN
 10
36315.9248380172
 20
31303.03037889501
 30
0.0
  0
VERTEX
  8
DUN
 10
36315.9248380172
 20
23911.06625624618
 30
0.0
  0
VERTEX
  8
DUN
 10
45541.82596216184
 20
23911.06625624618
 30
0.0
  0
VERTEX
  8
DUN
 10
45541.82596216184
 20
31303.03037889501
 30
0.0
  0
SEQEND
  8
DUN
  0
POLYLINE
  8
DUN
 66
     1
 10
0.0
 20
0.0
 30
0.0
 70
     1
  0
VERTEX
  8
DUN
 10
36313.62476294596
 20
39538.30058482854
 30
0.0
  0
VERTEX
  8
DUN
 10
36313.62476294596
 20
31958.1151791251
 30
0.0
  0
VERTEX
  8
DUN
 10
45573.75935590491
 20
31958.1151791251
 30
0.0
  0
VERTEX
  8
DUN
 10
45573.75935590491
 20
39538.30058482854
 30
0.0
  0
SEQEND
  8
DUN
  0
ARC
  8
DIK
  6
DASHED
 10
44212.37045137268
 20
46588.50931616347
 30
0.0
 40
500.0
 50
0.0
 51
90.0
  0
ARC
  8
DIK
  6
DASHED
 10
44212.37045137268
 20
42488.50931616348
 30
0.0
 40
500.0
 50
270.0
 51
0.0
  0
ARC
  8
DIK
  6
DASHED
 10
37232.37045137269
 20
42488.50931616348
 30
0.0
 40
500.0
 50
180.0
 51
270.0
  0
ARC
  8
DIK
  6
DASHED
 10
37232.37045137268
 20
46588.50931616347
 30
0.0
 40
500.0
 50
90.0
 51
180.0
  0
POLYLINE
  8
DUN
 66
     1
 10
0.0
 20
0.0
 30
0.0
 70
     1
  0
VERTEX
  8
DUN
 10
36313.62476294596
 20
47758.39918209797
 30
0.0
  0
VERTEX
  8
DUN
 10
36313.62476294596
 20
40178.21377639453
 30
0.0
  0
VERTEX
  8
DUN
 10
45573.75935590491
 20
40178.21377639453
 30
0.0
  0
VERTEX
  8
DUN
 10
45573.75935590491
 20
47758.39918209797
 30
0.0
  0
SEQEND
  8
DUN
  0
DIMENSION
  8
DUN
  2
*D53
 10
44712.37045137268
 20
41243.29335851303
 30
0.0
 11
40722.37045137268
 21
41323.29335851303
 31
0.0
 12
11068.57457453656
 22
17686.04901289893
 32
0.0
 13
36732.37045137268
 23
41988.50931616348
 33
0.0
 14
44712.37045137268
 24
41988.50931616348
 34
0.0
  3
STANDAARD
  0
DIMENSION
  8
DUN
  2
*D52
 10
45231.08045013874
 20
47088.50931616348
 30
0.0
 11
45151.08045013874
 21
44538.50931616348
 31
0.0
 12
11068.57457453656
 22
17686.04901289893
 32
0.0
 13
45212.3704513727
 23
41988.50931616349
 33
0.0
 14
45212.3704513727
 24
47088.50931616348
 34
0.0
 50
90.0
  3
STANDAARD
  0
LINE
  8
DUN
 10
45112.3704513727
 20
41988.50931616348
 30
0.0
 11
45312.37045137269
 21
41988.50931616349
 31
0.0
  0
LINE
  8
DUN
 10
45112.3704513727
 20
47088.50931616348
 30
0.0
 11
45312.37045137269
 21
47088.50931616348
 31
0.0
  0
DIMENSION
  8
DUN
  2
*D51
 10
45023.14580922857
 20
46113.50931616348
 30
0.0
 11
44943.14580922857
 21
44538.50931616348
 31
0.0
 12
11068.57457453656
 22
17686.04901289893
 32
0.0
 13
45012.3704513727
 23
42963.50931616347
 33
0.0
 14
45012.3704513727
 24
46113.50931616348
 34
0.0
 50
90.0
  3
STANDAARD
  0
LINE
  8
DUN
 10
44912.37045137268
 20
42963.50931616347
 30
0.0
 11
45112.3704513727
 21
42963.50931616348
 31
0.0
  0
LINE
  8
DUN
 10
44912.37045137268
 20
46113.50931616348
 30
0.0
 11
45112.3704513727
 21
46113.50931616348
 31
0.0
  0
LINE
  8
DIK
  6
DASHED
 10
44212.37045137268
 20
41988.50931616348
 30
0.0
 11
37232.37045137269
 21
41988.50931616348
 31
0.0
  0
LINE
  8
DIK
  6
DASHED
 10
44712.37045137268
 20
46588.50931616347
 30
0.0
 11
44712.37045137268
 21
42488.50931616348
 31
0.0
  0
LINE
  8
DIK
  6
DASHED
 10
37232.37045137268
 20
47088.50931616348
 30
0.0
 11
44212.37045137268
 21
47088.50931616348
 31
0.0
  0
LINE
  8
DIK
  6
DASHED
 10
36732.37045137269
 20
42488.50931616348
 30
0.0
 11
36732.37045137268
 21
46588.50931616347
 31
0.0
  0
TEXT
  8
DUN
 10
38131.29304223059
 20
40503.39846431577
 30
0.0
 40
200.0
  1
Obstakelvrijeruimte
  7
ROMANS
  0
TEXT
  8
DUN
 10
38210.8989548121
 20
32200.60070369698
 30
0.0
 40
200.0
  1
Valdempende ondergrond
  7
ROMANS
  0
TEXT
  8
DUN
 10
38172.37992403711
 20
24312.81435947616
 30
0.0
 40
200.0
  1
rubbertegels 1mx1m
  7
ROMANS
  0
POLYLINE
  8
STREEPLIJN
 66
     1
 10
0.0
 20
0.0
 30
0.0
 70
     1
  0
VERTEX
  8
STREEPLIJN
 10
37006.14629365369
 20
33153.16284231617
 30
0.0
  0
VERTEX
  8
STREEPLIJN
 10
37006.14629365369
 20
32153.16284231619
 30
0.0
  0
VERTEX
  8
STREEPLIJN
 10
38006.14629365369
 20
32153.16284231619
 30
0.0
  0
VERTEX
  8
STREEPLIJN
 10
38006.14629365369
 20
33153.16284231617
 30
0.0
  0
SEQEND
  8
STREEPLIJN
  0
POLYLINE
  8
STREEPLIJN
 66
     1
 10
0.0
 20
0.0
 30
0.0
 70
     1
  0
VERTEX
  8
STREEPLIJN
 10
37006.14629365369
 20
25246.55125802577
 30
0.0
  0
VERTEX
  8
STREEPLIJN
 10
37006.14629365369
 20
24246.55125802579
 30
0.0
  0
VERTEX
  8
STREEPLIJN
 10
38006.14629365369
 20
24246.55125802579
 30
0.0
  0
VERTEX
  8
STREEPLIJN
 10
38006.14629365369
 20
25246.55125802577
 30
0.0
  0
SEQEND
  8
STREEPLIJN
  0
INSERT
  8
STREEPLIJN
  2
*X54
 10
0.0
 20
0.0
 30
0.0
1001
ACAD
1000
HATCH
1002
{
1070
    16
1000
ANSI31
1040
40.0
1040
0.0
1002
}
  0
ENDBLK
  8
0
  0
BLOCK
  8
0
  2
ACAD1306
 70
     0
 10
0.0
 20
0.0
 30
0.0
  3
ACAD1306
  0
INSERT
  8
DUN
 66
     1
  2
A4S
 10
7457.848178303282
 20
6816.897785734175
 30
0.0
 41
25.0
 42
25.0
 43
25.0
  0
ATTRIB
  8
DUN
 10
11154.48996100214
 20
7377.74799558328
 30
0.0
 40
62.5
  1
1:25
  2
SCHAAL
 70
     0
  7
ROMANS
  0
ATTRIB
  8
DUN
 10
11098.75761846189
 20
7034.400627185726
 30
0.0
 40
62.5
  1
april 1997
  2
DATUM
 70
     0
  7
ROMANS
  0
ATTRIB
  8
DUN
 10
11368.98417968597
 20
6861.507596353924
 30
0.0
 40
62.5
  1
S. van Leeuwen
  2
GETEKEND
 70
     0
  7
ROMANS
  0
ATTRIB
  8
DUN
 10
11411.51068645641
 20
7209.321572272068
 30
0.0
 40
62.5
  1
mm
  2
MAATEENHEID
 70
     0
  7
ROMANS
  0
ATTRIB
  8
DUN
 10
8032.598600701128
 20
7390.299809756555
 30
0.0
 40
62.5
  1
Plaatsing ROOS 
  2
BENAMING
 70
     0
  7
ROMANS
  0
ATTRIB
  8
DUN
 10
9400.140563283381
 20
6910.344474767492
 30
0.0
 40
62.5
  1
AK 714
  2
TEK.NR.
 70
     0
  7
ROMANS
  0
SEQEND
  8
DUN
  0
TEXT
  8
DIK
 10
8195.958343086131
 20
7890.141580783528
 30
0.0
 40
50.0
  1
Dubbele BETONFUNDERING
  7
ROMANS
  0
TEXT
  8
DIK
 10
8188.538938690973
 20
7813.77459110361
 30
0.0
 40
50.0
  1
Kuil: 300x600 mm
  7
ROMANS
  0
TEXT
  8
DIK
 10
8188.538938690973
 20
7732.822210151229
 30
0.0
 40
50.0
  1
Diepte: 500 mm
  7
ROMANS
  0
LINE
  8
DIK
 10
9178.384225652456
 20
9815.159022176267
 30
0.0
 11
7997.594811847393
 21
9815.159022176267
 31
0.0
  0
TEXT
  8
DIK
 10
8027.115647627375
 20
9846.294230061396
 30
0.0
 40
60.0
  1
Kijkrichting
  7
ROMANS
 11
8027.115647627375
 21
9876.294230061397
 31
0.0
 73
     2
  0
TEXT
  8
DIK
 10
7930.73692130013
 20
9293.788181623819
 30
0.0
 40
50.0
  1
BETONFUNDERING
  7
ROMANS
  0
TEXT
  8
DIK
 10
7923.317516904972
 20
9136.468810991519
 30
0.0
 40
50.0
  1
Diepte: 500 mm
  7
ROMANS
  0
TEXT
  8
DIK
 10
7923.317516904972
 20
9217.4211919439
 30
0.0
 40
50.0
  1
Kuil: 300x600 mm
  7
ROMANS
  0
SOLID
  8
DIK
 10
9130.770616435905
 20
9820.086749340978
 30
0.0
 11
9130.770616435905
 21
9796.753416007646
 31
0.0
 12
9200.770616435905
 22
9808.420082674313
 32
0.0
 13
9200.770616435905
 23
9808.420082674313
 33
0.0
  0
INSERT
  8
DIK
  2
ACAD162F
 10
-526335.8633804267
 20
-349753.4138942679
 30
0.0
 41
15.0
 42
15.0
 43
15.0
  0
INSERT
  8
DUN
 66
     1
  2
A4S
 10
14423.61064056095
 20
5065.407958029315
 30
0.0
 41
50.0
 42
50.0
 43
50.0
  0
ATTRIB
  8
DUN
 10
21816.89420595867
 20
6187.108377727525
 30
0.0
 40
125.0
  1
1:50
  2
SCHAAL
 70
     0
  7
ROMANS
  0
ATTRIB
  8
DUN
 10
21705.42952087817
 20
5500.413640932418
 30
0.0
 40
125.0
  1
april 1997
  2
DATUM
 70
     0
  7
ROMANS
  0
ATTRIB
  8
DUN
 10
22245.88264332633
 20
5154.627579268815
 30
0.0
 40
125.0
  1
S. van Leeuwen
  2
GETEKEND
 70
     0
  7
ROMANS
  0
ATTRIB
  8
DUN
 10
22330.93565686722
 20
5850.255531105101
 30
0.0
 40
125.0
  1
mm
  2
MAATEENHEID
 70
     0
  7
ROMANS
  0
ATTRIB
  8
DUN
 10
15573.11148535664
 20
6212.212006074076
 30
0.0
 40
125.0
  1
Obstakelvrije-ruimte ROOS 
  2
BENAMING
 70
     0
  7
ROMANS
  0
ATTRIB
  8
DUN
 10
18308.19541052115
 20
5252.30133609595
 30
0.0
 40
125.0
  1
AK 714a
  2
TEK.NR.
 70
     0
  7
ROMANS
  0
SEQEND
  8
DUN
  0
TEXT
  8
DIK
 10
14593.98285948564
 20
18100.34735629979
 30
0.0
 40
100.0
  1
Veilige ondergrond in de gehele obstakelvrije-ruimte.
  7
ROMANS
  0
ENDBLK
  8
0
  0
BLOCK
  8
0
  2
ACAD287A
 70
     0
 10
0.0
 20
0.0
 30
0.0
  3
ACAD287A
  0
INSERT
  8
DUN
 66
     1
  2
A4S
 10
7457.848178303282
 20
6816.897785734175
 30
0.0
 41
25.0
 42
25.0
 43
25.0
  0
ATTRIB
  8
DUN
 10
11154.48996100214
 20
7377.74799558328
 30
0.0
 40
62.5
  1
1:25
  2
SCHAAL
 70
     0
  7
ROMANS
  0
ATTRIB
  8
DUN
 10
11098.75761846189
 20
7034.400627185726
 30
0.0
 40
62.5
  1
april 1997
  2
DATUM
 70
     0
  7
ROMANS
  0
ATTRIB
  8
DUN
 10
11368.98417968597
 20
6861.507596353924
 30
0.0
 40
62.5
  1
S. van Leeuwen
  2
GETEKEND
 70
     0
  7
ROMANS
  0
ATTRIB
  8
DUN
 10
11411.51068645641
 20
7209.321572272068
 30
0.0
 40
62.5
  1
mm
  2
MAATEENHEID
 70
     0
  7
ROMANS
  0
ATTRIB
  8
DUN
 10
8032.598600701128
 20
7390.299809756555
 30
0.0
 40
62.5
  1
Plaatsing ROOS 
  2
BENAMING
 70
     0
  7
ROMANS
  0
ATTRIB
  8
DUN
 10
9400.140563283381
 20
6910.344474767492
 30
0.0
 40
62.5
  1
AK 714
  2
TEK.NR.
 70
     0
  7
ROMANS
  0
SEQEND
  8
DUN
  0
TEXT
  8
DIK
 10
8195.958343086131
 20
7890.141580783528
 30
0.0
 40
50.0
  1
Dubbele BETONFUNDERING
  7
ROMANS
  0
TEXT
  8
DIK
 10
8188.538938690973
 20
7813.77459110361
 30
0.0
 40
50.0
  1
Kuil: 300x600 mm
  7
ROMANS
  0
TEXT
  8
DIK
 10
8188.538938690973
 20
7732.822210151229
 30
0.0
 40
50.0
  1
Diepte: 500 mm
  7
ROMANS
  0
LINE
  8
DIK
 10
9178.384225652456
 20
9815.159022176267
 30
0.0
 11
7997.594811847393
 21
9815.159022176267
 31
0.0
  0
TEXT
  8
DIK
 10
8027.115647627375
 20
9846.294230061396
 30
0.0
 40
60.0
  1
Kijkrichting
  7
ROMANS
 11
8027.115647627375
 21
9876.294230061397
 31
0.0
 73
     2
  0
TEXT
  8
DIK
 10
7930.73692130013
 20
9293.788181623819
 30
0.0
 40
50.0
  1
BETONFUNDERING
  7
ROMANS
  0
TEXT
  8
DIK
 10
7923.317516904972
 20
9136.468810991519
 30
0.0
 40
50.0
  1
Diepte: 500 mm
  7
ROMANS
  0
TEXT
  8
DIK
 10
7923.317516904972
 20
9217.4211919439
 30
0.0
 40
50.0
  1
Kuil: 300x600 mm
  7
ROMANS
  0
SOLID
  8
DIK
 10
9130.770616435905
 20
9820.086749340978
 30
0.0
 11
9130.770616435905
 21
9796.753416007646
 31
0.0
 12
9200.770616435905
 22
9808.420082674313
 32
0.0
 13
9200.770616435905
 23
9808.420082674313
 33
0.0
  0
INSERT
  8
DIK
  2
ACAD162F
 10
-526335.8633804267
 20
-349753.4138942679
 30
0.0
 41
15.0
 42
15.0
 43
15.0
  0
INSERT
  8
DUN
 66
     1
  2
A4S
 10
14423.61064056095
 20
5065.407958029315
 30
0.0
 41
50.0
 42
50.0
 43
50.0
  0
ATTRIB
  8
DUN
 10
21816.89420595867
 20
6187.108377727525
 30
0.0
 40
125.0
  1
1:50
  2
SCHAAL
 70
     0
  7
ROMANS
  0
ATTRIB
  8
DUN
 10
21705.42952087817
 20
5500.413640932418
 30
0.0
 40
125.0
  1
april 1997
  2
DATUM
 70
     0
  7
ROMANS
  0
ATTRIB
  8
DUN
 10
22245.88264332633
 20
5154.627579268815
 30
0.0
 40
125.0
  1
S. van Leeuwen
  2
GETEKEND
 70
     0
  7
ROMANS
  0
ATTRIB
  8
DUN
 10
22330.93565686722
 20
5850.255531105101
 30
0.0
 40
125.0
  1
mm
  2
MAATEENHEID
 70
     0
  7
ROMANS
  0
ATTRIB
  8
DUN
 10
15573.11148535664
 20
6212.212006074076
 30
0.0
 40
125.0
  1
Obstakelvrije-ruimte ROOS 
  2
BENAMING
 70
     0
  7
ROMANS
  0
ATTRIB
  8
DUN
 10
18308.19541052115
 20
5252.30133609595
 30
0.0
 40
125.0
  1
AK 714a
  2
TEK.NR.
 70
     0
  7
ROMANS
  0
SEQEND
  8
DUN
  0
TEXT
  8
DIK
 10
14593.98285948564
 20
18100.34735629979
 30
0.0
 40
100.0
  1
Veilige ondergrond in de gehele obstakelvrije-ruimte.
  7
ROMANS
  0
ENDBLK
  8
0
  0
BLOCK
  8
0
  2
ACAD1B78
 70
     0
 10
0.0
 20
0.0
 30
0.0
  3
ACAD1B78
  0
INSERT
  8
DUN
 66
     1
  2
A4S
 10
17969.1431073978
 20
2957.184935128287
 30
0.0
 41
40.0
 42
40.0
 43
40.0
  0
ATTRIB
  8
DUN
 10
23883.76995971598
 20
3854.545270886855
 30
0.0
 40
100.0
  1
1:40
  2
SCHAAL
 70
     0
  7
ROMANS
  0
ATTRIB
  8
DUN
 10
23794.59821165158
 20
3305.189481450769
 30
0.0
 40
100.0
  1
april 1997
  2
DATUM
 70
     0
  7
ROMANS
  0
ATTRIB
  8
DUN
 10
24226.96070961011
 20
3028.560632119887
 30
0.0
 40
100.0
  1
S. van Leeuwen
  2
GETEKEND
 70
     0
  7
ROMANS
  0
ATTRIB
  8
DUN
 10
24295.00312044282
 20
3585.062993588916
 30
0.0
 40
100.0
  1
mm
  2
MAATEENHEID
 70
     0
  7
ROMANS
  0
ATTRIB
  8
DUN
 10
18888.74378323435
 20
3874.628173564095
 30
0.0
 40
100.0
  1
Obstakelvrije-ruimte ANEMONE
  2
BENAMING
 70
     0
  7
ROMANS
  0
ATTRIB
  8
DUN
 10
21076.81092336596
 20
3106.699637581594
 30
0.0
 40
100.0
  1
AK 731
  2
TEK.NR.
 70
     0
  7
ROMANS
  0
SEQEND
  8
DUN
  0
DIMENSION
  8
DUN
  2
*D42
 10
21920.39984446363
 20
4818.918734503893
 30
0.0
 11
21840.39984446363
 21
5818.918734503893
 31
0.0
 12
21118.93523406079
 22
9300.663864716559
 32
0.0
 13
21914.6995055326
 23
6818.918734503893
 33
0.0
 14
21940.35112588606
 24
4818.918734503893
 34
0.0
 50
90.0
  3
STANDAARD
  0
DIMENSION
  8
DUN
  2
*D44
 10
24669.23678582999
 20
4818.918734503893
 30
0.0
 11
24589.23678582999
 21
8544.168734503891
 31
0.0
 13
23947.35248426107
 23
12269.41873450388
 33
0.0
 14
23104.78348420327
 24
4818.918734503893
 34
0.0
 50
90.0
  3
STANDAARD
  0
LINE
  8
DIK
 10
20651.57813251509
 20
8252.994512118004
 30
0.0
 11
20651.57813251509
 21
5619.418734503892
 31
0.0
  0
LINE
  8
DIK
 10
23171.57813251509
 20
8252.994512118039
 30
0.0
 11
23171.57813251509
 21
5619.418734503891
 31
0.0
  0
LINE
  8
DIK
 10
21651.57813251509
 20
9549.418734503889
 30
0.0
 11
21651.57813251509
 21
6768.918734503892
 31
0.0
  0
LINE
  8
DIK
 10
22171.57813251509
 20
9549.418734503889
 30
0.0
 11
22171.57813251509
 21
6768.918734503892
 31
0.0
  0
LINE
  8
DIK
 10
21701.57813251509
 20
9549.418734503889
 30
0.0
 11
21701.57813251509
 21
6768.918734503892
 31
0.0
  0
LINE
  8
DIK
 10
22121.57813251509
 20
9549.418734503889
 30
0.0
 11
22121.57813251509
 21
6768.918734503892
 31
0.0
  0
DIMENSION
  8
DUN
  2
*D41
 10
20651.57813251509
 20
4524.343558120358
 30
0.0
 11
21911.57813251509
 21
4604.343558120358
 31
0.0
 12
21118.93523406079
 22
9475.057133380067
 32
0.0
 13
23171.57813251509
 23
6110.541139725922
 33
0.0
 14
20651.57813251509
 24
6209.67846620544
 34
0.0
  3
STANDAARD
  0
LINE
  8
STREEPLIJN
 10
21654.50662297535
 20
4818.113540323165
 30
0.0
 11
20654.50662297535
 21
4818.113540323165
 31
0.0
  0
ARC
  8
DIK
 10
21654.50662297535
 20
5818.113540323166
 30
0.0
 40
1000.0
 50
180.0
 51
270.0
  0
LINE
  8
STREEPLIJN
 10
20651.57813251508
 20
5953.189197915397
 30
0.0
 11
20651.57813251508
 21
4893.812003167398
 31
0.0
  0
ARC
  8
DIK
 10
22174.50662297535
 20
5818.113540323165
 30
0.0
 40
1000.0
 50
270.0
 51
0.0
  0
LINE
  8
STREEPLIJN
 10
22174.50662297534
 20
4818.113540323165
 30
0.0
 11
23174.50662297535
 21
4818.113540323165
 31
0.0
  0
LINE
  8
DIK
 10
22121.57813251509
 20
4818.918734503893
 30
0.0
 11
21701.57813251508
 21
4818.918734503893
 31
0.0
  0
LINE
  8
DIK
 10
22118.80625685465
 20
4818.918734503893
 30
0.0
 11
21698.80625685465
 21
4818.918734503893
 31
0.0
  0
LINE
  8
DIK
 10
22118.80625685465
 20
4818.918734503893
 30
0.0
 11
21698.80625685465
 21
4818.918734503893
 31
0.0
  0
LINE
  8
DIK
 10
22174.50662297534
 20
4818.113540323165
 30
0.0
 11
21654.50662297534
 21
4818.113540323168
 31
0.0
  0
LINE
  8
DIK
 10
21701.57813251509
 20
6768.918734503892
 30
0.0
 11
21651.57813251509
 21
6768.918734503892
 31
0.0
  0
LINE
  8
DIK
 10
22171.57813251509
 20
6768.918734503892
 30
0.0
 11
22121.57813251509
 21
6768.918734503892
 31
0.0
  0
LINE
  8
STREEPLIJN
 10
23171.57813251509
 20
5953.189197915397
 30
0.0
 11
23171.57813251509
 21
4893.812003167398
 31
0.0
  0
TEXT
  8
DIK
 10
18277.13352821414
 20
13183.00695056774
 30
0.0
 40
100.0
  1
Veilige ondergrond in het gearceerde gedeelte.
  7
ROMANS
  0
LINE
  8
DIK
 10
20651.57813251509
 20
8252.994512118023
 30
0.0
 11
21651.57813251509
 21
8252.994512118023
 31
0.0
  0
DIMENSION
  8
DUN
  2
*D40
 10
20651.57813251509
 20
7070.719744127971
 30
0.0
 11
21151.57813251509
 21
7150.719744127971
 31
0.0
 12
21118.93523406079
 22
9300.663864716559
 32
0.0
 13
21651.57813251509
 23
7280.00968311806
 33
0.0
 14
20651.57813251509
 24
7268.994424620336
 34
0.0
  3
STANDAARD
  0
DIMENSION
  8
DUN
  2
*D46
 10
24011.57813251509
 20
12569.7680862713
 30
0.0
 11
21911.57813251508
 21
12649.7680862713
 31
0.0
 13
19811.57813251509
 23
10421.24626046339
 33
0.0
 14
24011.57813251509
 24
10387.80932693116
 34
0.0
  3
STANDAARD
  0
LINE
  8
STREEPLIJN
 10
21546.95216642195
 20
12269.41873450389
 30
0.0
 11
19811.57813251509
 21
12269.41873450389
 31
0.0
  0
ARC
  8
DIK
 10
21511.57813251509
 20
10569.41873450389
 30
0.0
 40
1700.0
 50
90.0
 51
180.0
  0
DIMENSION
  8
DUN
  2
*D38
 10
19811.57813251509
 20
10164.89645597989
 30
0.0
 11
20561.57813251509
 21
10244.89645597989
 31
0.0
 12
21168.93523406079
 22
9300.663864716559
 32
0.0
 13
21311.57813251509
 23
10122.10515186509
 33
0.0
 14
19811.57813251509
 24
10201.10448550219
 34
0.0
  3
STANDAARD
  0
LINE
  8
STREEPLIJN
 10
19811.57813251509
 20
10490.59669943615
 30
0.0
 11
19811.57813251509
 21
12269.41873450389
 31
0.0
  0
ARC
  8
DIK
 10
21511.57813251509
 20
9719.418734503889
 30
0.0
 40
1700.0
 50
180.0
 51
239.610057550673
  0
LINE
  8
STREEPLIJN
 10
19811.57813251509
 20
9848.240769571624
 30
0.0
 11
19811.57813251509
 21
8252.994512118023
 31
0.0
  0
LINE
  8
STREEPLIJN
 10
20701.57813251509
 20
8252.994512118025
 30
0.0
 11
19811.57813251509
 21
8252.994512118023
 31
0.0
  0
LINE
  8
DIK
 10
19811.57813251509
 20
10619.41873450389
 30
0.0
 11
19811.57813251509
 21
9719.418734503889
 31
0.0
  0
DIMENSION
  8
DUN
  2
*D45
 10
24363.5558379434
 20
8252.994512118023
 30
0.0
 11
24283.5558379434
 21
10261.20662331095
 31
0.0
 13
23892.99368944891
 23
12269.41873450388
 33
0.0
 14
23916.98324248612
 24
8252.994512118023
 34
0.0
 50
90.0
  3
STANDAARD
  0
ARC
  8
DIK
 10
22311.57813251509
 20
10569.41873450389
 30
0.0
 40
1700.0
 50
0.0
 51
90.0
  0
LINE
  8
STREEPLIJN
 10
24011.57813251509
 20
10490.59669943615
 30
0.0
 11
24011.57813251509
 21
12269.41873450388
 31
0.0
  0
DIMENSION
  8
DUN
  2
*D39
 10
21805.04240931767
 20
12269.41873450388
 30
0.0
 11
21725.04240931767
 21
11519.41873450389
 31
0.0
 12
21162.99784788534
 22
9250.66386471656
 32
0.0
 13
21325.62050067778
 23
10769.41873450389
 33
0.0
 14
21859.04323187276
 24
12269.41873450388
 34
0.0
 50
90.0
  3
STANDAARD
  0
LINE
  8
STREEPLIJN
 10
24011.57813251509
 20
9848.240769571624
 30
0.0
 11
24011.57813251509
 21
8224.795036043303
 31
0.0
  0
ARC
  8
DIK
 10
22311.57813251509
 20
9719.418734503893
 30
0.0
 40
1700.0
 50
300.389942449328
 51
0.0
  0
LINE
  8
DIK
 10
22171.57813251509
 20
8252.994512118023
 30
0.0
 11
23171.57813251509
 21
8252.994512118025
 31
0.0
  0
LINE
  8
DIK
 10
22121.57813251509
 20
6818.918734503893
 30
0.0
 11
21701.57813251509
 21
6818.918734503893
 31
0.0
  0
DIMENSION
  8
DUN
  2
*D43
 10
24011.57813251509
 20
7819.757459639864
 30
0.0
 11
23591.57813251509
 21
7899.757459639863
 31
0.0
 13
23171.57813251509
 23
7819.757459639864
 33
0.0
 14
24011.57813251509
 24
8381.164472108125
 34
0.0
  3
STANDAARD
  0
LINE
  8
STREEPLIJN
 10
23171.57813251509
 20
8252.994512118023
 30
0.0
 11
24061.57813251509
 21
8252.994512118023
 31
0.0
  0
POLYLINE
  8
DIK
 66
     1
 10
0.0
 20
0.0
 30
0.0
  0
VERTEX
  8
DIK
 10
22511.57813251509
 20
10819.41873450389
 30
0.0
  0
VERTEX
  8
DIK
 10
22561.57813251509
 20
10819.41873450389
 30
0.0
  0
VERTEX
  8
DIK
 10
22561.57813251509
 20
9519.41873450389
 30
0.0
  0
VERTEX
  8
DIK
 10
22511.57813251509
 20
9519.418734503892
 30
0.0
  0
SEQEND
  8
DIK
  0
POLYLINE
  8
DIK
 66
     1
 10
0.0
 20
0.0
 30
0.0
  0
VERTEX
  8
DIK
 10
21261.57813251509
 20
9519.41873450389
 30
0.0
  0
VERTEX
  8
DIK
 10
21261.57813251509
 20
10819.41873450389
 30
0.0
  0
VERTEX
  8
DIK
 10
21296.57813251509
 20
10819.41873450389
 30
0.0
  0
SEQEND
  8
DIK
  0
LINE
  8
DIK
 10
22511.57813251509
 20
10819.41873450389
 30
0.0
 11
22511.57813251509
 21
9519.41873450389
 31
0.0
  0
LINE
  8
DIK
 10
21311.57813251509
 20
9519.41873450389
 30
0.0
 11
21311.57813251509
 21
10819.41873450389
 31
0.0
  0
LINE
  8
DIK
 10
22511.57813251509
 20
9549.418734503889
 30
0.0
 11
21311.57813251509
 21
9549.418734503889
 31
0.0
  0
POLYLINE
  8
STREEPLIJN
 66
     1
 10
0.0
 20
0.0
 30
0.0
 70
     1
  0
VERTEX
  8
STREEPLIJN
 10
21311.57813251509
 20
9569.418734503893
 30
0.0
  0
VERTEX
  8
STREEPLIJN
 10
21311.57813251509
 20
9669.418734503892
 30
0.0
  0
VERTEX
  8
STREEPLIJN
 10
21411.57813251509
 20
9669.418734503892
 30
0.0
  0
VERTEX
  8
STREEPLIJN
 10
21411.57813251509
 20
9569.418734503893
 30
0.0
  0
SEQEND
  8
STREEPLIJN
  0
TEXT
  8
DIK
 10
21114.10699222011
 20
9429.109193188864
 30
0.0
 40
100.0
  1
2
  7
ROMANS
  0
POLYLINE
  8
DIK
 66
     1
 10
0.0
 20
0.0
 30
0.0
  0
VERTEX
  8
DIK
 10
21311.57813251509
 20
9519.41873450389
 30
0.0
  0
VERTEX
  8
DIK
 10
21261.57813251509
 20
9519.41873450389
 30
0.0
  0
SEQEND
  8
DIK
  0
TEXT
  8
DIK
 10
22553.3160494282
 20
9407.964231532139
 30
0.0
 40
100.0
  1
1
  7
ROMANS
  0
POLYLINE
  8
STREEPLIJN
 66
     1
 10
0.0
 20
0.0
 30
0.0
 70
     1
  0
VERTEX
  8
STREEPLIJN
 10
22411.57813251509
 20
9569.418734503893
 30
0.0
  0
VERTEX
  8
STREEPLIJN
 10
22411.57813251509
 20
9669.418734503892
 30
0.0
  0
VERTEX
  8
STREEPLIJN
 10
22511.57813251509
 20
9669.418734503892
 30
0.0
  0
VERTEX
  8
STREEPLIJN
 10
22511.57813251509
 20
9569.418734503893
 30
0.0
  0
SEQEND
  8
STREEPLIJN
  0
POLYLINE
  8
DIK
 66
     1
 10
0.0
 20
0.0
 30
0.0
 70
     1
  0
VERTEX
  8
DIK
 10
22091.09680028939
 20
10142.52800376497
 30
0.0
 42
-0.168849830484
  0
VERTEX
  8
DIK
 10
22093.13956848871
 20
10148.40461119305
 30
0.0
 42
-0.105184028713
  0
VERTEX
  8
DIK
 10
22098.31114254314
 20
10152.69128072635
 30
0.0
 42
-0.067315372571
 70
     2
 50
27.645975363739
  0
VERTEX
  8
DIK
 10
22104.27022668681
 20
10154.85359543492
 30
0.0
 42
-0.053465209097
  0
VERTEX
  8
DIK
 10
22111.57813251509
 20
10155.63727302605
 30
0.0
 42
-0.053465209097
  0
VERTEX
  8
DIK
 10
22118.88603834336
 20
10154.85359543492
 30
0.0
 42
-0.067315372571
  0
VERTEX
  8
DIK
 10
22124.84512248704
 20
10152.69128072635
 30
0.0
 42
-0.105184028713
 70
     2
 50
332.354024636262
  0
VERTEX
  8
DIK
 10
22130.01669654147
 20
10148.40461119305
 30
0.0
 42
-0.168849830484
  0
VERTEX
  8
DIK
 10
22132.05946474079
 20
10142.52800376497
 30
0.0
 42
-0.168849830484
  0
VERTEX
  8
DIK
 10
22130.01669654147
 20
10136.65139633688
 30
0.0
 42
-0.105184028713
  0
VERTEX
  8
DIK
 10
22124.84512248704
 20
10132.36472680359
 30
0.0
 42
-0.067315372571
 70
     2
 50
207.645975363739
  0
VERTEX
  8
DIK
 10
22118.88603834335
 20
10130.20241209502
 30
0.0
 42
-0.053465209097
  0
VERTEX
  8
DIK
 10
22111.57813251509
 20
10129.41873450389
 30
0.0
 42
-0.053465209097
  0
VERTEX
  8
DIK
 10
22104.27022668682
 20
10130.20241209502
 30
0.0
 42
-0.067315372571
  0
VERTEX
  8
DIK
 10
22098.31114254314
 20
10132.36472680359
 30
0.0
 42
-0.105184028713
 70
     2
 50
152.354024636262
  0
VERTEX
  8
DIK
 10
22093.13956848871
 20
10136.65139633688
 30
0.0
 42
-0.168849830484
  0
SEQEND
  8
DIK
  0
POLYLINE
  8
DIK
 66
     1
 10
0.0
 20
0.0
 30
0.0
 70
     1
  0
VERTEX
  8
DIK
 10
22096.09680028938
 20
10138.10623858405
 30
0.0
 42
-0.168849830484
  0
VERTEX
  8
DIK
 10
22097.06150586834
 20
10140.88149031016
 30
0.0
 42
-0.105184028713
  0
VERTEX
  8
DIK
 10
22100.6311775165
 20
10143.84035786903
 30
0.0
 42
-0.067315372571
 70
     2
 50
27.645975363739
  0
VERTEX
  8
DIK
 10
22105.33040447227
 20
10145.54552049476
 30
0.0
 42
-0.053465209097
  0
VERTEX
  8
DIK
 10
22111.57813251509
 20
10146.21550784513
 30
0.0
 42
-0.053465209097
  0
VERTEX
  8
DIK
 10
22117.8258605579
 20
10145.54552049476
 30
0.0
 42
-0.067315372571
  0
VERTEX
  8
DIK
 10
22122.52508751368
 20
10143.84035786903
 30
0.0
 42
-0.105184028713
 70
     2
 50
332.354024636262
  0
VERTEX
  8
DIK
 10
22126.09475916184
 20
10140.88149031016
 30
0.0
 42
-0.168849830484
  0
VERTEX
  8
DIK
 10
22127.05946474079
 20
10138.10623858405
 30
0.0
 42
-0.168849830484
  0
VERTEX
  8
DIK
 10
22126.09475916184
 20
10135.33098685795
 30
0.0
 42
-0.105184028713
  0
VERTEX
  8
DIK
 10
22122.52508751368
 20
10132.37211929908
 30
0.0
 42
-0.067315372571
 70
     2
 50
207.645975363739
  0
VERTEX
  8
DIK
 10
22117.8258605579
 20
10130.66695667335
 30
0.0
 42
-0.053465209097
  0
VERTEX
  8
DIK
 10
22111.57813251509
 20
10129.99696932297
 30
0.0
 42
-0.053465209097
  0
VERTEX
  8
DIK
 10
22105.33040447227
 20
10130.66695667335
 30
0.0
 42
-0.067315372571
  0
VERTEX
  8
DIK
 10
22100.6311775165
 20
10132.37211929908
 30
0.0
 42
-0.105184028713
 70
     2
 50
152.354024636262
  0
VERTEX
  8
DIK
 10
22097.06150586834
 20
10135.33098685795
 30
0.0
 42
-0.168849830484
  0
SEQEND
  8
DIK
  0
POLYLINE
  8
DIK
 66
     1
 10
0.0
 20
0.0
 30
0.0
 70
     1
  0
VERTEX
  8
DIK
 10
22096.09680028938
 20
10200.73123042372
 30
0.0
 42
0.168849830484
  0
VERTEX
  8
DIK
 10
22097.06150586834
 20
10197.95597869762
 30
0.0
 42
0.105184028713
  0
VERTEX
  8
DIK
 10
22100.6311775165
 20
10194.99711113874
 30
0.0
 42
0.067315372571
 70
     2
 50
332.354024636261
  0
VERTEX
  8
DIK
 10
22105.33040447227
 20
10193.29194851301
 30
0.0
 42
0.053465209097
 50
332.354024636261
  0
VERTEX
  8
DIK
 10
22111.57813251509
 20
10192.62196116264
 30
0.0
 42
0.053465209097
  0
VERTEX
  8
DIK
 10
22117.8258605579
 20
10193.29194851301
 30
0.0
 42
0.067315372571
  0
VERTEX
  8
DIK
 10
22122.52508751368
 20
10194.99711113874
 30
0.0
 42
0.105184028713
 70
     2
 50
27.645975363739
  0
VERTEX
  8
DIK
 10
22126.09475916184
 20
10197.95597869762
 30
0.0
 42
0.168849830484
 50
27.645975363739
  0
VERTEX
  8
DIK
 10
22127.05946474079
 20
10200.73123042372
 30
0.0
 42
0.168849830484
  0
VERTEX
  8
DIK
 10
22126.09475916184
 20
10203.50648214982
 30
0.0
 42
0.105184028713
  0
VERTEX
  8
DIK
 10
22122.52508751368
 20
10206.4653497087
 30
0.0
 42
0.067315372571
 70
     2
 50
152.354024636261
  0
VERTEX
  8
DIK
 10
22117.8258605579
 20
10208.17051233443
 30
0.0
 42
0.053465209097
 50
152.354024636261
  0
VERTEX
  8
DIK
 10
22111.57813251509
 20
10208.8404996848
 30
0.0
 42
0.053465209097
  0
VERTEX
  8
DIK
 10
22105.33040447227
 20
10208.17051233443
 30
0.0
 42
0.067315372571
  0
VERTEX
  8
DIK
 10
22100.6311775165
 20
10206.4653497087
 30
0.0
 42
0.105184028713
 70
     2
 50
207.645975363739
  0
VERTEX
  8
DIK
 10
22097.06150586834
 20
10203.50648214982
 30
0.0
 42
0.168849830484
 50
207.645975363739
  0
SEQEND
  8
DIK
  0
POLYLINE
  8
DIK
 66
     1
 10
0.0
 20
0.0
 30
0.0
 70
     1
  0
VERTEX
  8
DIK
 10
22091.09680028939
 20
10196.3094652428
 30
0.0
 42
0.168849830484
  0
VERTEX
  8
DIK
 10
22093.13956848871
 20
10190.43285781472
 30
0.0
 42
0.105184028713
  0
VERTEX
  8
DIK
 10
22098.31114254314
 20
10186.14618828143
 30
0.0
 42
0.067315372571
 70
     2
 50
332.354024636261
  0
VERTEX
  8
DIK
 10
22104.27022668681
 20
10183.98387357286
 30
0.0
 42
0.053465209097
 50
332.354024636261
  0
VERTEX
  8
DIK
 10
22111.57813251509
 20
10183.20019598172
 30
0.0
 42
0.053465209097
  0
VERTEX
  8
DIK
 10
22118.88603834336
 20
10183.98387357286
 30
0.0
 42
0.067315372571
  0
VERTEX
  8
DIK
 10
22124.84512248704
 20
10186.14618828143
 30
0.0
 42
0.105184028713
 70
     2
 50
27.645975363739
  0
VERTEX
  8
DIK
 10
22130.01669654147
 20
10190.43285781472
 30
0.0
 42
0.168849830484
 50
27.645975363739
  0
VERTEX
  8
DIK
 10
22132.05946474079
 20
10196.3094652428
 30
0.0
 42
0.168849830484
  0
VERTEX
  8
DIK
 10
22130.01669654147
 20
10202.18607267089
 30
0.0
 42
0.105184028713
  0
VERTEX
  8
DIK
 10
22124.84512248704
 20
10206.47274220418
 30
0.0
 42
0.067315372571
 70
     2
 50
152.354024636261
  0
VERTEX
  8
DIK
 10
22118.88603834335
 20
10208.63505691275
 30
0.0
 42
0.053465209097
 50
152.354024636261
  0
VERTEX
  8
DIK
 10
22111.57813251509
 20
10209.41873450389
 30
0.0
 42
0.053465209097
  0
VERTEX
  8
DIK
 10
22104.27022668682
 20
10208.63505691275
 30
0.0
 42
0.067315372571
  0
VERTEX
  8
DIK
 10
22098.31114254314
 20
10206.47274220418
 30
0.0
 42
0.105184028713
 70
     2
 50
207.645975363739
  0
VERTEX
  8
DIK
 10
22093.13956848871
 20
10202.18607267089
 30
0.0
 42
0.168849830484
 50
207.645975363739
  0
SEQEND
  8
DIK
  0
LINE
  8
DIK
 10
21311.57813251509
 20
10789.41873450389
 30
0.0
 11
22511.57813251509
 21
10789.41873450389
 31
0.0
  0
LINE
  8
DIK
 10
22511.57813251509
 20
10129.41873450389
 30
0.0
 11
21311.57813251509
 21
10129.41873450388
 31
0.0
  0
LINE
  8
DIK
 10
22511.57813251509
 20
10209.41873450389
 30
0.0
 11
21311.57813251509
 21
10209.41873450389
 31
0.0
  0
LINE
  8
DIK
 10
22561.57813251509
 20
10169.41873450389
 30
0.0
 11
21261.57813251509
 21
10169.41873450389
 31
0.0
  0
POLYLINE
  8
DIK
 66
     1
 10
0.0
 20
0.0
 30
0.0
 70
     1
  0
VERTEX
  8
DIK
 10
21357.05946474079
 20
10142.52800376497
 30
0.0
 42
0.168849830484
  0
VERTEX
  8
DIK
 10
21355.01669654147
 20
10148.40461119305
 30
0.0
 42
0.105184028713
  0
VERTEX
  8
DIK
 10
21349.84512248703
 20
10152.69128072635
 30
0.0
 42
0.067315372571
 70
     2
 50
152.354024636261
  0
VERTEX
  8
DIK
 10
21343.88603834336
 20
10154.85359543492
 30
0.0
 42
0.053465209097
  0
VERTEX
  8
DIK
 10
21336.57813251509
 20
10155.63727302605
 30
0.0
 42
0.053465209097
  0
VERTEX
  8
DIK
 10
21329.27022668682
 20
10154.85359543492
 30
0.0
 42
0.067315372571
  0
VERTEX
  8
DIK
 10
21323.31114254314
 20
10152.69128072635
 30
0.0
 42
0.105184028713
 70
     2
 50
207.645975363739
  0
VERTEX
  8
DIK
 10
21318.1395684887
 20
10148.40461119306
 30
0.0
 42
0.168849830484
  0
VERTEX
  8
DIK
 10
21316.09680028939
 20
10142.52800376497
 30
0.0
 42
0.168849830484
  0
VERTEX
  8
DIK
 10
21318.1395684887
 20
10136.65139633688
 30
0.0
 42
0.105184028713
  0
VERTEX
  8
DIK
 10
21323.31114254314
 20
10132.36472680359
 30
0.0
 42
0.067315372571
 70
     2
 50
332.354024636261
  0
VERTEX
  8
DIK
 10
21329.27022668682
 20
10130.20241209502
 30
0.0
 42
0.053465209097
  0
VERTEX
  8
DIK
 10
21336.57813251509
 20
10129.41873450389
 30
0.0
 42
0.053465209097
  0
VERTEX
  8
DIK
 10
21343.88603834335
 20
10130.20241209502
 30
0.0
 42
0.067315372571
  0
VERTEX
  8
DIK
 10
21349.84512248703
 20
10132.36472680359
 30
0.0
 42
0.105184028713
 70
     2
 50
27.645975363739
  0
VERTEX
  8
DIK
 10
21355.01669654147
 20
10136.65139633688
 30
0.0
 42
0.168849830484
  0
SEQEND
  8
DIK
  0
POLYLINE
  8
DIK
 66
     1
 10
0.0
 20
0.0
 30
0.0
 70
     1
  0
VERTEX
  8
DIK
 10
21352.05946474079
 20
10138.10623858405
 30
0.0
 42
0.168849830484
  0
VERTEX
  8
DIK
 10
21351.09475916184
 20
10140.88149031016
 30
0.0
 42
0.105184028713
  0
VERTEX
  8
DIK
 10
21347.52508751368
 20
10143.84035786904
 30
0.0
 42
0.067315372571
 70
     2
 50
152.354024636261
  0
VERTEX
  8
DIK
 10
21342.8258605579
 20
10145.54552049476
 30
0.0
 42
0.053465209097
  0
VERTEX
  8
DIK
 10
21336.57813251509
 20
10146.21550784514
 30
0.0
 42
0.053465209097
  0
VERTEX
  8
DIK
 10
21330.33040447227
 20
10145.54552049476
 30
0.0
 42
0.067315372571
  0
VERTEX
  8
DIK
 10
21325.63117751649
 20
10143.84035786904
 30
0.0
 42
0.105184028713
 70
     2
 50
207.645975363739
  0
VERTEX
  8
DIK
 10
21322.06150586834
 20
10140.88149031016
 30
0.0
 42
0.168849830484
  0
VERTEX
  8
DIK
 10
21321.09680028939
 20
10138.10623858405
 30
0.0
 42
0.168849830484
  0
VERTEX
  8
DIK
 10
21322.06150586834
 20
10135.33098685795
 30
0.0
 42
0.105184028713
  0
VERTEX
  8
DIK
 10
21325.63117751649
 20
10132.37211929908
 30
0.0
 42
0.067315372571
 70
     2
 50
332.354024636261
  0
VERTEX
  8
DIK
 10
21330.33040447227
 20
10130.66695667335
 30
0.0
 42
0.053465209097
  0
VERTEX
  8
DIK
 10
21336.57813251509
 20
10129.99696932298
 30
0.0
 42
0.053465209097
  0
VERTEX
  8
DIK
 10
21342.8258605579
 20
10130.66695667335
 30
0.0
 42
0.067315372571
  0
VERTEX
  8
DIK
 10
21347.52508751368
 20
10132.37211929908
 30
0.0
 42
0.105184028713
 70
     2
 50
27.645975363739
  0
VERTEX
  8
DIK
 10
21351.09475916184
 20
10135.33098685796
 30
0.0
 42
0.168849830484
  0
SEQEND
  8
DIK
  0
POLYLINE
  8
DIK
 66
     1
 10
0.0
 20
0.0
 30
0.0
 70
     1
  0
VERTEX
  8
DIK
 10
21696.09680028939
 20
10138.10623858405
 30
0.0
 42
-0.168849830484
  0
VERTEX
  8
DIK
 10
21697.06150586834
 20
10140.88149031015
 30
0.0
 42
-0.105184028713
  0
VERTEX
  8
DIK
 10
21700.6311775165
 20
10143.84035786903
 30
0.0
 42
-0.067315372571
 70
     2
 50
27.645975363739
  0
VERTEX
  8
DIK
 10
21705.33040447227
 20
10145.54552049476
 30
0.0
 42
-0.053465209097
  0
VERTEX
  8
DIK
 10
21711.57813251509
 20
10146.21550784513
 30
0.0
 42
-0.053465209097
  0
VERTEX
  8
DIK
 10
21717.8258605579
 20
10145.54552049476
 30
0.0
 42
-0.067315372571
  0
VERTEX
  8
DIK
 10
21722.52508751368
 20
10143.84035786903
 30
0.0
 42
-0.105184028713
 70
     2
 50
332.354024636262
  0
VERTEX
  8
DIK
 10
21726.09475916184
 20
10140.88149031015
 30
0.0
 42
-0.168849830484
  0
VERTEX
  8
DIK
 10
21727.05946474079
 20
10138.10623858405
 30
0.0
 42
-0.168849830484
  0
VERTEX
  8
DIK
 10
21726.09475916184
 20
10135.33098685795
 30
0.0
 42
-0.105184028713
  0
VERTEX
  8
DIK
 10
21722.52508751368
 20
10132.37211929908
 30
0.0
 42
-0.067315372571
 70
     2
 50
207.645975363739
  0
VERTEX
  8
DIK
 10
21717.8258605579
 20
10130.66695667334
 30
0.0
 42
-0.053465209097
  0
VERTEX
  8
DIK
 10
21711.57813251509
 20
10129.99696932297
 30
0.0
 42
-0.053465209097
  0
VERTEX
  8
DIK
 10
21705.33040447227
 20
10130.66695667334
 30
0.0
 42
-0.067315372571
  0
VERTEX
  8
DIK
 10
21700.6311775165
 20
10132.37211929908
 30
0.0
 42
-0.105184028713
 70
     2
 50
152.354024636262
  0
VERTEX
  8
DIK
 10
21697.06150586834
 20
10135.33098685795
 30
0.0
 42
-0.168849830484
  0
SEQEND
  8
DIK
  0
POLYLINE
  8
DIK
 66
     1
 10
0.0
 20
0.0
 30
0.0
 70
     1
  0
VERTEX
  8
DIK
 10
21691.09680028939
 20
10142.52800376497
 30
0.0
 42
-0.168849830484
  0
VERTEX
  8
DIK
 10
21693.13956848871
 20
10148.40461119305
 30
0.0
 42
-0.105184028713
  0
VERTEX
  8
DIK
 10
21698.31114254314
 20
10152.69128072635
 30
0.0
 42
-0.067315372571
 70
     2
 50
27.645975363739
  0
VERTEX
  8
DIK
 10
21704.27022668681
 20
10154.85359543491
 30
0.0
 42
-0.053465209097
  0
VERTEX
  8
DIK
 10
21711.57813251509
 20
10155.63727302605
 30
0.0
 42
-0.053465209097
  0
VERTEX
  8
DIK
 10
21718.88603834336
 20
10154.85359543491
 30
0.0
 42
-0.067315372571
  0
VERTEX
  8
DIK
 10
21724.84512248704
 20
10152.69128072635
 30
0.0
 42
-0.105184028713
 70
     2
 50
332.354024636262
  0
VERTEX
  8
DIK
 10
21730.01669654147
 20
10148.40461119305
 30
0.0
 42
-0.168849830484
  0
VERTEX
  8
DIK
 10
21732.05946474079
 20
10142.52800376497
 30
0.0
 42
-0.168849830484
  0
VERTEX
  8
DIK
 10
21730.01669654147
 20
10136.65139633688
 30
0.0
 42
-0.105184028713
  0
VERTEX
  8
DIK
 10
21724.84512248704
 20
10132.36472680359
 30
0.0
 42
-0.067315372571
 70
     2
 50
207.645975363739
  0
VERTEX
  8
DIK
 10
21718.88603834336
 20
10130.20241209502
 30
0.0
 42
-0.053465209097
  0
VERTEX
  8
DIK
 10
21711.57813251509
 20
10129.41873450388
 30
0.0
 42
-0.053465209097
  0
VERTEX
  8
DIK
 10
21704.27022668682
 20
10130.20241209502
 30
0.0
 42
-0.067315372571
  0
VERTEX
  8
DIK
 10
21698.31114254314
 20
10132.36472680359
 30
0.0
 42
-0.105184028713
 70
     2
 50
152.354024636262
  0
VERTEX
  8
DIK
 10
21693.13956848871
 20
10136.65139633688
 30
0.0
 42
-0.168849830484
  0
SEQEND
  8
DIK
  0
POLYLINE
  8
DIK
 66
     1
 10
0.0
 20
0.0
 30
0.0
 70
     1
  0
VERTEX
  8
DIK
 10
21691.09680028939
 20
10196.3094652428
 30
0.0
 42
0.168849830484
  0
VERTEX
  8
DIK
 10
21693.13956848871
 20
10190.43285781472
 30
0.0
 42
0.105184028713
  0
VERTEX
  8
DIK
 10
21698.31114254314
 20
10186.14618828143
 30
0.0
 42
0.067315372571
 70
     2
 50
332.354024636261
  0
VERTEX
  8
DIK
 10
21704.27022668681
 20
10183.98387357286
 30
0.0
 42
0.053465209097
 50
332.354024636261
  0
VERTEX
  8
DIK
 10
21711.57813251509
 20
10183.20019598172
 30
0.0
 42
0.053465209097
  0
VERTEX
  8
DIK
 10
21718.88603834336
 20
10183.98387357286
 30
0.0
 42
0.067315372571
  0
VERTEX
  8
DIK
 10
21724.84512248704
 20
10186.14618828143
 30
0.0
 42
0.105184028713
 70
     2
 50
27.645975363739
  0
VERTEX
  8
DIK
 10
21730.01669654147
 20
10190.43285781472
 30
0.0
 42
0.168849830484
 50
27.645975363739
  0
VERTEX
  8
DIK
 10
21732.05946474079
 20
10196.3094652428
 30
0.0
 42
0.168849830484
  0
VERTEX
  8
DIK
 10
21730.01669654147
 20
10202.18607267089
 30
0.0
 42
0.105184028713
  0
VERTEX
  8
DIK
 10
21724.84512248704
 20
10206.47274220418
 30
0.0
 42
0.067315372571
 70
     2
 50
152.354024636261
  0
VERTEX
  8
DIK
 10
21718.88603834336
 20
10208.63505691275
 30
0.0
 42
0.053465209097
 50
152.354024636261
  0
VERTEX
  8
DIK
 10
21711.57813251509
 20
10209.41873450389
 30
0.0
 42
0.053465209097
  0
VERTEX
  8
DIK
 10
21704.27022668682
 20
10208.63505691275
 30
0.0
 42
0.067315372571
  0
VERTEX
  8
DIK
 10
21698.31114254314
 20
10206.47274220418
 30
0.0
 42
0.105184028713
 70
     2
 50
207.645975363739
  0
VERTEX
  8
DIK
 10
21693.13956848871
 20
10202.18607267089
 30
0.0
 42
0.168849830484
 50
207.645975363739
  0
SEQEND
  8
DIK
  0
POLYLINE
  8
DIK
 66
     1
 10
0.0
 20
0.0
 30
0.0
 70
     1
  0
VERTEX
  8
DIK
 10
21696.09680028939
 20
10200.73123042372
 30
0.0
 42
0.168849830484
  0
VERTEX
  8
DIK
 10
21697.06150586834
 20
10197.95597869762
 30
0.0
 42
0.105184028713
  0
VERTEX
  8
DIK
 10
21700.6311775165
 20
10194.99711113874
 30
0.0
 42
0.067315372571
 70
     2
 50
332.354024636261
  0
VERTEX
  8
DIK
 10
21705.33040447227
 20
10193.29194851301
 30
0.0
 42
0.053465209097
 50
332.354024636261
  0
VERTEX
  8
DIK
 10
21711.57813251509
 20
10192.62196116264
 30
0.0
 42
0.053465209097
  0
VERTEX
  8
DIK
 10
21717.8258605579
 20
10193.29194851301
 30
0.0
 42
0.067315372571
  0
VERTEX
  8
DIK
 10
21722.52508751368
 20
10194.99711113874
 30
0.0
 42
0.105184028713
 70
     2
 50
27.645975363739
  0
VERTEX
  8
DIK
 10
21726.09475916184
 20
10197.95597869762
 30
0.0
 42
0.168849830484
 50
27.645975363739
  0
VERTEX
  8
DIK
 10
21727.05946474079
 20
10200.73123042372
 30
0.0
 42
0.168849830484
  0
VERTEX
  8
DIK
 10
21726.09475916184
 20
10203.50648214982
 30
0.0
 42
0.105184028713
  0
VERTEX
  8
DIK
 10
21722.52508751368
 20
10206.4653497087
 30
0.0
 42
0.067315372571
 70
     2
 50
152.354024636261
  0
VERTEX
  8
DIK
 10
21717.8258605579
 20
10208.17051233443
 30
0.0
 42
0.053465209097
 50
152.354024636261
  0
VERTEX
  8
DIK
 10
21711.57813251509
 20
10208.8404996848
 30
0.0
 42
0.053465209097
  0
VERTEX
  8
DIK
 10
21705.33040447227
 20
10208.17051233443
 30
0.0
 42
0.067315372571
  0
VERTEX
  8
DIK
 10
21700.6311775165
 20
10206.4653497087
 30
0.0
 42
0.105184028713
 70
     2
 50
207.645975363739
  0
VERTEX
  8
DIK
 10
21697.06150586834
 20
10203.50648214982
 30
0.0
 42
0.168849830484
 50
207.645975363739
  0
SEQEND
  8
DIK
  0
POLYLINE
  8
STREEPLIJN
 66
     1
 10
0.0
 20
0.0
 30
0.0
 70
     1
  0
VERTEX
  8
STREEPLIJN
 10
21311.57813251509
 20
10769.41873450389
 30
0.0
  0
VERTEX
  8
STREEPLIJN
 10
21311.57813251509
 20
10669.41873450389
 30
0.0
  0
VERTEX
  8
STREEPLIJN
 10
21411.57813251509
 20
10669.41873450389
 30
0.0
  0
VERTEX
  8
STREEPLIJN
 10
21411.57813251509
 20
10769.41873450389
 30
0.0
  0
SEQEND
  8
STREEPLIJN
  0
TEXT
  8
DIK
 10
21117.76907875372
 20
10511.94272160555
 30
0.0
 40
100.0
  1
3
  7
ROMANS
  0
POLYLINE
  8
DIK
 66
     1
 10
0.0
 20
0.0
 30
0.0
 70
     1
  0
VERTEX
  8
DIK
 10
22466.09680028939
 20
10196.3094652428
 30
0.0
 42
0.168849830484
  0
VERTEX
  8
DIK
 10
22468.13956848871
 20
10190.43285781472
 30
0.0
 42
0.105184028713
  0
VERTEX
  8
DIK
 10
22473.31114254314
 20
10186.14618828143
 30
0.0
 42
0.067315372571
 70
     2
 50
332.354024636261
  0
VERTEX
  8
DIK
 10
22479.27022668681
 20
10183.98387357286
 30
0.0
 42
0.053465209097
 50
332.354024636261
  0
VERTEX
  8
DIK
 10
22486.57813251509
 20
10183.20019598172
 30
0.0
 42
0.053465209097
  0
VERTEX
  8
DIK
 10
22493.88603834336
 20
10183.98387357286
 30
0.0
 42
0.067315372571
  0
VERTEX
  8
DIK
 10
22499.84512248704
 20
10186.14618828143
 30
0.0
 42
0.105184028713
 70
     2
 50
27.645975363739
  0
VERTEX
  8
DIK
 10
22505.01669654147
 20
10190.43285781472
 30
0.0
 42
0.168849830484
 50
27.645975363739
  0
VERTEX
  8
DIK
 10
22507.05946474079
 20
10196.3094652428
 30
0.0
 42
0.168849830484
  0
VERTEX
  8
DIK
 10
22505.01669654147
 20
10202.18607267089
 30
0.0
 42
0.105184028713
  0
VERTEX
  8
DIK
 10
22499.84512248704
 20
10206.47274220418
 30
0.0
 42
0.067315372571
 70
     2
 50
152.354024636261
  0
VERTEX
  8
DIK
 10
22493.88603834336
 20
10208.63505691275
 30
0.0
 42
0.053465209097
 50
152.354024636261
  0
VERTEX
  8
DIK
 10
22486.57813251509
 20
10209.41873450389
 30
0.0
 42
0.053465209097
  0
VERTEX
  8
DIK
 10
22479.27022668682
 20
10208.63505691275
 30
0.0
 42
0.067315372571
  0
VERTEX
  8
DIK
 10
22473.31114254314
 20
10206.47274220418
 30
0.0
 42
0.105184028713
 70
     2
 50
207.645975363739
  0
VERTEX
  8
DIK
 10
22468.13956848871
 20
10202.18607267089
 30
0.0
 42
0.168849830484
 50
207.645975363739
  0
SEQEND
  8
DIK
  0
POLYLINE
  8
DIK
 66
     1
 10
0.0
 20
0.0
 30
0.0
 70
     1
  0
VERTEX
  8
DIK
 10
22471.09680028938
 20
10200.73123042372
 30
0.0
 42
0.168849830484
  0
VERTEX
  8
DIK
 10
22472.06150586834
 20
10197.95597869762
 30
0.0
 42
0.105184028713
  0
VERTEX
  8
DIK
 10
22475.63117751649
 20
10194.99711113874
 30
0.0
 42
0.067315372571
 70
     2
 50
332.354024636261
  0
VERTEX
  8
DIK
 10
22480.33040447227
 20
10193.29194851301
 30
0.0
 42
0.053465209097
 50
332.354024636261
  0
VERTEX
  8
DIK
 10
22486.57813251509
 20
10192.62196116264
 30
0.0
 42
0.053465209097
  0
VERTEX
  8
DIK
 10
22492.8258605579
 20
10193.29194851301
 30
0.0
 42
0.067315372571
  0
VERTEX
  8
DIK
 10
22497.52508751369
 20
10194.99711113874
 30
0.0
 42
0.105184028713
 70
     2
 50
27.645975363739
  0
VERTEX
  8
DIK
 10
22501.09475916184
 20
10197.95597869762
 30
0.0
 42
0.168849830484
 50
27.645975363739
  0
VERTEX
  8
DIK
 10
22502.05946474079
 20
10200.73123042372
 30
0.0
 42
0.168849830484
  0
VERTEX
  8
DIK
 10
22501.09475916184
 20
10203.50648214982
 30
0.0
 42
0.105184028713
  0
VERTEX
  8
DIK
 10
22497.52508751369
 20
10206.4653497087
 30
0.0
 42
0.067315372571
 70
     2
 50
152.354024636261
  0
VERTEX
  8
DIK
 10
22492.8258605579
 20
10208.17051233443
 30
0.0
 42
0.053465209097
 50
152.354024636261
  0
VERTEX
  8
DIK
 10
22486.57813251509
 20
10208.8404996848
 30
0.0
 42
0.053465209097
  0
VERTEX
  8
DIK
 10
22480.33040447227
 20
10208.17051233443
 30
0.0
 42
0.067315372571
  0
VERTEX
  8
DIK
 10
22475.63117751649
 20
10206.4653497087
 30
0.0
 42
0.105184028713
 70
     2
 50
207.645975363739
  0
VERTEX
  8
DIK
 10
22472.06150586834
 20
10203.50648214982
 30
0.0
 42
0.168849830484
 50
207.645975363739
  0
SEQEND
  8
DIK
  0
POLYLINE
  8
STREEPLIJN
 66
     1
 10
0.0
 20
0.0
 30
0.0
 70
     1
  0
VERTEX
  8
STREEPLIJN
 10
22411.57813251509
 20
10769.41873450389
 30
0.0
  0
VERTEX
  8
STREEPLIJN
 10
22411.57813251509
 20
10669.41873450389
 30
0.0
  0
VERTEX
  8
STREEPLIJN
 10
22511.57813251509
 20
10669.41873450389
 30
0.0
  0
VERTEX
  8
STREEPLIJN
 10
22511.57813251509
 20
10769.41873450389
 30
0.0
  0
SEQEND
  8
STREEPLIJN
  0
TEXT
  8
DIK
 10
22608.24768763909
 20
10511.12173004316
 30
0.0
 40
100.0
  1
4
  7
ROMANS
  0
LINE
  8
DIK
 10
24011.57813251509
 20
10619.41873450389
 30
0.0
 11
24011.57813251509
 21
9719.418734503893
 31
0.0
  0
LINE
  8
STREEPLIJN
 10
22276.20409860822
 20
12269.41873450389
 30
0.0
 11
24061.57813251509
 21
12269.41873450388
 31
0.0
  0
LINE
  8
DIK
 10
21461.57813251509
 20
12269.41873450389
 30
0.0
 11
22361.57813251509
 21
12269.41873450389
 31
0.0
  0
ENDBLK
  8
0
  0
BLOCK
  8
0
  2
*D38
 70
    65
 10
0.0
 20
0.0
 30
0.0
  3
*D
  0
LINE
  8
0
  6
BYBLOCK
 10
142.642898454297
 20
821.441287148535
 30
0.0
 11
142.642898454297
 21
865.23259126333
 31
0.0
  0
LINE
  8
0
  6
BYBLOCK
 10
-1357.357101545703
 20
900.440620785639
 30
0.0
 11
-1357.357101545703
 21
863.23259126333
 31
0.0
  0
LINE
  8
0
  6
BYBLOCK
 10
42.642898454297
 20
864.23259126333
 30
0.0
 11
-1257.357101545703
 21
864.23259126333
 31
0.0
  0
SOLID
  8
0
  6
BYBLOCK
 10
42.642898454297
 20
880.899257929997
 30
0.0
 11
42.642898454297
 21
847.565924596664
 31
0.0
 12
142.642898454297
 22
864.23259126333
 32
0.0
 13
142.642898454297
 23
864.23259126333
 33
0.0
  0
SOLID
  8
0
  6
BYBLOCK
 10
-1257.357101545703
 20
880.899257929997
 30
0.0
 11
-1257.357101545703
 21
847.565924596664
 31
0.0
 12
-1357.357101545703
 22
864.23259126333
 32
0.0
 13
-1357.357101545703
 23
864.23259126333
 33
0.0
  0
TEXT
  8
0
  6
BYBLOCK
 10
-765.452339640941
 20
904.23259126333
 30
0.0
 40
80.0
  1
1500
  7
ROMANS
 72
     1
 11
-607.357101545703
 21
944.23259126333
 31
0.0
 73
     2
  0
POINT
  8
DEFPOINTS
  6
BYBLOCK
 62
     0
 10
142.642898454297
 20
821.441287148535
 30
0.0
  0
POINT
  8
DEFPOINTS
  6
BYBLOCK
 62
     0
 10
-1357.357101545703
 20
900.440620785639
 30
0.0
  0
POINT
  8
DEFPOINTS
  6
BYBLOCK
 62
     0
 10
-1357.357101545703
 20
864.23259126333
 30
0.0
  0
ENDBLK
  8
0
  0
BLOCK
  8
0
  2
*D39
 70
    65
 10
0.0
 20
0.0
 30
0.0
  3
*D
  0
LINE
  8
0
  6
BYBLOCK
 10
162.622652792446
 20
1518.754869787331
 30
0.0
 11
643.044561432329
 21
1518.754869787331
 31
0.0
  0
LINE
  8
0
  6
BYBLOCK
 10
696.045383987419
 20
3018.75486978733
 30
0.0
 11
641.044561432329
 21
3018.75486978733
 31
0.0
  0
LINE
  8
0
  6
BYBLOCK
 10
642.044561432329
 20
1618.754869787331
 30
0.0
 11
642.044561432329
 21
2918.75486978733
 31
0.0
  0
SOLID
  8
0
  6
BYBLOCK
 10
625.377894765662
 20
1618.754869787331
 30
0.0
 11
658.711228098995
 21
1618.754869787331
 31
0.0
 12
642.044561432329
 22
1518.754869787331
 32
0.0
 13
642.044561432329
 23
1518.754869787331
 33
0.0
  0
SOLID
  8
0
  6
BYBLOCK
 10
625.377894765662
 20
2918.75486978733
 30
0.0
 11
658.711228098995
 21
2918.75486978733
 31
0.0
 12
642.044561432329
 22
3018.75486978733
 32
0.0
 13
642.044561432329
 23
3018.75486978733
 33
0.0
  0
TEXT
  8
0
  6
BYBLOCK
 10
602.044561432329
 20
2110.659631692093
 30
0.0
 40
80.0
  1
1500
 50
90.0
  7
ROMANS
 72
     1
 11
562.044561432329
 21
2268.754869787331
 31
0.0
 73
     2
  0
POINT
  8
DEFPOINTS
  6
BYBLOCK
 62
     0
 10
162.622652792446
 20
1518.754869787331
 30
0.0
  0
POINT
  8
DEFPOINTS
  6
BYBLOCK
 62
     0
 10
696.045383987419
 20
3018.75486978733
 30
0.0
  0
POINT
  8
DEFPOINTS
  6
BYBLOCK
 62
     0
 10
642.044561432329
 20
3018.75486978733
 30
0.0
  0
ENDBLK
  8
0
  0
BLOCK
  8
0
  2
*D40
 70
    65
 10
0.0
 20
0.0
 30
0.0
  3
*D
  0
LINE
  8
0
  6
BYBLOCK
 10
532.642898454297
 20
-2020.654181598501
 30
0.0
 11
532.642898454297
 21
-2230.944120588591
 31
0.0
  0
LINE
  8
0
  6
BYBLOCK
 10
-467.357101545703
 20
-2031.669440096225
 30
0.0
 11
-467.357101545703
 21
-2230.944120588591
 31
0.0
  0
LINE
  8
0
  6
BYBLOCK
 10
432.642898454297
 20
-2229.944120588591
 30
0.0
 11
-367.357101545703
 21
-2229.944120588591
 31
0.0
  0
SOLID
  8
0
  6
BYBLOCK
 10
432.642898454297
 20
-2213.277453921924
 30
0.0
 11
432.642898454297
 21
-2246.610787255257
 31
0.0
 12
532.642898454297
 22
-2229.944120588591
 32
0.0
 13
532.642898454297
 23
-2229.944120588591
 33
0.0
  0
SOLID
  8
0
  6
BYBLOCK
 10
-367.357101545703
 20
-2213.277453921924
 30
0.0
 11
-367.357101545703
 21
-2246.610787255257
 31
0.0
 12
-467.357101545703
 22
-2229.944120588591
 32
0.0
 13
-467.357101545703
 23
-2229.944120588591
 33
0.0
  0
TEXT
  8
0
  6
BYBLOCK
 10
-125.452339640941
 20
-2189.944120588591
 30
0.0
 40
80.0
  1
1000
  7
ROMANS
 72
     1
 11
32.642898454297
 21
-2149.944120588591
 31
0.0
 73
     2
  0
POINT
  8
DEFPOINTS
  6
BYBLOCK
 62
     0
 10
532.642898454297
 20
-2020.654181598501
 30
0.0
  0
POINT
  8
DEFPOINTS
  6
BYBLOCK
 62
     0
 10
-467.357101545703
 20
-2031.669440096225
 30
0.0
  0
POINT
  8
DEFPOINTS
  6
BYBLOCK
 62
     0
 10
-467.357101545703
 20
-2229.944120588591
 30
0.0
  0
ENDBLK
  8
0
  0
BLOCK
  8
0
  2
*D41
 70
    65
 10
0.0
 20
0.0
 30
0.0
  3
*D
  0
LINE
  8
0
  6
BYBLOCK
 10
2052.642898454297
 20
-3364.515993654145
 30
0.0
 11
2052.642898454297
 21
-4951.713575259709
 31
0.0
  0
LINE
  8
0
  6
BYBLOCK
 10
-467.357101545704
 20
-3265.378667174627
 30
0.0
 11
-467.357101545704
 21
-4951.713575259709
 31
0.0
  0
LINE
  8
0
  6
BYBLOCK
 10
1952.642898454297
 20
-4950.713575259709
 30
0.0
 11
-367.357101545704
 21
-4950.713575259709
 31
0.0
  0
SOLID
  8
0
  6
BYBLOCK
 10
1952.642898454297
 20
-4934.046908593042
 30
0.0
 11
1952.642898454297
 21
-4967.380241926377
 31
0.0
 12
2052.642898454297
 22
-4950.713575259709
 32
0.0
 13
2052.642898454297
 23
-4950.713575259709
 33
0.0
  0
SOLID
  8
0
  6
BYBLOCK
 10
-367.357101545704
 20
-4934.046908593042
 30
0.0
 11
-367.357101545704
 21
-4967.380241926377
 31
0.0
 12
-467.357101545704
 22
-4950.713575259709
 32
0.0
 13
-467.357101545704
 23
-4950.713575259709
 33
0.0
  0
TEXT
  8
0
  6
BYBLOCK
 10
640.261946073345
 20
-4910.71357525971
 30
0.0
 40
80.0
  1
2520
  7
ROMANS
 72
     1
 11
792.642898454297
 21
-4870.71357525971
 31
0.0
 73
     2
  0
POINT
  8
DEFPOINTS
  6
BYBLOCK
 62
     0
 10
2052.642898454297
 20
-3364.515993654145
 30
0.0
  0
POINT
  8
DEFPOINTS
  6
BYBLOCK
 62
     0
 10
-467.357101545704
 20
-3265.378667174627
 30
0.0
  0
POINT
  8
DEFPOINTS
  6
BYBLOCK
 62
     0
 10
-467.357101545704
 20
-4950.713575259709
 30
0.0
  0
ENDBLK
  8
0
  0
BLOCK
  8
0
  2
*D42
 70
    65
 10
0.0
 20
0.0
 30
0.0
  3
*D
  0
LINE
  8
0
  6
BYBLOCK
 10
795.764271471806
 20
-2481.745130212669
 30
0.0
 11
802.464610402843
 21
-2481.745130212669
 31
0.0
  0
LINE
  8
0
  6
BYBLOCK
 10
821.415891825274
 20
-4481.745130212669
 30
0.0
 11
800.464610402843
 21
-4481.745130212669
 31
0.0
  0
LINE
  8
0
  6
BYBLOCK
 10
801.464610402843
 20
-2581.745130212669
 30
0.0
 11
801.464610402843
 21
-4381.745130212669
 31
0.0
  0
SOLID
  8
0
  6
BYBLOCK
 10
784.797943736176
 20
-2581.745130212669
 30
0.0
 11
818.13127706951
 21
-2581.745130212669
 31
0.0
 12
801.464610402843
 22
-2481.745130212669
 32
0.0
 13
801.464610402843
 23
-2481.745130212669
 33
0.0
  0
SOLID
  8
0
  6
BYBLOCK
 10
784.797943736176
 20
-4381.745130212669
 30
0.0
 11
818.13127706951
 21
-4381.745130212669
 31
0.0
 12
801.464610402843
 22
-4481.745130212669
 32
0.0
 13
801.464610402843
 23
-4481.745130212669
 33
0.0
  0
TEXT
  8
0
  6
BYBLOCK
 10
761.464610402843
 20
-3634.126082593621
 30
0.0
 40
80.0
  1
2000
 50
90.0
  7
ROMANS
 72
     1
 11
721.464610402843
 21
-3481.745130212669
 31
0.0
 73
     2
  0
POINT
  8
DEFPOINTS
  6
BYBLOCK
 62
     0
 10
795.764271471806
 20
-2481.745130212669
 30
0.0
  0
POINT
  8
DEFPOINTS
  6
BYBLOCK
 62
     0
 10
821.415891825274
 20
-4481.745130212669
 30
0.0
  0
POINT
  8
DEFPOINTS
  6
BYBLOCK
 62
     0
 10
801.464610402843
 20
-4481.745130212669
 30
0.0
  0
ENDBLK
  8
0
  0
BLOCK
  8
0
  2
*D43
 70
    65
 10
0.0
 20
0.0
 30
0.0
  3
*D
  0
LINE
  8
0
  6
BYBLOCK
 10
23171.57813251509
 20
7819.757459639864
 30
0.0
 11
23171.57813251509
 21
7820.757459639864
 31
0.0
  0
LINE
  8
0
  6
BYBLOCK
 10
24011.57813251509
 20
8381.164472108125
 30
0.0
 11
24011.57813251509
 21
7818.757459639864
 31
0.0
  0
LINE
  8
0
  6
BYBLOCK
 10
23271.57813251509
 20
7819.757459639864
 30
0.0
 11
23911.57813251509
 21
7819.757459639864
 31
0.0
  0
SOLID
  8
0
  6
BYBLOCK
 10
23271.57813251509
 20
7836.42412630653
 30
0.0
 11
23271.57813251509
 21
7803.090792973196
 31
0.0
 12
23171.57813251509
 22
7819.757459639864
 32
0.0
 13
23171.57813251509
 23
7819.757459639864
 33
0.0
  0
SOLID
  8
0
  6
BYBLOCK
 10
23911.57813251509
 20
7836.42412630653
 30
0.0
 11
23911.57813251509
 21
7803.090792973196
 31
0.0
 12
24011.57813251509
 22
7819.757459639864
 32
0.0
 13
24011.57813251509
 23
7819.757459639864
 33
0.0
  0
TEXT
  8
0
  6
BYBLOCK
 10
23477.29241822937
 20
7859.757459639864
 30
0.0
 40
80.0
  1
840
  7
ROMANS
 72
     1
 11
23591.57813251509
 21
7899.757459639863
 31
0.0
 73
     2
  0
POINT
  8
DEFPOINTS
  6
BYBLOCK
 62
     0
 10
23171.57813251509
 20
7819.757459639864
 30
0.0
  0
POINT
  8
DEFPOINTS
  6
BYBLOCK
 62
     0
 10
24011.57813251509
 20
8381.164472108125
 30
0.0
  0
POINT
  8
DEFPOINTS
  6
BYBLOCK
 62
     0
 10
24011.57813251509
 20
7819.757459639864
 30
0.0
  0
ENDBLK
  8
0
  0
BLOCK
  8
0
  2
*D44
 70
    65
 10
0.0
 20
0.0
 30
0.0
  3
*D
  0
LINE
  8
0
  6
BYBLOCK
 10
23947.35248426107
 20
12269.41873450388
 30
0.0
 11
24670.23678582999
 21
12269.41873450388
 31
0.0
  0
LINE
  8
0
  6
BYBLOCK
 10
23104.78348420327
 20
4818.918734503893
 30
0.0
 11
24670.23678582999
 21
4818.918734503893
 31
0.0
  0
LINE
  8
0
  6
BYBLOCK
 10
24669.23678582999
 20
12169.41873450388
 30
0.0
 11
24669.23678582999
 21
4918.918734503892
 31
0.0
  0
SOLID
  8
0
  6
BYBLOCK
 10
24652.57011916333
 20
12169.41873450388
 30
0.0
 11
24685.90345249666
 21
12169.41873450388
 31
0.0
 12
24669.23678582999
 22
12269.41873450388
 32
0.0
 13
24669.23678582999
 23
12269.41873450388
 33
0.0
  0
SOLID
  8
0
  6
BYBLOCK
 10
24652.57011916333
 20
4918.918734503892
 30
0.0
 11
24685.90345249666
 21
4918.918734503892
 31
0.0
 12
24669.23678582999
 22
4818.918734503893
 32
0.0
 13
24669.23678582999
 23
4818.918734503893
 33
0.0
  0
TEXT
  8
0
  6
BYBLOCK
 10
24629.23678582999
 20
8391.787782122939
 30
0.0
 40
80.0
  1
7450
 50
90.0
  7
ROMANS
 72
     1
 11
24589.23678582999
 21
8544.168734503891
 31
0.0
 73
     2
  0
POINT
  8
DEFPOINTS
  6
BYBLOCK
 62
     0
 10
23947.35248426107
 20
12269.41873450388
 30
0.0
  0
POINT
  8
DEFPOINTS
  6
BYBLOCK
 62
     0
 10
23104.78348420327
 20
4818.918734503893
 30
0.0
  0
POINT
  8
DEFPOINTS
  6
BYBLOCK
 62
     0
 10
24669.23678582999
 20
4818.918734503893
 30
0.0
  0
ENDBLK
  8
0
  0
BLOCK
  8
0
  2
*D45
 70
    65
 10
0.0
 20
0.0
 30
0.0
  3
*D
  0
LINE
  8
0
  6
BYBLOCK
 10
23892.99368944891
 20
12269.41873450388
 30
0.0
 11
24364.5558379434
 21
12269.41873450388
 31
0.0
  0
LINE
  8
0
  6
BYBLOCK
 10
23916.98324248612
 20
8252.994512118023
 30
0.0
 11
24364.5558379434
 21
8252.994512118023
 31
0.0
  0
LINE
  8
0
  6
BYBLOCK
 10
24363.5558379434
 20
12169.41873450388
 30
0.0
 11
24363.5558379434
 21
8352.994512118023
 31
0.0
  0
SOLID
  8
0
  6
BYBLOCK
 10
24346.88917127674
 20
12169.41873450388
 30
0.0
 11
24380.22250461007
 21
12169.41873450388
 31
0.0
 12
24363.5558379434
 22
12269.41873450388
 32
0.0
 13
24363.5558379434
 23
12269.41873450388
 33
0.0
  0
SOLID
  8
0
  6
BYBLOCK
 10
24346.88917127674
 20
8352.994512118023
 30
0.0
 11
24380.22250461007
 21
8352.994512118023
 31
0.0
 12
24363.5558379434
 22
8252.994512118023
 32
0.0
 13
24363.5558379434
 23
8252.994512118023
 33
0.0
  0
TEXT
  8
0
  6
BYBLOCK
 10
24323.5558379434
 20
10108.82567093
 30
0.0
 40
80.0
  1
4016
 50
90.0
  7
ROMANS
 72
     1
 11
24283.5558379434
 21
10261.20662331095
 31
0.0
 73
     2
  0
POINT
  8
DEFPOINTS
  6
BYBLOCK
 62
     0
 10
23892.99368944891
 20
12269.41873450388
 30
0.0
  0
POINT
  8
DEFPOINTS
  6
BYBLOCK
 62
     0
 10
23916.98324248612
 20
8252.994512118023
 30
0.0
  0
POINT
  8
DEFPOINTS
  6
BYBLOCK
 62
     0
 10
24363.5558379434
 20
8252.994512118023
 30
0.0
  0
ENDBLK
  8
0
  0
BLOCK
  8
0
  2
*D46
 70
    65
 10
0.0
 20
0.0
 30
0.0
  3
*D
  0
LINE
  8
0
  6
BYBLOCK
 10
19811.57813251509
 20
10421.24626046339
 30
0.0
 11
19811.57813251509
 21
12570.7680862713
 31
0.0
  0
LINE
  8
0
  6
BYBLOCK
 10
24011.57813251509
 20
10387.80932693116
 30
0.0
 11
24011.57813251509
 21
12570.7680862713
 31
0.0
  0
LINE
  8
0
  6
BYBLOCK
 10
19911.57813251509
 20
12569.7680862713
 30
0.0
 11
23911.57813251509
 21
12569.7680862713
 31
0.0
  0
SOLID
  8
0
  6
BYBLOCK
 10
19911.57813251509
 20
12586.43475293797
 30
0.0
 11
19911.57813251509
 21
12553.10141960463
 31
0.0
 12
19811.57813251509
 22
12569.7680862713
 32
0.0
 13
19811.57813251509
 23
12569.7680862713
 33
0.0
  0
SOLID
  8
0
  6
BYBLOCK
 10
23911.57813251509
 20
12586.43475293797
 30
0.0
 11
23911.57813251509
 21
12553.10141960463
 31
0.0
 12
24011.57813251509
 22
12569.7680862713
 32
0.0
 13
24011.57813251509
 23
12569.7680862713
 33
0.0
  0
TEXT
  8
0
  6
BYBLOCK
 10
21759.19718013413
 20
12609.7680862713
 30
0.0
 40
80.0
  1
4200
  7
ROMANS
 72
     1
 11
21911.57813251508
 21
12649.7680862713
 31
0.0
 73
     2
  0
POINT
  8
DEFPOINTS
  6
BYBLOCK
 62
     0
 10
19811.57813251509
 20
10421.24626046339
 30
0.0
  0
POINT
  8
DEFPOINTS
  6
BYBLOCK
 62
     0
 10
24011.57813251509
 20
10387.80932693116
 30
0.0
  0
POINT
  8
DEFPOINTS
  6
BYBLOCK
 62
     0
 10
24011.57813251509
 20
12569.7680862713
 30
0.0
  0
ENDBLK
  8
0
  0
BLOCK
  8
0
  2
ACAD132E
 70
     0
 10
0.0
 20
0.0
 30
0.0
  3
ACAD132E
  0
LINE
  8
DIK
 10
-4061.835676448856
 20
10058.36048959261
 30
0.0
 11
-961.835676448855
 21
10058.36048959261
 31
0.0
  0
LINE
  8
STREEPLIJN
 10
-961.835676448855
 20
8558.360489592613
 30
0.0
 11
-4061.835676448856
 21
8558.360489592613
 31
0.0
  0
ARC
  8
DIK
 10
-2461.835676448855
 20
10058.36048959261
 30
0.0
 40
1500.0
 50
270.0
 51
0.0
  0
LINE
  8
DIK
 10
-2061.835676448857
 20
13521.10218938957
 30
0.0
 11
-961.835676448855
 21
12421.10218938955
 31
0.0
  0
LINE
  8
DIK
 10
-6747.245793593362
 20
13418.36048959261
 30
0.0
 11
-5161.835676448856
 21
13418.36048959261
 31
0.0
  0
LINE
  8
STREEPLIJN
 10
-5161.835676448856
 20
13418.36048959261
 30
0.0
 11
-7747.245793593371
 21
13418.36048959261
 31
0.0
  0
LINE
  8
DIK
 10
-6747.245793593364
 20
10898.36048959261
 30
0.0
 11
-5148.952690789095
 21
10898.36048959261
 31
0.0
  0
DIMENSION
  8
DUN
  2
*D50
 10
-7747.245793593362
 20
12151.08668474307
 30
0.0
 11
-6747.245793593362
 21
12181.08668474306
 31
0.0
 13
-5747.245793593362
 23
12159.84856262259
 33
0.0
 14
-7747.245793593362
 24
12168.61044050211
 34
0.0
  3
STANDAARD
  0
LINE
  8
STREEPLIJN
 10
-5148.952690789095
 20
10898.36048959261
 30
0.0
 11
-7747.245793593371
 21
10898.36048959261
 31
0.0
  0
LINE
  8
STREEPLIJN
 10
-7747.245793593371
 20
10898.36048959261
 30
0.0
 11
-7747.24579359336
 21
12368.36048959263
 31
0.0
  0
ARC
  8
DIK
 10
-6747.245793593364
 20
11898.36048959261
 30
0.0
 40
1000.0
 50
180.0
 51
270.0
  0
ARC
  8
DIK
 10
-6747.245793593362
 20
12418.36048959261
 30
0.0
 40
1000.0
 50
90.0
 51
180.000000000001
  0
LINE
  8
DIK
 10
-7747.245793593362
 20
12418.3604895926
 30
0.0
 11
-7747.245793593364
 21
11898.36048959262
 31
0.0
  0
LINE
  8
STREEPLIJN
 10
-7747.245793593371
 20
13418.36048959261
 30
0.0
 11
-7747.24579359336
 21
11948.36048959259
 31
0.0
  0
LINE
  8
DIK
 10
-7747.245793593362
 20
12398.3604895926
 30
0.0
 11
-7747.245793593364
 21
11918.36048959262
 31
0.0
  0
LINE
  8
DIK
 10
-2061.835676448855
 20
13858.36048959261
 30
0.0
 11
-2061.835676448857
 21
13521.10218938957
 31
0.0
  0
LINE
  8
STREEPLIJN
 10
-2061.835676448855
 20
13858.3604895926
 30
0.0
 11
-2061.835676448856
 21
13758.3604895926
 31
0.0
  0
LINE
  8
STREEPLIJN
 10
-2061.835676448849
 20
15358.36048959262
 30
0.0
 11
-2061.835676448857
 21
13521.10218938957
 31
0.0
  0
LINE
  8
DIK
 10
-3661.835676448855
 20
13758.36048959261
 30
0.0
 11
-3661.835676448855
 21
13858.36048959261
 31
0.0
  0
LINE
  8
DIK
 10
-3561.835676448855
 20
13858.36048959261
 30
0.0
 11
-3561.835676448856
 21
13758.36048959261
 31
0.0
  0
LINE
  8
DIK
 10
-5161.835676448856
 20
13418.36048959261
 30
0.0
 11
-5161.835676448857
 21
13858.36048959261
 31
0.0
  0
LINE
  8
STREEPLIJN
 10
-5161.835676448856
 20
15358.36048959261
 30
0.0
 11
-5161.835676448856
 21
13418.3604895926
 31
0.0
  0
ARC
  8
DIK
 10
-2561.835676448855
 20
10058.36048959261
 30
0.0
 40
1500.0
 50
180.0
 51
270.0
  0
LINE
  8
DIK
 10
-3632.835676448856
 20
11898.36048959261
 30
0.0
 11
-5797.245793593362
 21
11898.36048959261
 31
0.0
  0
LINE
  8
DIK
 10
-3632.835676448856
 20
11948.36048959261
 30
0.0
 11
-5797.245793593362
 21
11948.36048959261
 31
0.0
  0
LINE
  8
DIK
 10
-3632.835676448856
 20
12368.36048959261
 30
0.0
 11
-5797.245793593362
 21
12368.36048959261
 31
0.0
  0
LINE
  8
DIK
 10
-3632.835676448856
 20
12418.36048959261
 30
0.0
 11
-5797.245793593362
 21
12418.36048959261
 31
0.0
  0
LINE
  8
DIK
 10
-5161.835676448855
 20
11898.36048959261
 30
0.0
 11
-5161.835676448856
 21
10898.36048959261
 31
0.0
  0
ARC
  8
DIK
 10
-4161.835676448855
 20
11058.36048959261
 30
0.0
 40
1000.0
 50
189.206896221346
 51
270.0
  0
LINE
  8
STREEPLIJN
 10
-4061.835676448856
 20
8558.360489592613
 30
0.0
 11
-4061.835676448856
 21
10058.36048959261
 31
0.0
  0
LINE
  8
STREEPLIJN
 10
-4061.835676448856
 20
10058.36048959261
 30
0.0
 11
-5161.835676448856
 21
10058.36048959261
 31
0.0
  0
LINE
  8
STREEPLIJN
 10
-5161.835676448856
 20
10058.36048959261
 30
0.0
 11
-5161.835676448856
 21
10898.36048959261
 31
0.0
  0
LINE
  8
DIK
 10
-5797.24579359336
 20
12368.36048959261
 30
0.0
 11
-5797.24579359336
 21
12418.36048959261
 31
0.0
  0
LINE
  8
DIK
 10
-5797.24579359336
 20
11898.36048959261
 30
0.0
 11
-5797.24579359336
 21
11948.36048959261
 31
0.0
  0
LINE
  8
DIK
 10
-5747.245793593363
 20
11948.3604895926
 30
0.0
 11
-5747.24579359336
 21
12368.36048959261
 31
0.0
  0
LINE
  8
DIK
 10
-5161.835676448856
 20
13418.3604895926
 30
0.0
 11
-5161.835676448855
 21
12418.36048959261
 31
0.0
  0
LINE
  8
DIK
 10
-2490.835676448856
 20
10158.36048959261
 30
0.0
 11
-2490.835676448856
 21
11558.36048959261
 31
0.0
  0
LINE
  8
DIK
 10
-2532.835676448855
 20
10158.36048959261
 30
0.0
 11
-2532.835676448856
 21
11558.36048959261
 31
0.0
  0
LINE
  8
DIK
 10
-2561.835676448855
 20
8558.360489592613
 30
0.0
 11
-2461.835676448855
 21
8558.360489592613
 31
0.0
  0
LINE
  8
DIK
 10
-2461.835676448855
 20
10058.36048959261
 30
0.0
 11
-2561.835676448855
 21
10058.36048959261
 31
0.0
  0
LINE
  8
DIK
 10
-2561.835676448855
 20
10158.36048959261
 30
0.0
 11
-2461.835676448855
 21
10158.36048959261
 31
0.0
  0
ARC
  8
DIK
 10
-2511.835676448856
 20
10058.36048959261
 30
0.0
 40
17.5
 50
180.0
 51
0.0
  0
LINE
  8
DIK
 10
-2561.835676448855
 20
10058.36048959261
 30
0.0
 11
-2561.835676448855
 21
10158.36048959261
 31
0.0
  0
LINE
  8
DIK
 10
-2461.835676448855
 20
10158.36048959261
 30
0.0
 11
-2461.835676448855
 21
10058.36048959261
 31
0.0
  0
LINE
  8
DIK
 10
-3461.835676448855
 20
12658.36048959261
 30
0.0
 11
-2561.835676448855
 21
11758.36048959261
 31
0.0
  0
LINE
  8
DIK
 10
-3561.835676448855
 20
12546.22845523665
 30
0.0
 11
-2673.96771080482
 21
11658.36048959261
 31
0.0
  0
LINE
  8
DIK
 10
-3561.835676448855
 20
11658.36048959261
 30
0.0
 11
-2461.835676448855
 21
11658.36048959261
 31
0.0
  0
LINE
  8
DIK
 10
-2678.788382509992
 20
11975.72235858223
 30
0.0
 11
-3244.473807459228
 21
12541.40778353147
 31
0.0
  0
LINE
  8
DIK
 10
-2708.486867319829
 20
11946.0238737724
 30
0.0
 11
-3274.172292269064
 21
12511.70929872164
 31
0.0
  0
LINE
  8
DIK
 10
-3561.835676448855
 20
12758.36048959261
 30
0.0
 11
-3561.835676448855
 21
11558.36048959261
 31
0.0
  0
LINE
  8
DIK
 10
-3590.835676448855
 20
12515.86048959261
 30
0.0
 11
-3590.835676448855
 21
11800.86048959261
 31
0.0
  0
LINE
  8
DIK
 10
-3632.835676448856
 20
12515.86048959261
 30
0.0
 11
-3632.835676448856
 21
11800.86048959261
 31
0.0
  0
LINE
  8
DIK
 10
-3561.835676448855
 20
11909.83235216876
 30
0.0
 11
-3310.363813872712
 21
11658.36048959261
 31
0.0
  0
LINE
  8
DIK
 10
-3561.835676448855
 20
12121.96438652472
 30
0.0
 11
-3098.231779516748
 21
11658.36048959261
 31
0.0
  0
LINE
  8
DIK
 10
-3561.835676448855
 20
12334.09642088068
 30
0.0
 11
-2886.099745160784
 21
11658.36048959261
 31
0.0
  0
LINE
  8
DIK
 10
-3632.835676448856
 20
11765.86048959261
 30
0.0
 11
-3632.835676448856
 21
11658.36048959261
 31
0.0
  0
LINE
  8
DIK
 10
-3561.835676448855
 20
11697.70031781279
 30
0.0
 11
-3522.495848228675
 21
11658.36048959261
 31
0.0
  0
LINE
  8
DIK
 10
-3561.835676448855
 20
11758.36048959261
 30
0.0
 11
-3561.835676448855
 21
11658.36048959261
 31
0.0
  0
LINE
  8
DIK
 10
-3590.835676448855
 20
11765.86048959261
 30
0.0
 11
-3590.835676448855
 21
11658.36048959261
 31
0.0
  0
POLYLINE
  8
DIK
 66
     1
 10
0.0
 20
0.0
 30
0.0
 70
     1
  0
VERTEX
  8
DIK
 10
-3661.835676448855
 20
11558.36048959261
 30
0.0
  0
VERTEX
  8
DIK
 10
-3661.835676448855
 20
11658.36048959261
 30
0.0
  0
VERTEX
  8
DIK
 10
-3561.835676448855
 20
11658.36048959261
 30
0.0
  0
VERTEX
  8
DIK
 10
-3561.835676448855
 20
11558.36048959261
 30
0.0
  0
SEQEND
  8
DIK
  0
POLYLINE
  8
DIK
 66
     1
 10
0.0
 20
0.0
 30
0.0
 70
     1
  0
VERTEX
  8
DIK
 10
-3661.835676448855
 20
11658.36048959261
 30
0.0
  0
VERTEX
  8
DIK
 10
-3561.835676448855
 20
11658.36048959261
 30
0.0
  0
VERTEX
  8
DIK
 10
-3561.835676448855
 20
11558.36048959261
 30
0.0
  0
VERTEX
  8
DIK
 10
-3661.835676448855
 20
11558.36048959261
 30
0.0
  0
SEQEND
  8
DIK
  0
ARC
  8
DIK
 10
-3661.835676448855
 20
11608.36048959261
 30
0.0
 40
17.5
 50
90.0
 51
270.0
  0
ARC
  8
DIK
 10
-3611.835676448855
 20
11558.36048959261
 30
0.0
 40
17.5
 50
179.999999999988
 51
0.000000000012
  0
LINE
  8
DIK
 10
-3461.835676448855
 20
11558.36048959261
 30
0.0
 11
-3461.835676448855
 21
11658.36048959261
 31
0.0
  0
LINE
  8
DIK
 10
-3561.835676448855
 20
11558.36048959261
 30
0.0
 11
-3461.835676448855
 21
11558.36048959261
 31
0.0
  0
ARC
  8
DIK
 10
-3461.835676448855
 20
11608.36048959261
 30
0.0
 40
17.5
 50
270.0
 51
90.0
  0
POLYLINE
  8
DIK
 66
     1
 10
0.0
 20
0.0
 30
0.0
 70
     1
  0
VERTEX
  8
DIK
 10
-3661.835676448855
 20
11800.86048959261
 30
0.0
  0
VERTEX
  8
DIK
 10
-3561.835676448855
 20
11800.86048959261
 30
0.0
  0
VERTEX
  8
DIK
 10
-3561.835676448855
 20
11765.86048959261
 30
0.0
  0
VERTEX
  8
DIK
 10
-3661.835676448855
 20
11765.86048959261
 30
0.0
  0
SEQEND
  8
DIK
  0
LINE
  8
DIK
 10
-3561.835676448855
 20
11898.36048959261
 30
0.0
 11
-3590.835676448855
 21
11898.36048959261
 31
0.0
  0
LINE
  8
DIK
 10
-3561.835676448855
 20
11948.36048959261
 30
0.0
 11
-3590.835676448855
 21
11948.36048959261
 31
0.0
  0
LINE
  8
DIK
 10
-3561.835676448855
 20
12368.36048959261
 30
0.0
 11
-3590.835676448855
 21
12368.36048959261
 31
0.0
  0
LINE
  8
DIK
 10
-3315.184485577883
 20
12612.11846165013
 30
0.0
 11
-3456.605841815192
 21
12753.53981788744
 31
0.0
  0
LINE
  8
DIK
 10
-3344.882970387718
 20
12582.41997684029
 30
0.0
 11
-3486.304326625026
 21
12723.8413330776
 31
0.0
  0
LINE
  8
DIK
 10
-3590.835676448855
 20
12758.36048959261
 30
0.0
 11
-3590.835676448856
 21
13758.36048959261
 31
0.0
  0
LINE
  8
DIK
 10
-3632.835676448856
 20
12758.36048959261
 30
0.0
 11
-3632.835676448856
 21
13758.36048959261
 31
0.0
  0
ARC
  8
DIK
 10
-3611.835676448855
 20
12758.36048959261
 30
0.0
 40
17.5
 50
0.0
 51
180.0
  0
LINE
  8
DIK
 10
-3661.835676448855
 20
12758.36048959261
 30
0.0
 11
-3561.835676448855
 21
12758.36048959261
 31
0.0
  0
POLYLINE
  8
DIK
 66
     1
 10
0.0
 20
0.0
 30
0.0
 70
     1
  0
VERTEX
  8
DIK
 10
-3661.835676448855
 20
12515.86048959261
 30
0.0
  0
VERTEX
  8
DIK
 10
-3561.835676448855
 20
12515.86048959261
 30
0.0
  0
VERTEX
  8
DIK
 10
-3561.835676448855
 20
12550.86048959261
 30
0.0
  0
VERTEX
  8
DIK
 10
-3661.835676448855
 20
12550.86048959261
 30
0.0
  0
SEQEND
  8
DIK
  0
LINE
  8
DIK
 10
-3561.835676448855
 20
12418.36048959261
 30
0.0
 11
-3590.835676448855
 21
12418.36048959261
 31
0.0
  0
LINE
  8
DIK
 10
-3461.835676448855
 20
12658.36048959261
 30
0.0
 11
-3661.835676448855
 21
12658.36048959261
 31
0.0
  0
POLYLINE
  8
DIK
 66
     1
 10
0.0
 20
0.0
 30
0.0
 70
     1
  0
VERTEX
  8
DIK
 10
-3661.835676448855
 20
12758.36048959261
 30
0.0
  0
VERTEX
  8
DIK
 10
-3561.835676448855
 20
12758.36048959261
 30
0.0
  0
VERTEX
  8
DIK
 10
-3561.835676448855
 20
12658.36048959261
 30
0.0
  0
VERTEX
  8
DIK
 10
-3661.835676448855
 20
12658.36048959261
 30
0.0
  0
SEQEND
  8
DIK
  0
ARC
  8
DIK
 10
-3661.835676448855
 20
12708.36048959261
 30
0.0
 40
17.5
 50
90.0
 51
270.0
  0
LINE
  8
DIK
 10
-3632.835676448856
 20
12658.36048959261
 30
0.0
 11
-3632.835676448856
 21
12550.86048959261
 31
0.0
  0
LINE
  8
DIK
 10
-3590.835676448855
 20
12658.36048959261
 30
0.0
 11
-3590.835676448855
 21
12550.86048959261
 31
0.0
  0
LINE
  8
DIK
 10
-3661.835676448855
 20
12658.36048959261
 30
0.0
 11
-3661.835676448855
 21
12758.36048959261
 31
0.0
  0
LINE
  8
DIK
 10
-3486.304326625027
 20
12723.8413330776
 30
0.0
 11
-3456.605841815191
 21
12753.53981788744
 31
0.0
  0
LINE
  8
DIK
 10
-3461.835676448855
 20
12748.30998325378
 30
0.0
 11
-3461.835676448855
 21
12758.36048959261
 31
0.0
  0
LINE
  8
DIK
 10
-3461.835676448855
 20
12758.36048959261
 30
0.0
 11
-3561.835676448855
 21
12758.36048959261
 31
0.0
  0
LINE
  8
DIK
 10
-3561.835676448855
 20
12758.36048959261
 30
0.0
 11
-3561.835676448855
 21
12658.36048959261
 31
0.0
  0
LINE
  8
DIK
 10
-3461.835676448855
 20
12658.36048959261
 30
0.0
 11
-3461.835676448855
 21
12699.37268290143
 31
0.0
  0
ARC
  8
DIK
 10
-3461.835676448855
 20
12708.36048959261
 30
0.0
 40
17.5
 50
270.0
 51
293.705472997916
  0
LINE
  8
DIK
 10
-3561.835676448856
 20
13758.36048959261
 30
0.0
 11
-3661.835676448855
 21
13758.36048959261
 31
0.0
  0
POLYLINE
  8
DIK
 66
     1
 10
0.0
 20
0.0
 30
0.0
 70
     1
  0
VERTEX
  8
DIK
 10
-3294.678388923472
 20
12491.20320206723
 30
0.0
  0
VERTEX
  8
DIK
 10
-3365.389067042128
 20
12561.91388018588
 30
0.0
  0
VERTEX
  8
DIK
 10
-3294.678388923472
 20
12632.62455830454
 30
0.0
  0
VERTEX
  8
DIK
 10
-3223.967710804819
 20
12561.91388018588
 30
0.0
  0
SEQEND
  8
DIK
  0
LINE
  8
DIK
 10
-2461.835676448855
 20
11658.36048959261
 30
0.0
 11
-2461.835676448856
 21
11758.36048959261
 31
0.0
  0
LINE
  8
DIK
 10
-2561.835676448855
 20
11558.36048959261
 30
0.0
 11
-2561.835676448855
 21
11758.36048959261
 31
0.0
  0
LINE
  8
DIK
 10
-2461.835676448855
 20
11558.36048959261
 30
0.0
 11
-2561.835676448855
 21
11558.36048959261
 31
0.0
  0
LINE
  8
DIK
 10
-2561.835676448855
 20
11658.36048959261
 30
0.0
 11
-2461.835676448855
 21
11658.36048959261
 31
0.0
  0
ARC
  8
DIK
 10
-2511.835676448856
 20
11658.36048959261
 30
0.0
 40
17.5
 50
0.0
 51
180.0
  0
LINE
  8
DIK
 10
-2461.835676448855
 20
11658.36048959261
 30
0.0
 11
-2461.835676448855
 21
11558.36048959261
 31
0.0
  0
LINE
  8
DIK
 10
-2520.82348314004
 20
11758.36048959261
 30
0.0
 11
-2561.835676448855
 21
11758.36048959261
 31
0.0
  0
LINE
  8
DIK
 10
-2466.65634815403
 20
11763.59032422627
 30
0.0
 11
-2608.077704391338
 21
11905.01168046358
 31
0.0
  0
LINE
  8
DIK
 10
-2496.354832963865
 20
11733.89183941643
 30
0.0
 11
-2637.776189201175
 21
11875.31319565374
 31
0.0
  0
POLYLINE
  8
DIK
 66
     1
 10
0.0
 20
0.0
 30
0.0
 70
     1
  0
VERTEX
  8
DIK
 10
-2658.282285855583
 20
11854.80709899934
 30
0.0
  0
VERTEX
  8
DIK
 10
-2728.992963974238
 20
11925.51777711799
 30
0.0
  0
VERTEX
  8
DIK
 10
-2658.282285855583
 20
11996.22845523665
 30
0.0
  0
VERTEX
  8
DIK
 10
-2587.571607736929
 20
11925.51777711799
 30
0.0
  0
SEQEND
  8
DIK
  0
LINE
  8
DIK
 10
-2461.835676448856
 20
11758.36048959261
 30
0.0
 11
-2471.88618278769
 21
11758.36048959261
 31
0.0
  0
LINE
  8
DIK
 10
-2496.354832963866
 20
11733.89183941643
 30
0.0
 11
-2466.656348154029
 21
11763.59032422627
 31
0.0
  0
ARC
  8
DIK
 10
-3661.835676448856
 20
13858.36048959261
 30
0.0
 40
1500.0
 50
90.0
 51
180.0
  0
ARC
  8
DIK
 10
-3561.835676448855
 20
13858.36048959261
 30
0.0
 40
1500.0
 50
0.0
 51
90.0
  0
LINE
  8
DIK
 10
-3661.835676448855
 20
13858.36048959261
 30
0.0
 11
-3561.835676448855
 21
13858.36048959261
 31
0.0
  0
ARC
  8
DIK
 10
-3611.835676448855
 20
13858.36048959261
 30
0.0
 40
17.5
 50
0.000000000006
 51
179.999999999994
  0
LINE
  8
DIK
 10
2249.628394758721
 20
8464.639446811721
 30
0.0
 11
2249.628394758721
 21
7749.639446811722
 31
0.0
  0
LINE
  8
DIK
 10
2207.628394758721
 20
8464.639446811721
 30
0.0
 11
2207.628394758721
 21
7749.639446811722
 31
0.0
  0
LINE
  8
DIK
 10
3131.977203887748
 20
7894.802830991511
 30
0.0
 11
2566.291778938513
 21
8460.488255940751
 31
0.0
  0
LINE
  8
DIK
 10
2278.628394758721
 20
8282.875378099793
 30
0.0
 11
2954.364326046793
 21
7607.139446811722
 31
0.0
  0
LINE
  8
DIK
 10
2278.628394758721
 20
8707.139446811721
 30
0.0
 11
2278.628394758721
 21
7507.139446811723
 31
0.0
  0
LINE
  8
DIK
 10
93.218277614214
 20
7897.139446811718
 30
0.0
 11
93.218277614217
 21
8317.139446811721
 31
0.0
  0
POLYLINE
  8
DIK
 66
     1
 10
0.0
 20
0.0
 30
0.0
  0
VERTEX
  8
DIK
 10
243.218277614214
 20
7847.139446811721
 30
0.0
  0
VERTEX
  8
DIK
 10
243.218277614214
 20
7807.13944681172
 30
0.0
  0
VERTEX
  8
DIK
 10
-56.781722385786
 20
7807.13944681172
 30
0.0
  0
VERTEX
  8
DIK
 10
-56.781722385786
 20
8407.139446811719
 30
0.0
  0
SEQEND
  8
DIK
  0
INSERT
  8
DUN
  2
*X48
 10
-5055.146069728134
 20
24170.6501399675
 30
0.0
 50
270.0
1001
ACAD
1000
HATCH
1002
{
1070
    16
1000
AR-CONC
1040
1.0
1040
0.0
1002
}
  0
INSERT
  8
DUN
  2
*X49
 10
0.0
 20
0.0
 30
0.0
1001
ACAD
1000
HATCH
1002
{
1070
    16
1000
AR-CONC
1040
1.0
1040
0.0
1002
}
  0
LINE
  8
DIK
 10
3270.570133000312
 20
7856.61906480744
 30
0.0
 11
2528.108012754436
 21
8599.081185053313
 31
0.0
  0
LINE
  8
DIK
 10
2598.81869087309
 20
8669.791863171967
 30
0.0
 11
3341.280811118966
 21
7927.329742926091
 31
0.0
  0
LINE
  8
DIK
 10
2616.496360402758
 20
8510.692837404993
 30
0.0
 11
3182.181785351993
 21
7945.007412455757
 31
0.0
  0
LINE
  8
DIK
 10
3161.675688697584
 20
7924.501315801347
 30
0.0
 11
2595.990263748348
 21
8490.186740750585
 31
0.0
  0
LINE
  8
DIK
 10
2278.628394758721
 20
8495.007412455757
 30
0.0
 11
3166.496360402756
 21
7607.139446811722
 31
0.0
  0
LINE
  8
DIK
 10
2378.628394758721
 20
8607.139446811721
 30
0.0
 11
3278.628394758721
 21
7707.139446811723
 31
0.0
  0
POLYLINE
  8
DIK
 66
     1
 10
0.0
 20
0.0
 30
0.0
  0
VERTEX
  8
DIK
 10
3307.628394758721
 20
6207.13944681172
 30
0.0
  0
VERTEX
  8
DIK
 10
3028.628394758721
 20
6207.13944681172
 30
0.0
  0
SEQEND
  8
DIK
  0
POLYLINE
  8
DIK
 66
     1
 10
0.0
 20
0.0
 30
0.0
  0
VERTEX
  8
DIK
 10
3028.628394758721
 20
6207.13944681172
 30
0.0
  0
VERTEX
  8
DIK
 10
3028.628394758721
 20
5907.13944681172
 30
0.0
  0
VERTEX
  8
DIK
 10
3628.628394758721
 20
5907.13944681172
 30
0.0
  0
VERTEX
  8
DIK
 10
3628.628394758721
 20
6207.13944681172
 30
0.0
  0
VERTEX
  8
DIK
 10
3349.62839475872
 20
6207.13944681172
 30
0.0
  0
SEQEND
  8
DIK
  0
POLYLINE
  8
DIK
 66
     1
 10
0.0
 20
0.0
 30
0.0
  0
VERTEX
  8
DIK
 10
3028.628394758721
 20
7607.139446811722
 30
0.0
  0
VERTEX
  8
DIK
 10
3028.628394758721
 20
7407.139446811719
 30
0.0
  0
VERTEX
  8
DIK
 10
3307.62839475872
 20
7407.139446811719
 30
0.0
  0
SEQEND
  8
DIK
  0
POLYLINE
  8
DIK
 66
     1
 10
0.0
 20
0.0
 30
0.0
 70
     1
  0
VERTEX
  8
DIK
 10
3182.181785351993
 20
7803.586056218447
 30
0.0
  0
VERTEX
  8
DIK
 10
3111.471107233338
 20
7874.296734337101
 30
0.0
  0
VERTEX
  8
DIK
 10
3182.181785351993
 20
7945.007412455757
 30
0.0
  0
VERTEX
  8
DIK
 10
3252.892463470647
 20
7874.296734337101
 30
0.0
  0
SEQEND
  8
DIK
  0
LINE
  8
DIK
 10
2278.628394758721
 20
7607.139446811722
 30
0.0
 11
3378.628394758721
 21
7607.139446811722
 31
0.0
  0
LINE
  8
DIK
 10
2207.628394758721
 20
7897.139446811721
 30
0.0
 11
43.218277614217
 21
7897.139446811719
 31
0.0
  0
LINE
  8
DIK
 10
2207.628394758721
 20
7847.139446811721
 30
0.0
 11
43.218277614217
 21
7847.139446811719
 31
0.0
  0
LINE
  8
DIK
 10
43.218277614217
 20
7897.139446811719
 30
0.0
 11
43.218277614217
 21
7847.139446811719
 31
0.0
  0
POLYLINE
  8
DIK
 66
     1
 10
0.0
 20
0.0
 30
0.0
  0
VERTEX
  8
DIK
 10
2207.628394758721
 20
7707.13944681172
 30
0.0
  0
VERTEX
  8
DIK
 10
1928.628394758721
 20
7707.13944681172
 30
0.0
  0
SEQEND
  8
DIK
  0
POLYLINE
  8
DIK
 66
     1
 10
0.0
 20
0.0
 30
0.0
  0
VERTEX
  8
DIK
 10
1928.628394758721
 20
7707.13944681172
 30
0.0
  0
VERTEX
  8
DIK
 10
1928.628394758721
 20
7407.139446811719
 30
0.0
  0
VERTEX
  8
DIK
 10
2528.628394758721
 20
7407.139446811719
 30
0.0
  0
VERTEX
  8
DIK
 10
2528.628394758721
 20
7607.139446811722
 30
0.0
  0
SEQEND
  8
DIK
  0
LINE
  8
DIK
 10
2278.628394758721
 20
8070.743343743831
 30
0.0
 11
2742.232291690829
 21
7607.139446811722
 31
0.0
  0
POLYLINE
  8
DIK
 66
     1
 10
0.0
 20
0.0
 30
0.0
 70
     1
  0
VERTEX
  8
DIK
 10
2178.628394758721
 20
7749.639446811722
 30
0.0
  0
VERTEX
  8
DIK
 10
2278.628394758721
 20
7749.639446811722
 30
0.0
  0
VERTEX
  8
DIK
 10
2278.628394758721
 20
7714.639446811723
 30
0.0
  0
VERTEX
  8
DIK
 10
2178.628394758721
 20
7714.639446811723
 30
0.0
  0
SEQEND
  8
DIK
  0
ARC
  8
DIK
 10
2228.628394758721
 20
7507.139446811723
 30
0.0
 40
17.5
 50
179.999999999988
 51
0.000000000012
  0
POLYLINE
  8
DIK
 66
     1
 10
0.0
 20
0.0
 30
0.0
 70
     1
  0
VERTEX
  8
DIK
 10
2178.628394758721
 20
7507.139446811723
 30
0.0
  0
VERTEX
  8
DIK
 10
2178.628394758721
 20
7607.139446811722
 30
0.0
  0
VERTEX
  8
DIK
 10
2278.628394758721
 20
7607.139446811722
 30
0.0
  0
VERTEX
  8
DIK
 10
2278.628394758721
 20
7507.139446811723
 30
0.0
  0
SEQEND
  8
DIK
  0
POLYLINE
  8
DIK
 66
     1
 10
0.0
 20
0.0
 30
0.0
 70
     1
  0
VERTEX
  8
DIK
 10
2178.628394758721
 20
7607.139446811724
 30
0.0
  0
VERTEX
  8
DIK
 10
2278.628394758721
 20
7607.139446811724
 30
0.0
  0
VERTEX
  8
DIK
 10
2278.628394758721
 20
7507.139446811724
 30
0.0
  0
VERTEX
  8
DIK
 10
2178.628394758721
 20
7507.139446811724
 30
0.0
  0
SEQEND
  8
DIK
  0
ARC
  8
DIK
 10
2178.628394758721
 20
7557.139446811724
 30
0.0
 40
17.5
 50
90.0
 51
270.0
  0
LINE
  8
DIK
 10
2207.628394758721
 20
7714.639446811723
 30
0.0
 11
2207.628394758721
 21
7607.139446811724
 31
0.0
  0
LINE
  8
DIK
 10
2278.628394758721
 20
7858.611309387868
 30
0.0
 11
2530.100257334865
 21
7607.139446811722
 31
0.0
  0
ARC
  8
DIK
 10
2378.628394758721
 20
7557.139446811723
 30
0.0
 40
17.5
 50
270.0
 51
90.0
  0
POLYLINE
  8
DIK
 66
     1
 10
0.0
 20
0.0
 30
0.0
  0
VERTEX
  8
DIK
 10
2278.628394758721
 20
7707.13944681172
 30
0.0
  0
VERTEX
  8
DIK
 10
2249.628394758721
 20
7707.13944681172
 30
0.0
  0
SEQEND
  8
DIK
  0
LINE
  8
DIK
 10
2378.628394758721
 20
7507.139446811723
 30
0.0
 11
2378.628394758721
 21
7607.139446811722
 31
0.0
  0
LINE
  8
DIK
 10
2278.628394758721
 20
7507.139446811723
 30
0.0
 11
2378.628394758721
 21
7507.139446811723
 31
0.0
  0
LINE
  8
DIK
 10
2278.628394758721
 20
7707.139446811723
 30
0.0
 11
2278.628394758721
 21
7607.139446811722
 31
0.0
  0
LINE
  8
DIK
 10
2249.628394758721
 20
7714.639446811723
 30
0.0
 11
2249.628394758721
 21
7607.139446811724
 31
0.0
  0
LINE
  8
DIK
 10
2278.628394758721
 20
7646.479275031905
 30
0.0
 11
2317.968222978902
 21
7607.139446811722
 31
0.0
  0
LINE
  8
DIK
 10
2278.628394758721
 20
7897.139446811721
 30
0.0
 11
2249.628394758721
 21
7897.139446811721
 31
0.0
  0
LINE
  8
DIK
 10
2278.628394758721
 20
7847.139446811722
 30
0.0
 11
2249.628394758721
 21
7847.139446811722
 31
0.0
  0
LINE
  8
DIK
 10
3307.628394758721
 20
6107.139446811722
 30
0.0
 11
3307.628394758721
 21
7507.139446811723
 31
0.0
  0
LINE
  8
DIK
 10
3349.628394758721
 20
6107.139446811722
 30
0.0
 11
3349.62839475872
 21
7507.139446811723
 31
0.0
  0
LINE
  8
DIK
 10
3278.628394758721
 20
6107.139446811722
 30
0.0
 11
3378.628394758721
 21
6107.139446811722
 31
0.0
  0
LINE
  8
DIK
 10
3378.628394758721
 20
6007.139446811722
 30
0.0
 11
3278.628394758721
 21
6007.139446811722
 31
0.0
  0
LINE
  8
DIK
 10
3278.628394758721
 20
6007.139446811722
 30
0.0
 11
3278.628394758721
 21
6107.139446811722
 31
0.0
  0
LINE
  8
DIK
 10
3378.628394758721
 20
6107.139446811722
 30
0.0
 11
3378.628394758721
 21
6007.139446811722
 31
0.0
  0
ARC
  8
DIK
 10
3328.628394758721
 20
6007.139446811722
 30
0.0
 40
17.5
 50
180.0
 51
0.0
  0
POLYLINE
  8
DIK
 66
     1
 10
0.0
 20
0.0
 30
0.0
  0
VERTEX
  8
DIK
 10
3349.62839475872
 20
7407.139446811719
 30
0.0
  0
VERTEX
  8
DIK
 10
3628.628394758721
 20
7407.139446811719
 30
0.0
  0
VERTEX
  8
DIK
 10
3628.628394758721
 20
7707.13944681172
 30
0.0
  0
VERTEX
  8
DIK
 10
3368.577888419886
 20
7707.13944681172
 30
0.0
  0
SEQEND
  8
DIK
  0
LINE
  8
DIK
 10
3344.109238243711
 20
7682.670796635545
 30
0.0
 11
3202.687882006401
 21
7824.092152872855
 31
0.0
  0
LINE
  8
DIK
 10
3373.807723053547
 20
7712.369281445381
 30
0.0
 11
3232.386366816238
 21
7853.790637682692
 31
0.0
  0
POLYLINE
  8
DIK
 66
     1
 10
0.0
 20
0.0
 30
0.0
  0
VERTEX
  8
DIK
 10
3319.640588067536
 20
7707.13944681172
 30
0.0
  0
VERTEX
  8
DIK
 10
3278.628394758721
 20
7707.13944681172
 30
0.0
  0
SEQEND
  8
DIK
  0
LINE
  8
DIK
 10
3319.640588067536
 20
7707.13944681172
 30
0.0
 11
3278.628394758721
 21
7707.139446811723
 31
0.0
  0
LINE
  8
DIK
 10
3278.628394758721
 20
7607.139446811722
 30
0.0
 11
3378.628394758721
 21
7607.139446811722
 31
0.0
  0
LINE
  8
DIK
 10
3378.628394758721
 20
7507.139446811723
 30
0.0
 11
3278.628394758721
 21
7507.139446811723
 31
0.0
  0
LINE
  8
DIK
 10
3278.628394758721
 20
7507.139446811723
 30
0.0
 11
3278.628394758721
 21
7707.139446811723
 31
0.0
  0
LINE
  8
DIK
 10
3378.62839475872
 20
7707.13944681172
 30
0.0
 11
3368.577888419886
 21
7707.13944681172
 31
0.0
  0
LINE
  8
DIK
 10
3344.10923824371
 20
7682.670796635545
 30
0.0
 11
3373.807723053547
 21
7712.369281445381
 31
0.0
  0
LINE
  8
DIK
 10
3378.628394758721
 20
7607.139446811722
 30
0.0
 11
3378.628394758721
 21
7507.139446811723
 31
0.0
  0
ARC
  8
DIK
 10
3328.628394758721
 20
7607.139446811722
 30
0.0
 40
17.5
 50
0.0
 51
180.0
  0
LINE
  8
DIK
 10
3378.628394758721
 20
7607.139446811722
 30
0.0
 11
3378.62839475872
 21
7707.13944681172
 31
0.0
  0
LINE
  8
DIK
 10
3341.280811118967
 20
7927.329742926093
 30
0.0
 11
3270.570133000312
 21
7856.619064807437
 31
0.0
  0
ARC
  8
DIK
 10
3288.247802529973
 20
7980.362751515087
 30
0.0
 40
17.5
 50
314.999999999994
 51
135.000000000006
  0
LINE
  8
DIK
 10
2207.628394758721
 20
8367.139446811719
 30
0.0
 11
43.218277614217
 21
8367.139446811718
 31
0.0
  0
LINE
  8
DIK
 10
2207.628394758721
 20
8317.139446811721
 30
0.0
 11
43.218277614217
 21
8317.139446811719
 31
0.0
  0
LINE
  8
DIK
 10
-961.835676448855
 20
12421.10218938955
 30
0.0
 11
-961.835676448855
 21
10058.36048959261
 31
0.0
  0
LINE
  8
STREEPLIJN
 10
-961.835676448855
 20
10058.36048959261
 30
0.0
 11
-961.835676448855
 21
8558.360489592613
 31
0.0
  0
POLYLINE
  8
DIK
 66
     1
 10
0.0
 20
0.0
 30
0.0
  0
VERTEX
  8
DIK
 10
-56.781722385786
 20
8407.139446811719
 30
0.0
  0
VERTEX
  8
DIK
 10
243.218277614214
 20
8407.139446811719
 30
0.0
  0
VERTEX
  8
DIK
 10
243.218277614214
 20
8367.139446811719
 30
0.0
  0
SEQEND
  8
DIK
  0
LINE
  8
DIK
 10
43.218277614217
 20
8317.139446811721
 30
0.0
 11
43.218277614217
 21
8367.139446811719
 31
0.0
  0
POLYLINE
  8
DIK
 66
     1
 10
0.0
 20
0.0
 30
0.0
 70
     1
  0
VERTEX
  8
DIK
 10
1928.628394758721
 20
9907.139446811722
 30
0.0
  0
VERTEX
  8
DIK
 10
1928.628394758721
 20
9607.139446811721
 30
0.0
  0
VERTEX
  8
DIK
 10
2528.628394758721
 20
9607.139446811721
 30
0.0
  0
VERTEX
  8
DIK
 10
2528.628394758721
 20
9907.139446811722
 30
0.0
  0
SEQEND
  8
DIK
  0
POLYLINE
  8
DIK
 66
     1
 10
0.0
 20
0.0
 30
0.0
  0
VERTEX
  8
DIK
 10
2207.628394758721
 20
8807.139446811724
 30
0.0
  0
VERTEX
  8
DIK
 10
1928.628394758722
 20
8807.139446811724
 30
0.0
  0
VERTEX
  8
DIK
 10
1928.628394758722
 20
8507.139446811725
 30
0.0
  0
VERTEX
  8
DIK
 10
2207.628394758721
 20
8507.139446811725
 30
0.0
  0
SEQEND
  8
DIK
  0
LINE
  8
DIK
 10
2207.62839475872
 20
9215.139446811722
 30
0.0
 11
2207.62839475872
 21
9707.139446811723
 31
0.0
  0
LINE
  8
DIK
 10
2249.628394758721
 20
9215.139446811722
 30
0.0
 11
2249.628394758721
 21
9707.139446811723
 31
0.0
  0
LINE
  8
DIK
 10
2528.108012754437
 20
8599.081185053313
 30
0.0
 11
2598.818690873092
 21
8669.791863171971
 31
0.0
  0
POLYLINE
  8
DIK
 66
     1
 10
0.0
 20
0.0
 30
0.0
 70
     1
  0
VERTEX
  8
DIK
 10
2545.785682284104
 20
8439.982159286341
 30
0.0
  0
VERTEX
  8
DIK
 10
2475.075004165449
 20
8510.692837404995
 30
0.0
  0
VERTEX
  8
DIK
 10
2545.785682284104
 20
8581.403515523652
 30
0.0
  0
VERTEX
  8
DIK
 10
2616.496360402758
 20
8510.692837404995
 30
0.0
  0
SEQEND
  8
DIK
  0
LINE
  8
DIK
 10
2207.628394758721
 20
8707.139446811721
 30
0.0
 11
2207.628394758721
 21
9199.139446811722
 31
0.0
  0
LINE
  8
DIK
 10
2249.628394758721
 20
8707.139446811721
 30
0.0
 11
2249.628394758721
 21
9199.139446811722
 31
0.0
  0
POLYLINE
  8
DIK
 66
     1
 10
0.0
 20
0.0
 30
0.0
  0
VERTEX
  8
DIK
 10
2528.628394758723
 20
8598.560803049025
 30
0.0
  0
VERTEX
  8
DIK
 10
2528.628394758722
 20
8807.139446811724
 30
0.0
  0
VERTEX
  8
DIK
 10
2249.628394758721
 20
8807.139446811724
 30
0.0
  0
SEQEND
  8
DIK
  0
LINE
  8
DIK
 10
2178.628394758721
 20
8707.139446811721
 30
0.0
 11
2278.628394758721
 21
8707.139446811721
 31
0.0
  0
POLYLINE
  8
DIK
 66
     1
 10
0.0
 20
0.0
 30
0.0
 70
     1
  0
VERTEX
  8
DIK
 10
2178.628394758721
 20
8707.139446811721
 30
0.0
  0
VERTEX
  8
DIK
 10
2278.628394758721
 20
8707.139446811721
 30
0.0
  0
VERTEX
  8
DIK
 10
2278.628394758721
 20
8607.139446811721
 30
0.0
  0
VERTEX
  8
DIK
 10
2178.628394758721
 20
8607.139446811721
 30
0.0
  0
SEQEND
  8
DIK
  0
LINE
  8
DIK
 10
2378.628394758721
 20
8607.139446811721
 30
0.0
 11
2178.628394758721
 21
8607.139446811721
 31
0.0
  0
ARC
  8
DIK
 10
2228.628394758721
 20
8707.139446811721
 30
0.0
 40
17.5
 50
0.0
 51
180.0
  0
POLYLINE
  8
DIK
 66
     1
 10
0.0
 20
0.0
 30
0.0
 70
     1
  0
VERTEX
  8
DIK
 10
2178.628394758721
 20
8464.639446811721
 30
0.0
  0
VERTEX
  8
DIK
 10
2278.628394758721
 20
8464.639446811721
 30
0.0
  0
VERTEX
  8
DIK
 10
2278.628394758721
 20
8499.639446811722
 30
0.0
  0
VERTEX
  8
DIK
 10
2178.628394758721
 20
8499.639446811722
 30
0.0
  0
SEQEND
  8
DIK
  0
LINE
  8
DIK
 10
2178.628394758721
 20
8607.139446811721
 30
0.0
 11
2178.628394758721
 21
8707.139446811721
 31
0.0
  0
ARC
  8
DIK
 10
2178.628394758721
 20
8657.139446811722
 30
0.0
 40
17.5
 50
90.0
 51
270.0
  0
LINE
  8
DIK
 10
2207.628394758721
 20
8607.139446811721
 30
0.0
 11
2207.628394758721
 21
8499.639446811722
 31
0.0
  0
LINE
  8
DIK
 10
2278.628394758721
 20
8367.139446811721
 30
0.0
 11
2249.628394758721
 21
8367.139446811721
 31
0.0
  0
LINE
  8
DIK
 10
2278.628394758721
 20
8317.139446811721
 30
0.0
 11
2249.628394758721
 21
8317.139446811721
 31
0.0
  0
LINE
  8
DIK
 10
2525.279585629693
 20
8560.897418869242
 30
0.0
 11
2383.858229392385
 21
8702.318775106551
 31
0.0
  0
LINE
  8
DIK
 10
2495.581100819859
 20
8531.198934059405
 30
0.0
 11
2354.15974458255
 21
8672.620290296714
 31
0.0
  0
POLYLINE
  8
DIK
 66
     1
 10
0.0
 20
0.0
 30
0.0
  0
VERTEX
  8
DIK
 10
2249.628394758721
 20
8507.139446811725
 30
0.0
  0
VERTEX
  8
DIK
 10
2278.628394758721
 20
8507.139446811725
 30
0.0
  0
SEQEND
  8
DIK
  0
LINE
  8
DIK
 10
2378.628394758721
 20
8697.088940472886
 30
0.0
 11
2378.628394758721
 21
8707.139446811721
 31
0.0
  0
LINE
  8
DIK
 10
2378.628394758721
 20
8607.139446811721
 30
0.0
 11
2378.628394758721
 21
8648.151640120543
 31
0.0
  0
LINE
  8
DIK
 10
2354.159744582549
 20
8672.620290296714
 30
0.0
 11
2383.858229392386
 21
8702.318775106551
 31
0.0
  0
ARC
  8
DIK
 10
2378.628394758721
 20
8657.139446811722
 30
0.0
 40
17.5
 50
270.0
 51
293.705472997916
  0
LINE
  8
DIK
 10
2278.628394758721
 20
8707.139446811721
 30
0.0
 11
2278.628394758721
 21
8607.139446811721
 31
0.0
  0
LINE
  8
DIK
 10
2378.628394758721
 20
8707.139446811721
 30
0.0
 11
2278.628394758721
 21
8707.139446811721
 31
0.0
  0
LINE
  8
DIK
 10
2249.628394758721
 20
8607.139446811721
 30
0.0
 11
2249.628394758721
 21
8499.639446811722
 31
0.0
  0
POLYLINE
  8
DIK
 66
     1
 10
0.0
 20
0.0
 30
0.0
  0
VERTEX
  8
DIK
 10
2528.628394758722
 20
8564.246227998271
 30
0.0
  0
VERTEX
  8
DIK
 10
2528.628394758722
 20
8598.560803049029
 30
0.0
  0
SEQEND
  8
DIK
  0
LINE
  8
DIK
 10
2199.62839475872
 20
9215.139446811722
 30
0.0
 11
2257.628394758721
 21
9215.139446811722
 31
0.0
  0
LINE
  8
DIK
 10
2199.62839475872
 20
9199.139446811722
 30
0.0
 11
2257.628394758721
 21
9199.139446811722
 31
0.0
  0
LINE
  8
DIK
 10
2199.628394758721
 20
9199.139446811722
 30
0.0
 11
2199.62839475872
 21
9215.13944681172
 31
0.0
  0
LINE
  8
DIK
 10
2257.628394758721
 20
9199.139446811722
 30
0.0
 11
2257.62839475872
 21
9215.13944681172
 31
0.0
  0
ARC
  8
DIK
 10
2652.390135207675
 20
8616.220418837384
 30
0.0
 40
17.5
 50
314.999999999994
 51
135.000000000006
  0
ARC
  8
DIK
 10
2228.628394758721
 20
9807.139446811724
 30
0.0
 40
17.5
 50
0.000000000006
 51
179.999999999994
  0
LINE
  8
DIK
 10
2178.628394758721
 20
9807.139446811724
 30
0.0
 11
2278.628394758721
 21
9807.139446811724
 31
0.0
  0
LINE
  8
DIK
 10
2278.628394758721
 20
9707.139446811723
 30
0.0
 11
2178.628394758721
 21
9707.139446811723
 31
0.0
  0
LINE
  8
DIK
 10
2178.628394758721
 20
9707.139446811723
 30
0.0
 11
2178.628394758721
 21
9807.139446811724
 31
0.0
  0
LINE
  8
DIK
 10
2278.628394758721
 20
9807.139446811724
 30
0.0
 11
2278.628394758721
 21
9707.139446811723
 31
0.0
  0
LINE
  8
STREEPLIJN
 10
-5161.835676448856
 20
15358.36048959261
 30
0.0
 11
-2061.835676448849
 21
15358.36048959262
 31
0.0
  0
ENDBLK
  8
0
  0
BLOCK
  8
0
  2
*X48
 70
    65
 10
0.0
 20
0.0
 30
0.0
  3
*X
  0
LINE
  8
0
 62
     0
 10
15927.67466792467
 20
4998.364347342348
 30
0.0
 11
15939.32766125242
 21
5012.251844005175
 31
0.0
  0
LINE
  8
0
 62
     0
 10
15941.86220814453
 20
4998.364347342348
 30
0.0
 11
15939.32058127112
 21
5012.143493649947
 31
0.0
  0
LINE
  8
0
 62
     0
 10
16025.8581436559
 20
5056.845299006559
 30
0.0
 11
16043.64285078067
 21
5063.672208445397
 31
0.0
  0
LINE
  8
0
 62
     0
 10
16239.27462915316
 20
5138.768212272615
 30
0.0
 11
16257.05933627794
 21
5145.595121711452
 31
0.0
  0
LINE
  8
0
 62
     0
 10
16025.85011203798
 20
5056.837368184133
 30
0.0
 11
16038.48464464371
 21
5048.315268335239
 31
0.0
  0
LINE
  8
0
 62
     0
 10
16239.26653165449
 20
5138.760136119722
 30
0.0
 11
16251.90106426023
 21
5130.238036270829
 31
0.0
  0
LINE
  8
0
 62
     0
 10
16038.48885695864
 20
5048.322199525956
 30
0.0
 11
16043.63904067698
 21
5063.671196485604
 31
0.0
  0
LINE
  8
0
 62
     0
 10
16251.90534772876
 20
5130.245057242013
 30
0.0
 11
16257.05553144711
 21
5145.594054201661
 31
0.0
  0
LINE
  8
0
 62
     0
 10
15858.67976786629
 20
5018.691868387864
 30
0.0
 11
15858.67976786629
 21
5018.691868387864
 31
0.0
  0
LINE
  8
0
 62
     0
 10
15993.69263931706
 20
5122.290888376568
 30
0.0
 11
15993.69263931706
 21
5122.290888376568
 31
0.0
  0
LINE
  8
0
 62
     0
 10
15861.76837111689
 20
5103.246907261018
 30
0.0
 11
15861.76837111689
 21
5103.246907261018
 31
0.0
  0
LINE
  8
0
 62
     0
 10
15990.60403606647
 20
5037.735849503417
 30
0.0
 11
15990.60403606647
 21
5037.735849503417
 31
0.0
  0
LINE
  8
0
 62
     0
 10
16124.10556940397
 20
5140.175178969859
 30
0.0
 11
16124.10556940397
 21
5140.175178969859
 31
0.0
  0
LINE
  8
0
 62
     0
 10
16121.01696615338
 20
5055.620140096704
 30
0.0
 11
16121.01696615338
 21
5055.620140096704
 31
0.0
  0
LINE
  8
0
 62
     0
 10
16249.31402288174
 20
5071.880863958829
 30
0.0
 11
16249.31402288174
 21
5071.880863958829
 31
0.0
  0
LINE
  8
0
 62
     0
 10
15909.97757324421
 20
5110.247062979855
 30
0.0
 11
15909.97757324421
 21
5110.247062979855
 31
0.0
  0
LINE
  8
0
 62
     0
 10
15973.56388942842
 20
5118.618360317888
 30
0.0
 11
15973.56388942842
 21
5118.618360317888
 31
0.0
  0
LINE
  8
0
 62
     0
 10
16069.76180143779
 20
5131.283055696615
 30
0.0
 11
16069.76180143779
 21
5131.283055696615
 31
0.0
  0
LINE
  8
0
 62
     0
 10
16360.58157581287
 20
5260.953804701587
 30
0.0
 11
16360.58157581287
 21
5260.953804701587
 31
0.0
  0
LINE
  8
0
 62
     0
 10
15787.00519057488
 20
5276.824640388547
 30
0.0
 11
15787.00519057488
 21
5276.824640388547
 31
0.0
  0
LINE
  8
0
 62
     0
 10
15843.1579107339
 20
5010.066488161736
 30
0.0
 11
15843.1579107339
 21
5010.066488161736
 31
0.0
  0
LINE
  8
0
 62
     0
 10
15906.74422691811
 20
5018.437785499769
 30
0.0
 11
15906.74422691811
 21
5018.437785499769
 31
0.0
  0
LINE
  8
0
 62
     0
 10
16002.94213892749
 20
5031.102480878495
 30
0.0
 11
16002.94213892749
 21
5031.102480878495
 31
0.0
  0
LINE
  8
0
 62
     0
 10
16163.35593460805
 20
5052.221357727316
 30
0.0
 11
16163.35593460805
 21
5052.221357727316
 31
0.0
  0
LINE
  8
0
 62
     0
 10
16226.94225079226
 20
5060.59265506535
 30
0.0
 11
16226.94225079226
 21
5060.59265506535
 31
0.0
  0
LINE
  8
0
 62
     0
 10
16323.14016280164
 20
5073.257350444076
 30
0.0
 11
16323.14016280164
 21
5073.257350444076
 31
0.0
  0
LINE
  8
0
 62
     0
 10
16109.08223751946
 20
5105.828284027206
 30
0.0
 11
16109.08223751946
 21
5105.828284027206
 31
0.0
  0
LINE
  8
0
 62
     0
 10
16162.63759432858
 20
5071.709758897184
 30
0.0
 11
16162.63759432858
 21
5071.709758897184
 31
0.0
  0
LINE
  8
0
 62
     0
 10
16244.67283268633
 20
5100.099540034535
 30
0.0
 11
16244.67283268633
 21
5100.099540034535
 31
0.0
  0
LINE
  8
0
 62
     0
 10
16298.22818949545
 20
5065.981014904512
 30
0.0
 11
16298.22818949545
 21
5065.981014904512
 31
0.0
  0
LINE
  8
0
 62
     0
 10
15973.49164235259
 20
5111.557028019881
 30
0.0
 11
15973.49164235259
 21
5111.557028019881
 31
0.0
  0
LINE
  8
0
 62
     0
 10
16027.04699916171
 20
5077.438502889858
 30
0.0
 11
16027.04699916171
 21
5077.438502889858
 31
0.0
  0
LINE
  8
0
 62
     0
 10
15891.45640399484
 20
5083.167246882531
 30
0.0
 11
15891.45640399484
 21
5083.167246882531
 31
0.0
  0
LINE
  8
0
 62
     0
 10
15773.7704791079
 20
5293.735695458747
 30
0.0
 11
15773.7704791079
 21
5293.735695458747
 31
0.0
  0
LINE
  8
0
 62
     0
 10
16069.28008302944
 20
5022.951033163899
 30
0.0
 11
16069.28008302944
 21
5022.951033163899
 31
0.0
  0
LINE
  8
0
 62
     0
 10
16217.40926441546
 20
5048.377524197232
 30
0.0
 11
16217.40926441546
 21
5048.377524197232
 31
0.0
  0
LINE
  8
0
 62
     0
 10
15783.50859563434
 20
5123.650477990334
 30
0.0
 11
15783.50859563434
 21
5123.650477990334
 31
0.0
  0
ENDBLK
  8
0
  0
BLOCK
  8
0
  2
*X49
 70
    65
 10
0.0
 20
0.0
 30
0.0
  3
*X
  0
LINE
  8
0
 62
     0
 10
3109.636446611995
 20
7434.853516199383
 30
0.0
 11
3121.881550576524
 21
7449.4466628408
 31
0.0
  0
LINE
  8
0
 62
     0
 10
3291.821115607999
 20
7418.914430660481
 30
0.0
 11
3304.066219572528
 21
7433.507577301896
 31
0.0
  0
LINE
  8
0
 62
     0
 10
3438.762363182342
 20
7594.032190357479
 30
0.0
 11
3451.00746714687
 21
7608.625336998896
 31
0.0
  0
LINE
  8
0
 62
     0
 10
3477.499880796388
 20
7407.139446811719
 30
0.0
 11
3486.250888568532
 21
7417.568491762993
 31
0.0
  0
LINE
  8
0
 62
     0
 10
3620.947032178346
 20
7578.093104818575
 30
0.0
 11
3628.628394758721
 21
7587.247396269755
 31
0.0
  0
LINE
  8
0
 62
     0
 10
3028.628394758721
 20
5939.961963391319
 30
0.0
 11
3039.459583957805
 21
5952.870072031394
 31
0.0
  0
LINE
  8
0
 62
     0
 10
3174.155727567619
 20
6113.394685086976
 30
0.0
 11
3186.400831532148
 21
6127.987831728393
 31
0.0
  0
LINE
  8
0
 62
     0
 10
3209.399148989281
 20
5922.337839851075
 30
0.0
 11
3221.644252953809
 21
5936.930986492492
 31
0.0
  0
LINE
  8
0
 62
     0
 10
3364.466109230928
 20
6107.139446811722
 30
0.0
 11
3368.585500528152
 21
6112.04874618949
 31
0.0
  0
LINE
  8
0
 62
     0
 10
3392.205332788471
 20
5907.139446811719
 30
0.0
 11
3403.828921949813
 21
5920.991900953588
 31
0.0
  0
LINE
  8
0
 62
     0
 10
3538.525065559627
 20
6081.51651400917
 30
0.0
 11
3550.770169524156
 21
6096.109660650586
 31
0.0
  0
LINE
  8
0
 62
     0
 10
2380.89777062798
 20
7498.609858354996
 30
0.0
 11
2393.142874592508
 21
7513.203004996412
 31
0.0
  0
LINE
  8
0
 62
     0
 10
2016.528432635972
 20
7530.488029432803
 30
0.0
 11
2028.773536600501
 21
7545.08117607422
 31
0.0
  0
LINE
  8
0
 62
     0
 10
2163.469680210315
 20
7705.605789129802
 30
0.0
 11
2164.756571805565
 21
7707.13944681172
 31
0.0
  0
LINE
  8
0
 62
     0
 10
2498.56315866836
 20
8804.129603928499
 30
0.0
 11
2501.088716721577
 21
8807.139446811724
 31
0.0
  0
LINE
  8
0
 62
     0
 10
1987.25257310201
 20
8660.890015309307
 30
0.0
 11
1999.497677066538
 21
8675.483161950724
 31
0.0
  0
LINE
  8
0
 62
     0
 10
2504.530720556058
 20
9743.474744569104
 30
0.0
 11
2516.775824520586
 21
9758.06789121052
 31
0.0
  0
LINE
  8
0
 62
     0
 10
2322.346051560054
 20
9759.413830108009
 30
0.0
 11
2334.591155524582
 21
9774.006976749426
 31
0.0
  0
LINE
  8
0
 62
     0
 10
1999.013522905393
 20
9607.139446811721
 30
0.0
 11
2005.465238954236
 21
9614.828302591329
 31
0.0
  0
LINE
  8
0
 62
     0
 10
2140.16138256405
 20
9775.352915646911
 30
0.0
 11
2152.406486528578
 21
9789.946062288327
 31
0.0
  0
LINE
  8
0
 62
     0
 10
1957.976713568047
 20
9791.292001185814
 30
0.0
 11
1970.221817532575
 21
9805.885147827231
 31
0.0
  0
LINE
  8
0
 62
     0
 10
1987.268906884018
 20
8660.881370788622
 30
0.0
 11
2002.450914082936
 21
8659.553117269148
 31
0.0
  0
LINE
  8
0
 62
     0
 10
2498.578340069407
 20
8804.120886969725
 30
0.0
 11
2513.760347268325
 21
8802.792633450252
 31
0.0
  0
LINE
  8
0
 62
     0
 10
1957.996037417035
 20
9791.282185848011
 30
0.0
 11
1973.178044615953
 21
9789.953932328536
 31
0.0
  0
LINE
  8
0
 62
     0
 10
2140.180123804054
 20
9775.343143614321
 30
0.0
 11
2155.362131002972
 21
9774.014890094846
 31
0.0
  0
LINE
  8
0
 62
     0
 10
2322.364210191072
 20
9759.404101380628
 30
0.0
 11
2337.54621738999
 21
9758.075847861153
 31
0.0
  0
LINE
  8
0
 62
     0
 10
2504.54829657809
 20
9743.465059146936
 30
0.0
 11
2519.730303777008
 21
9742.136805627463
 31
0.0
  0
LINE
  8
0
 62
     0
 10
2163.483036762353
 20
7705.598156377725
 30
0.0
 11
2178.665043961272
 21
7704.26990285825
 31
0.0
  0
LINE
  8
0
 62
     0
 10
3438.771641471482
 20
7594.024860741883
 30
0.0
 11
3453.9536486704
 21
7592.69660722241
 31
0.0
  0
LINE
  8
0
 62
     0
 10
3620.9557278585
 20
7578.085818508192
 30
0.0
 11
3628.62839475872
 21
7577.414547135412
 31
0.0
  0
LINE
  8
0
 62
     0
 10
2016.541776351002
 20
7530.480555729236
 30
0.0
 11
2031.72378354992
 21
7529.152302209763
 31
0.0
  0
LINE
  8
0
 62
     0
 10
2380.909949125038
 20
7498.602471261852
 30
0.0
 11
2396.091956323957
 21
7497.274217742377
 31
0.0
  0
LINE
  8
0
 62
     0
 10
3109.646294673112
 20
7434.846302327085
 30
0.0
 11
3124.82830187203
 21
7433.518048807611
 31
0.0
  0
LINE
  8
0
 62
     0
 10
3291.830381060131
 20
7418.907260093395
 30
0.0
 11
3307.012388259049
 21
7417.57900657392
 31
0.0
  0
LINE
  8
0
 62
     0
 10
3174.161990115763
 20
6113.388844385518
 30
0.0
 11
3189.343997314681
 21
6112.060590866044
 31
0.0
  0
LINE
  8
0
 62
     0
 10
3538.530162889801
 20
6081.510759918134
 30
0.0
 11
3553.712170088719
 21
6080.18250639866
 31
0.0
  0
LINE
  8
0
 62
     0
 10
3028.628394758721
 20
5938.148089002736
 30
0.0
 11
3042.40273690333
 21
5936.942990217556
 31
0.0
  0
LINE
  8
0
 62
     0
 10
3209.40481609143
 20
5922.332201503338
 30
0.0
 11
3224.586823290348
 21
5921.003947983864
 31
0.0
  0
LINE
  8
0
 62
     0
 10
3042.446171195346
 20
5936.925290833195
 30
0.0
 11
3039.509393135998
 21
5952.846705174582
 31
0.0
  0
LINE
  8
0
 62
     0
 10
2337.619436951912
 20
9758.064732766154
 30
0.0
 11
2334.682658892564
 21
9773.986147107541
 31
0.0
  0
LINE
  8
0
 62
     0
 10
2513.826120512771
 20
8802.779872282915
 30
0.0
 11
2513.021976951791
 21
8807.139446811728
 31
0.0
  0
LINE
  8
0
 62
     0
 10
3224.630009573477
 20
5920.985006556838
 30
0.0
 11
3221.693231514129
 21
5936.906420898226
 31
0.0
  0
LINE
  8
0
 62
     0
 10
3189.388672861305
 20
6112.041978653486
 30
0.0
 11
3186.451894801957
 21
6127.963392994873
 31
0.0
  0
LINE
  8
0
 62
     0
 10
2519.803275330043
 20
9742.124448489798
 30
0.0
 11
2516.866497270696
 21
9758.045862831185
 31
0.0
  0
LINE
  8
0
 62
     0
 10
3406.427466383249
 20
5907.139446811719
 30
0.0
 11
3403.87706989226
 21
5920.96613662187
 31
0.0
  0
LINE
  8
0
 62
     0
 10
3124.883154254235
 20
7433.500499053667
 30
0.0
 11
3121.946376194887
 21
7449.421913395054
 31
0.0
  0
LINE
  8
0
 62
     0
 10
3369.536547066947
 20
6107.139446811722
 30
0.0
 11
3368.635733180088
 21
6112.023108718518
 31
0.0
  0
LINE
  8
0
 62
     0
 10
3553.756349617567
 20
6080.161410100775
 30
0.0
 11
3550.819571558219
 21
6096.082824442162
 31
0.0
  0
LINE
  8
0
 62
     0
 10
3307.066992632365
 20
7417.560214777311
 30
0.0
 11
3304.130214573017
 21
7433.481629118698
 31
0.0
  0
LINE
  8
0
 62
     0
 10
3488.232730856068
 20
7407.139446811719
 30
0.0
 11
3486.314052951148
 21
7417.541344842342
 31
0.0
  0
LINE
  8
0
 62
     0
 10
3454.009494298324
 20
7592.676902597602
 30
0.0
 11
3451.072716238976
 21
7608.59831693899
 31
0.0
  0
LINE
  8
0
 62
     0
 10
2155.43559857378
 20
9774.005017042512
 30
0.0
 11
2152.498820514432
 21
9789.926431383898
 31
0.0
  0
LINE
  8
0
 62
     0
 10
2396.14780074171
 20
7497.261636159092
 30
0.0
 11
2393.211022682363
 21
7513.183050500479
 31
0.0
  0
LINE
  8
0
 62
     0
 10
2006.971140341503
 20
9607.139446811721
 30
0.0
 11
2005.556318848474
 21
9614.809743563606
 31
0.0
  0
LINE
  8
0
 62
     0
 10
1973.25176019565
 20
9789.945301318867
 30
0.0
 11
1970.314982136302
 21
9805.866715660254
 31
0.0
  0
LINE
  8
0
 62
     0
 10
2002.515942090549
 20
8659.543753015334
 30
0.0
 11
1999.579164031201
 21
8675.465167356721
 31
0.0
  0
LINE
  8
0
 62
     0
 10
2178.722625651408
 20
7704.258892532095
 30
0.0
 11
2178.191294173829
 21
7707.139446811718
 31
0.0
  0
LINE
  8
0
 62
     0
 10
2031.780123985448
 20
7529.142204711804
 30
0.0
 11
2028.8433459261
 21
7545.063619053192
 31
0.0
  0
LINE
  8
0
 62
     0
 10
3123.288222483376
 20
7525.281751350901
 30
0.0
 11
3143.071900322903
 21
7545.900595065857
 31
0.0
  0
LINE
  8
0
 62
     0
 10
3394.367263375507
 20
7483.239423418174
 30
0.0
 11
3414.150941215034
 21
7503.85826713313
 31
0.0
  0
LINE
  8
0
 62
     0
 10
3028.628394758721
 20
6128.36610108068
 30
0.0
 11
3040.367393519804
 21
6140.600660437548
 31
0.0
  0
LINE
  8
0
 62
     0
 10
3562.741797464538
 20
6035.897160857137
 30
0.0
 11
3582.525475304065
 21
6056.516004572094
 31
0.0
  0
LINE
  8
0
 62
     0
 10
2075.67593438239
 20
7407.139446811721
 30
0.0
 11
2092.430643572189
 21
7424.60145428456
 31
0.0
  0
LINE
  8
0
 62
     0
 10
2038.972058914857
 20
7693.451063081809
 30
0.0
 11
2052.105994920198
 21
7707.13944681172
 31
0.0
  0
LINE
  8
0
 62
     0
 10
2446.430513427893
 20
8767.240217265181
 30
0.0
 11
2466.21419126742
 21
8787.859060980137
 31
0.0
  0
LINE
  8
0
 62
     0
 10
1937.947338461439
 20
8561.856420618429
 30
0.0
 11
1957.731016300966
 21
8582.475264333385
 31
0.0
  0
LINE
  8
0
 62
     0
 10
2345.405792974474
 20
9635.645574801808
 30
0.0
 11
2365.189470814001
 21
9656.264418516762
 31
0.0
  0
LINE
  8
0
 62
     0
 10
2074.326752082345
 20
9677.687902734533
 30
0.0
 11
2094.110429921872
 21
9698.306746449489
 31
0.0
  0
LINE
  8
0
 62
     0
 10
2469.022835749351
 20
8763.717378625058
 30
0.0
 11
2466.21659841465
 21
8787.839697274419
 31
0.0
  0
LINE
  8
0
 62
     0
 10
2367.998291700129
 20
9632.120850002072
 30
0.0
 11
2365.192054365429
 21
9656.243168651432
 31
0.0
  0
LINE
  8
0
 62
     0
 10
3043.175550379658
 20
6116.46469659173
 30
0.0
 11
3040.369313044958
 21
6140.587015241091
 31
0.0
  0
LINE
  8
0
 62
     0
 10
3145.880392780267
 20
7521.761547651131
 30
0.0
 11
3143.074155445566
 21
7545.883866300493
 31
0.0
  0
LINE
  8
0
 62
     0
 10
3585.333715344946
 20
6032.380160787153
 30
0.0
 11
3582.527478010245
 21
6056.502479436514
 31
0.0
  0
LINE
  8
0
 62
     0
 10
3416.95947526291
 20
7479.719279748842
 30
0.0
 11
3414.15323792821
 21
7503.841598398203
 31
0.0
  0
LINE
  8
0
 62
     0
 10
2096.919209217485
 20
9674.16311790436
 30
0.0
 11
2094.112971882785
 21
9698.285436553721
 31
0.0
  0
LINE
  8
0
 62
     0
 10
2197.943753266707
 20
8805.759646527347
 30
0.0
 11
2197.783236065656
 21
8807.139446811724
 31
0.0
  0
LINE
  8
0
 62
     0
 10
2094.462191656637
 20
7407.139446811721
 30
0.0
 11
2092.432673531396
 21
7424.585114117308
 31
0.0
  0
LINE
  8
0
 62
     0
 10
2061.56406284969
 20
7689.930619260285
 30
0.0
 11
2059.562097157121
 21
7707.13944681172
 31
0.0
  0
LINE
  8
0
 62
     0
 10
1960.539518800469
 20
8558.334090637298
 30
0.0
 11
1957.733281465768
 21
8582.456409286658
 31
0.0
  0
LINE
  8
0
 62
     0
 10
1937.961188024127
 20
8561.834169824612
 30
0.0
 11
1960.551111324993
 21
8558.330605174004
 31
0.0
  0
LINE
  8
0
 62
     0
 10
2189.033885486872
 20
8807.139446811724
 30
0.0
 11
2197.955717138927
 21
8805.7557230346
 31
0.0
  0
LINE
  8
0
 62
     0
 10
2446.444873448452
 20
8767.216511877904
 30
0.0
 11
2469.034796749318
 21
8763.712947227295
 31
0.0
  0
LINE
  8
0
 62
     0
 10
2074.342372448689
 20
9677.662968688913
 30
0.0
 11
2096.932295749555
 21
9674.159404038306
 31
0.0
  0
LINE
  8
0
 62
     0
 10
2345.42145205908
 20
9635.62019288161
 30
0.0
 11
2368.011375359946
 21
9632.116628231001
 31
0.0
  0
LINE
  8
0
 62
     0
 10
2038.984609413499
 20
7693.430488820908
 30
0.0
 11
2061.574532714365
 21
7689.926924170299
 31
0.0
  0
LINE
  8
0
 62
     0
 10
3394.380007465454
 20
7483.216609784386
 30
0.0
 11
3416.969930766319
 21
7479.713045133778
 31
0.0
  0
LINE
  8
0
 62
     0
 10
3123.300927855063
 20
7525.259385591691
 30
0.0
 11
3145.890851155929
 21
7521.755820941083
 31
0.0
  0
LINE
  8
0
 62
     0
 10
3028.628394758721
 20
6118.716639231764
 30
0.0
 11
3043.184140527825
 21
6116.459128408878
 31
0.0
  0
LINE
  8
0
 62
     0
 10
3562.752376447741
 20
6035.877141444879
 30
0.0
 11
3585.342299748607
 21
6032.37357679427
 31
0.0
  0
LINE
  8
0
 62
     0
 10
1980.817981307055
 20
7528.245395080195
 30
0.0
 11
1998.602688431827
 21
7535.072304519033
 31
0.0
  0
LINE
  8
0
 62
     0
 10
2194.234466804314
 20
7610.168308346251
 30
0.0
 11
2207.62839475872
 21
7615.309755575803
 31
0.0
  0
LINE
  8
0
 62
     0
 10
2132.432861142438
 20
7425.979876563431
 30
0.0
 11
2150.217568267209
 21
7432.806786002269
 31
0.0
  0
LINE
  8
0
 62
     0
 10
2501.377527440765
 20
7407.139446811719
 30
0.0
 11
2515.248933599854
 21
7412.464180751563
 31
0.0
  0
LINE
  8
0
 62
     0
 10
3075.912077304985
 20
7467.217579328074
 30
0.0
 11
3093.696784429757
 21
7474.044488766912
 31
0.0
  0
LINE
  8
0
 62
     0
 10
3502.745048299506
 20
7631.063405860186
 30
0.0
 11
3520.529755424278
 21
7637.890315299024
 31
0.0
  0
LINE
  8
0
 62
     0
 10
3440.943442637629
 20
7446.874974077368
 30
0.0
 11
3458.728149762401
 21
7453.701883516207
 31
0.0
  0
LINE
  8
0
 62
     0
 10
3159.947082839873
 20
6055.290433080878
 30
0.0
 11
3177.731789964645
 21
6062.117342519717
 31
0.0
  0
LINE
  8
0
 62
     0
 10
3373.363568337133
 20
6137.213346346935
 30
0.0
 11
3391.148275461905
 21
6144.040255785772
 31
0.0
  0
LINE
  8
0
 62
     0
 10
3311.561962675256
 20
5953.024914564115
 30
0.0
 11
3329.346669800028
 21
5959.851824002953
 31
0.0
  0
LINE
  8
0
 62
     0
 10
3524.978448172517
 20
6034.94782783017
 30
0.0
 11
3542.763155297289
 21
6041.774737269008
 31
0.0
  0
LINE
  8
0
 62
     0
 10
2138.211129781056
 20
8551.453072511048
 30
0.0
 11
2155.995836905828
 21
8558.279981949885
 31
0.0
  0
LINE
  8
0
 62
     0
 10
1986.596249945673
 20
8653.718591027809
 30
0.0
 11
2004.380957070445
 21
8660.545500466648
 31
0.0
  0
LINE
  8
0
 62
     0
 10
2200.012735442934
 20
8735.641504293864
 30
0.0
 11
2207.628394758722
 21
8738.564882008279
 31
0.0
  0
LINE
  8
0
 62
     0
 10
2509.020763752319
 20
9656.583663207955
 30
0.0
 11
2526.80547087709
 21
9663.410572646794
 31
0.0
  0
LINE
  8
0
 62
     0
 10
2143.989398419675
 20
9676.926268458664
 30
0.0
 11
2161.774105544446
 21
9683.7531778975
 31
0.0
  0
LINE
  8
0
 62
     0
 10
2357.405883916936
 20
9758.849181724718
 30
0.0
 11
2375.190591041707
 21
9765.676091163555
 31
0.0
  0
LINE
  8
0
 62
     0
 10
1992.374518584292
 20
9779.191786975427
 30
0.0
 11
2010.159225709064
 21
9786.018696414267
 31
0.0
  0
LINE
  8
0
 62
     0
 10
2205.791004081552
 20
9861.114700241483
 30
0.0
 11
2223.575711206324
 21
9867.94160968032
 31
0.0
  0
LINE
  8
0
 62
     0
 10
3440.959175293152
 20
7446.85655232608
 30
0.0
 11
3453.593707898891
 21
7438.334452477185
 31
0.0
  0
LINE
  8
0
 62
     0
 10
1986.617290952139
 20
8653.696500315701
 30
0.0
 11
1999.251823557878
 21
8645.174400466805
 31
0.0
  0
LINE
  8
0
 62
     0
 10
2138.231682221005
 20
8551.431302128969
 30
0.0
 11
2150.866214826744
 21
8542.909202280075
 31
0.0
  0
LINE
  8
0
 62
     0
 10
3502.7612036408
 20
7631.0445184484
 30
0.0
 11
3515.395736246539
 21
7622.522418599506
 31
0.0
  0
LINE
  8
0
 62
     0
 10
2200.033710568652
 20
8735.619268251289
 30
0.0
 11
2207.628394758721
 21
8730.49658908236
 31
0.0
  0
LINE
  8
0
 62
     0
 10
1992.398650152641
 20
9779.166727300754
 30
0.0
 11
2005.03318275838
 21
9770.644627451861
 31
0.0
  0
LINE
  8
0
 62
     0
 10
2144.013041421507
 20
9676.901529114026
 30
0.0
 11
2156.647574027246
 21
9668.379429265129
 31
0.0
  0
LINE
  8
0
 62
     0
 10
2205.815069769153
 20
9861.089495236344
 30
0.0
 11
2218.449602374892
 21
9852.567395387449
 31
0.0
  0
LINE
  8
0
 62
     0
 10
2357.42946103802
 20
9758.824297049613
 30
0.0
 11
2370.063993643759
 21
9750.302197200717
 31
0.0
  0
LINE
  8
0
 62
     0
 10
2509.043852306886
 20
9656.559098862881
 30
0.0
 11
2521.678384912625
 21
9648.036999013987
 31
0.0
  0
LINE
  8
0
 62
     0
 10
3075.928364407773
 20
7467.19898257722
 30
0.0
 11
3088.562897013511
 21
7458.676882728326
 31
0.0
  0
LINE
  8
0
 62
     0
 10
2050.458161786187
 20
7707.13944681172
 30
0.0
 11
2055.272492705022
 21
7703.892139604067
 31
0.0
  0
LINE
  8
0
 62
     0
 10
2194.252351368149
 20
7610.149041266231
 30
0.0
 11
2198.714258637457
 21
7607.139446811722
 31
0.0
  0
LINE
  8
0
 62
     0
 10
2346.97035548873
 20
7507.139446811723
 30
0.0
 11
2358.501275242753
 21
7499.361743230608
 31
0.0
  0
LINE
  8
0
 62
     0
 10
1980.835931751635
 20
7528.226273330642
 30
0.0
 11
1993.470464357374
 21
7519.704173481748
 31
0.0
  0
LINE
  8
0
 62
     0
 10
2132.450323020501
 20
7425.961075143912
 30
0.0
 11
2145.08485562624
 21
7417.438975295018
 31
0.0
  0
LINE
  8
0
 62
     0
 10
3373.375787745002
 20
6137.198359218704
 30
0.0
 11
3386.010320350741
 21
6128.676259369809
 31
0.0
  0
LINE
  8
0
 62
     0
 10
3524.990179013868
 20
6034.933161031973
 30
0.0
 11
3537.624711619607
 21
6026.41106118308
 31
0.0
  0
LINE
  8
0
 62
     0
 10
3159.959368128488
 20
6055.275591283113
 30
0.0
 11
3172.593900734228
 21
6046.75349143422
 31
0.0
  0
LINE
  8
0
 62
     0
 10
3311.573759397355
 20
5953.010393096383
 30
0.0
 11
3324.208292003094
 21
5944.488293247489
 31
0.0
  0
LINE
  8
0
 62
     0
 10
2513.492502849482
 20
7407.139446811719
 30
0.0
 11
2515.27286852371
 21
7412.445437590933
 31
0.0
  0
LINE
  8
0
 62
     0
 10
3088.569952495604
 20
7458.677050263676
 30
0.0
 11
3093.720136213949
 21
7474.026047223324
 31
0.0
  0
LINE
  8
0
 62
     0
 10
3453.60072941572
 20
7438.334802180008
 30
0.0
 11
3458.750913134064
 21
7453.683799139658
 31
0.0
  0
LINE
  8
0
 62
     0
 10
3515.402934035853
 20
7622.522765695791
 30
0.0
 11
3520.553117754198
 21
7637.871762655438
 31
0.0
  0
LINE
  8
0
 62
     0
 10
3172.599583224771
 20
6046.753951769809
 30
0.0
 11
3177.749766943116
 21
6062.102948729457
 31
0.0
  0
LINE
  8
0
 62
     0
 10
3324.213869374761
 20
5944.488845970084
 30
0.0
 11
3329.364053093106
 21
5959.837842929733
 31
0.0
  0
LINE
  8
0
 62
     0
 10
3386.016073994895
 20
6128.676809485868
 30
0.0
 11
3391.16625771324
 21
6144.025806445516
 31
0.0
  0
LINE
  8
0
 62
     0
 10
3537.630360144885
 20
6026.411703686141
 30
0.0
 11
3542.78054386323
 21
6041.76070064579
 31
0.0
  0
LINE
  8
0
 62
     0
 10
2358.508398655375
 20
7499.361546431009
 30
0.0
 11
2361.11818586225
 21
7507.139446811723
 31
0.0
  0
LINE
  8
0
 62
     0
 10
2145.091907885251
 20
7417.438688714952
 30
0.0
 11
2150.242091603596
 21
7432.787685674601
 31
0.0
  0
LINE
  8
0
 62
     0
 10
1993.47762173526
 20
7519.703794514676
 30
0.0
 11
1998.627805453605
 21
7535.052791474325
 31
0.0
  0
LINE
  8
0
 62
     0
 10
2055.279826355395
 20
7703.891758030459
 30
0.0
 11
2056.369551887784
 21
7707.13944681172
 31
0.0
  0
LINE
  8
0
 62
     0
 10
2150.874358685941
 20
8542.908717893311
 30
0.0
 11
2156.024542404285
 21
8558.25771485296
 31
0.0
  0
LINE
  8
0
 62
     0
 10
2521.687586406745
 20
9648.036498988002
 30
0.0
 11
2526.83777012509
 21
9663.38549594765
 31
0.0
  0
LINE
  8
0
 62
     0
 10
1999.26007253595
 20
8645.173823693033
 30
0.0
 11
2004.410256254295
 21
8660.522820652683
 31
0.0
  0
LINE
  8
0
 62
     0
 10
2370.073300256755
 20
9750.301604787729
 30
0.0
 11
2375.2234839751
 21
9765.650601747378
 31
0.0
  0
LINE
  8
0
 62
     0
 10
2156.65680948663
 20
9668.37874707167
 30
0.0
 11
2161.806993204975
 21
9683.727744031317
 31
0.0
  0
LINE
  8
0
 62
     0
 10
2218.459014106765
 20
9852.566710587451
 30
0.0
 11
2223.609197825109
 21
9867.9157075471
 31
0.0
  0
LINE
  8
0
 62
     0
 10
2005.042523336641
 20
9770.643852871396
 30
0.0
 11
2010.192707054985
 21
9785.992849831044
 31
0.0
  0
LINE
  8
0
 62
     0
 10
2215.702551377532
 20
7453.123282072833
 30
0.0
 11
2215.702551377532
 21
7453.123282072833
 31
0.0
  0
LINE
  8
0
 62
     0
 10
2085.289621290616
 20
7435.238991479543
 30
0.0
 11
2085.289621290616
 21
7435.238991479543
 31
0.0
  0
LINE
  8
0
 62
     0
 10
1953.365353090445
 20
7416.195010363993
 30
0.0
 11
1953.365353090445
 21
7416.195010363993
 31
0.0
  0
LINE
  8
0
 62
     0
 10
2088.378224541207
 20
7519.794030352697
 30
0.0
 11
2088.378224541207
 21
7519.794030352697
 31
0.0
  0
LINE
  8
0
 62
     0
 10
1956.453956341037
 20
7500.750049237147
 30
0.0
 11
1956.453956341037
 21
7500.750049237147
 31
0.0
  0
LINE
  8
0
 62
     0
 10
2091.4668277918
 20
7604.349069225849
 30
0.0
 11
2091.4668277918
 21
7604.349069225849
 31
0.0
  0
LINE
  8
0
 62
     0
 10
1959.542559591628
 20
7585.3050881103
 30
0.0
 11
1959.542559591628
 21
7585.3050881103
 31
0.0
  0
LINE
  8
0
 62
     0
 10
2094.55543104239
 20
7688.904108099003
 30
0.0
 11
2094.55543104239
 21
7688.904108099003
 31
0.0
  0
LINE
  8
0
 62
     0
 10
1962.631162842221
 20
7669.860126983452
 30
0.0
 11
1962.631162842221
 21
7669.860126983452
 31
0.0
  0
LINE
  8
0
 62
     0
 10
2516.075718563755
 20
8587.643492401497
 30
0.0
 11
2516.075718563755
 21
8587.643492401497
 31
0.0
  0
LINE
  8
0
 62
     0
 10
2519.164321814346
 20
8672.19853127465
 30
0.0
 11
2519.164321814346
 21
8672.19853127465
 31
0.0
  0
LINE
  8
0
 62
     0
 10
2522.252925064937
 20
8756.753570147806
 30
0.0
 11
2522.252925064937
 21
8756.753570147806
 31
0.0
  0
LINE
  8
0
 62
     0
 10
2255.854393635225
 20
8552.338787423824
 30
0.0
 11
2255.854393635225
 21
8552.338787423824
 31
0.0
  0
LINE
  8
0
 62
     0
 10
2125.441463548309
 20
8534.454496830534
 30
0.0
 11
2125.441463548309
 21
8534.454496830534
 31
0.0
  0
LINE
  8
0
 62
     0
 10
2390.328656864767
 20
8737.709589032252
 30
0.0
 11
2390.328656864767
 21
8737.709589032252
 31
0.0
  0
LINE
  8
0
 62
     0
 10
1993.517195348138
 20
8515.410515714982
 30
0.0
 11
1993.517195348138
 21
8515.410515714982
 31
0.0
  0
LINE
  8
0
 62
     0
 10
2128.530066798901
 20
8619.009535703687
 30
0.0
 11
2128.530066798901
 21
8619.009535703687
 31
0.0
  0
LINE
  8
0
 62
     0
 10
2262.031600136408
 20
8721.448865170129
 30
0.0
 11
2262.031600136408
 21
8721.448865170129
 31
0.0
  0
LINE
  8
0
 62
     0
 10
1996.60579859873
 20
8599.965554588136
 30
0.0
 11
1996.60579859873
 21
8599.965554588136
 31
0.0
  0
LINE
  8
0
 62
     0
 10
2131.618670049492
 20
8703.564574576841
 30
0.0
 11
2131.618670049492
 21
8703.564574576841
 31
0.0
  0
LINE
  8
0
 62
     0
 10
2265.120203387
 20
8806.003904043285
 30
0.0
 11
2265.120203387
 21
8806.003904043285
 31
0.0
  0
LINE
  8
0
 62
     0
 10
1999.694401849323
 20
8684.520593461289
 30
0.0
 11
1999.694401849323
 21
8684.520593461289
 31
0.0
  0
LINE
  8
0
 62
     0
 10
2134.707273300085
 20
8788.119613449993
 30
0.0
 11
2134.707273300085
 21
8788.119613449993
 31
0.0
  0
LINE
  8
0
 62
     0
 10
2002.783005099914
 20
8769.075632334443
 30
0.0
 11
2002.783005099914
 21
8769.075632334443
 31
0.0
  0
LINE
  8
0
 62
     0
 10
2424.303292621277
 20
9667.815016636938
 30
0.0
 11
2424.303292621277
 21
9667.815016636938
 31
0.0
  0
LINE
  8
0
 62
     0
 10
2296.006235892917
 20
9651.554292774815
 30
0.0
 11
2296.006235892917
 21
9651.554292774815
 31
0.0
  0
LINE
  8
0
 62
     0
 10
2427.391895871869
 20
9752.370055510091
 30
0.0
 11
2427.391895871869
 21
9752.370055510091
 31
0.0
  0
LINE
  8
0
 62
     0
 10
2165.593305806003
 20
9633.670002181524
 30
0.0
 11
2165.593305806003
 21
9633.670002181524
 31
0.0
  0
LINE
  8
0
 62
     0
 10
2299.094839143509
 20
9736.109331647968
 30
0.0
 11
2299.094839143509
 21
9736.109331647968
 31
0.0
  0
LINE
  8
0
 62
     0
 10
2430.480499122461
 20
9836.925094383243
 30
0.0
 11
2430.480499122461
 21
9836.925094383243
 31
0.0
  0
LINE
  8
0
 62
     0
 10
2033.669037605832
 20
9614.626021065973
 30
0.0
 11
2033.669037605832
 21
9614.626021065973
 31
0.0
  0
LINE
  8
0
 62
     0
 10
2168.681909056595
 20
9718.225041054678
 30
0.0
 11
2168.681909056595
 21
9718.225041054678
 31
0.0
  0
LINE
  8
0
 62
     0
 10
2302.183442394102
 20
9820.664370521122
 30
0.0
 11
2302.183442394102
 21
9820.664370521122
 31
0.0
  0
LINE
  8
0
 62
     0
 10
2036.757640856424
 20
9699.181059939128
 30
0.0
 11
2036.757640856424
 21
9699.181059939128
 31
0.0
  0
LINE
  8
0
 62
     0
 10
2171.770512307187
 20
9802.780079927831
 30
0.0
 11
2171.770512307187
 21
9802.780079927831
 31
0.0
  0
LINE
  8
0
 62
     0
 10
2305.272045644694
 20
9905.219409394273
 30
0.0
 11
2305.272045644694
 21
9905.219409394273
 31
0.0
  0
LINE
  8
0
 62
     0
 10
2039.846244107015
 20
9783.73609881228
 30
0.0
 11
2039.846244107015
 21
9783.73609881228
 31
0.0
  0
LINE
  8
0
 62
     0
 10
2174.859115557777
 20
9887.335118800983
 30
0.0
 11
2174.859115557777
 21
9887.335118800983
 31
0.0
  0
LINE
  8
0
 62
     0
 10
2042.934847357606
 20
9868.291137685433
 30
0.0
 11
2042.934847357606
 21
9868.291137685433
 31
0.0
  0
LINE
  8
0
 62
     0
 10
2343.999608105891
 20
7469.384005934956
 30
0.0
 11
2343.999608105891
 21
7469.384005934956
 31
0.0
  0
LINE
  8
0
 62
     0
 10
2479.012479556653
 20
7572.98302592366
 30
0.0
 11
2479.012479556653
 21
7572.98302592366
 31
0.0
  0
LINE
  8
0
 62
     0
 10
2475.92387630606
 20
7488.427987050507
 30
0.0
 11
2475.92387630606
 21
7488.427987050507
 31
0.0
  0
LINE
  8
0
 62
     0
 10
3125.26811813678
 20
7575.761997076884
 30
0.0
 11
3125.26811813678
 21
7575.761997076884
 31
0.0
  0
LINE
  8
0
 62
     0
 10
3122.179514886189
 20
7491.20695820373
 30
0.0
 11
3122.179514886189
 21
7491.20695820373
 31
0.0
  0
LINE
  8
0
 62
     0
 10
3257.192386336952
 20
7594.805978192433
 30
0.0
 11
3257.192386336952
 21
7594.805978192433
 31
0.0
  0
LINE
  8
0
 62
     0
 10
3390.69391967446
 20
7697.245307658875
 30
0.0
 11
3390.69391967446
 21
7697.245307658875
 31
0.0
  0
LINE
  8
0
 62
     0
 10
3254.10378308636
 20
7510.25093931928
 30
0.0
 11
3254.10378308636
 21
7510.25093931928
 31
0.0
  0
LINE
  8
0
 62
     0
 10
3387.605316423868
 20
7612.690268785724
 30
0.0
 11
3387.605316423868
 21
7612.690268785724
 31
0.0
  0
LINE
  8
0
 62
     0
 10
3251.015179835768
 20
7425.695900446127
 30
0.0
 11
3251.015179835768
 21
7425.695900446127
 31
0.0
  0
LINE
  8
0
 62
     0
 10
3384.516713173276
 20
7528.135229912571
 30
0.0
 11
3384.516713173276
 21
7528.135229912571
 31
0.0
  0
LINE
  8
0
 62
     0
 10
3515.902373152227
 20
7628.950992647847
 30
0.0
 11
3515.902373152227
 21
7628.950992647847
 31
0.0
  0
LINE
  8
0
 62
     0
 10
3381.428109922684
 20
7443.580191039417
 30
0.0
 11
3381.428109922684
 21
7443.580191039417
 31
0.0
  0
LINE
  8
0
 62
     0
 10
3512.813769901635
 20
7544.395953774693
 30
0.0
 11
3512.813769901635
 21
7544.395953774693
 31
0.0
  0
LINE
  8
0
 62
     0
 10
3509.725166651043
 20
7459.84091490154
 30
0.0
 11
3509.725166651043
 21
7459.84091490154
 31
0.0
  0
LINE
  8
0
 62
     0
 10
3072.76186287672
 20
6138.32633623328
 30
0.0
 11
3072.76186287672
 21
6138.32633623328
 31
0.0
  0
LINE
  8
0
 62
     0
 10
3069.673259626128
 20
6053.771297360126
 30
0.0
 11
3069.673259626128
 21
6053.771297360126
 31
0.0
  0
LINE
  8
0
 62
     0
 10
3204.686131076891
 20
6157.370317348831
 30
0.0
 11
3204.686131076891
 21
6157.370317348831
 31
0.0
  0
LINE
  8
0
 62
     0
 10
3066.584656375537
 20
5969.216258486974
 30
0.0
 11
3066.584656375537
 21
5969.216258486974
 31
0.0
  0
LINE
  8
0
 62
     0
 10
3201.5975278263
 20
6072.815278475677
 30
0.0
 11
3201.5975278263
 21
6072.815278475677
 31
0.0
  0
LINE
  8
0
 62
     0
 10
3198.508924575707
 20
5988.260239602525
 30
0.0
 11
3198.508924575707
 21
5988.260239602525
 31
0.0
  0
LINE
  8
0
 62
     0
 10
3463.396117892166
 20
6191.515331804244
 30
0.0
 11
3463.396117892166
 21
6191.515331804244
 31
0.0
  0
LINE
  8
0
 62
     0
 10
3460.307514641575
 20
6106.96029293109
 30
0.0
 11
3460.307514641575
 21
6106.96029293109
 31
0.0
  0
LINE
  8
0
 62
     0
 10
3325.833251412031
 20
5921.589491322661
 30
0.0
 11
3325.833251412031
 21
5921.589491322661
 31
0.0
  0
LINE
  8
0
 62
     0
 10
3457.218911390981
 20
6022.405254057938
 30
0.0
 11
3457.218911390981
 21
6022.405254057938
 31
0.0
  0
LINE
  8
0
 62
     0
 10
3592.231782841744
 20
6126.004274046642
 30
0.0
 11
3592.231782841744
 21
6126.004274046642
 31
0.0
  0
LINE
  8
0
 62
     0
 10
3454.130308140391
 20
5937.850215184784
 30
0.0
 11
3454.130308140391
 21
5937.850215184784
 31
0.0
  0
LINE
  8
0
 62
     0
 10
3589.143179591153
 20
6041.449235173488
 30
0.0
 11
3589.143179591153
 21
6041.449235173488
 31
0.0
  0
LINE
  8
0
 62
     0
 10
3586.054576340561
 20
5956.894196300336
 30
0.0
 11
3586.054576340561
 21
5956.894196300336
 31
0.0
  0
LINE
  8
0
 62
     0
 10
2171.393339437751
 20
8510.393298843792
 30
0.0
 11
2171.393339437751
 21
8510.393298843792
 31
0.0
  0
LINE
  8
0
 62
     0
 10
2267.591251447129
 20
8523.057994222522
 30
0.0
 11
2267.591251447129
 21
8523.057994222522
 31
0.0
  0
LINE
  8
0
 62
     0
 10
2014.212890083289
 20
8581.08369947506
 30
0.0
 11
2014.212890083289
 21
8581.08369947506
 31
0.0
  0
LINE
  8
0
 62
     0
 10
2174.626685763849
 20
8602.202576323881
 30
0.0
 11
2174.626685763849
 21
8602.202576323881
 31
0.0
  0
LINE
  8
0
 62
     0
 10
2494.824709637996
 20
8644.357445889459
 30
0.0
 11
2494.824709637996
 21
8644.357445889459
 31
0.0
  0
LINE
  8
0
 62
     0
 10
1984.834640584216
 20
8668.599578914452
 30
0.0
 11
1984.834640584216
 21
8668.599578914452
 31
0.0
  0
LINE
  8
0
 62
     0
 10
2081.032552593594
 20
8681.26427429318
 30
0.0
 11
2081.032552593594
 21
8681.26427429318
 31
0.0
  0
LINE
  8
0
 62
     0
 10
2305.032664458364
 20
8710.754448480031
 30
0.0
 11
2305.032664458364
 21
8710.754448480031
 31
0.0
  0
LINE
  8
0
 62
     0
 10
2401.230576467741
 20
8723.419143858759
 30
0.0
 11
2401.230576467741
 21
8723.419143858759
 31
0.0
  0
LINE
  8
0
 62
     0
 10
1988.067986910312
 20
8760.408856394539
 30
0.0
 11
1988.067986910312
 21
8760.408856394539
 31
0.0
  0
LINE
  8
0
 62
     0
 10
2051.654303094522
 20
8768.780153732572
 30
0.0
 11
2051.654303094522
 21
8768.780153732572
 31
0.0
  0
LINE
  8
0
 62
     0
 10
2147.852215103899
 20
8781.4448491113
 30
0.0
 11
2147.852215103899
 21
8781.4448491113
 31
0.0
  0
LINE
  8
0
 62
     0
 10
2308.26601078446
 20
8802.563725960119
 30
0.0
 11
2308.26601078446
 21
8802.563725960119
 31
0.0
  0
LINE
  8
0
 62
     0
 10
2269.246925628918
 20
9619.879160192034
 30
0.0
 11
2269.246925628918
 21
9619.879160192034
 31
0.0
  0
LINE
  8
0
 62
     0
 10
2332.833241813127
 20
9628.250457530066
 30
0.0
 11
2332.833241813127
 21
9628.250457530066
 31
0.0
  0
LINE
  8
0
 62
     0
 10
2429.031153822505
 20
9640.915152908794
 30
0.0
 11
2429.031153822505
 21
9640.915152908794
 31
0.0
  0
LINE
  8
0
 62
     0
 10
2015.868564265077
 20
9677.904865444574
 30
0.0
 11
2015.868564265077
 21
9677.904865444574
 31
0.0
  0
LINE
  8
0
 62
     0
 10
2079.454880449286
 20
9686.276162782606
 30
0.0
 11
2079.454880449286
 21
9686.276162782606
 31
0.0
  0
LINE
  8
0
 62
     0
 10
2175.652792458664
 20
9698.940858161334
 30
0.0
 11
2175.652792458664
 21
9698.940858161334
 31
0.0
  0
LINE
  8
0
 62
     0
 10
2336.066588139224
 20
9720.059735010154
 30
0.0
 11
2336.066588139224
 21
9720.059735010154
 31
0.0
  0
LINE
  8
0
 62
     0
 10
2399.652904323434
 20
9728.431032348188
 30
0.0
 11
2399.652904323434
 21
9728.431032348188
 31
0.0
  0
LINE
  8
0
 62
     0
 10
2495.850816332811
 20
9741.095727726916
 30
0.0
 11
2495.850816332811
 21
9741.095727726916
 31
0.0
  0
LINE
  8
0
 62
     0
 10
2082.688226775383
 20
9778.085440262694
 30
0.0
 11
2082.688226775383
 21
9778.085440262694
 31
0.0
  0
LINE
  8
0
 62
     0
 10
2146.274542959591
 20
9786.456737600728
 30
0.0
 11
2146.274542959591
 21
9786.456737600728
 31
0.0
  0
LINE
  8
0
 62
     0
 10
2402.88625064953
 20
9820.240309828273
 30
0.0
 11
2402.88625064953
 21
9820.240309828273
 31
0.0
  0
LINE
  8
0
 62
     0
 10
2466.472566833739
 20
9828.611607166306
 30
0.0
 11
2466.472566833739
 21
9828.611607166306
 31
0.0
  0
LINE
  8
0
 62
     0
 10
1989.094093605127
 20
9857.147138231994
 30
0.0
 11
1989.094093605127
 21
9857.147138231994
 31
0.0
  0
LINE
  8
0
 62
     0
 10
2149.507889285687
 20
9878.266015080814
 30
0.0
 11
2149.507889285687
 21
9878.266015080814
 31
0.0
  0
LINE
  8
0
 62
     0
 10
2213.094205469896
 20
9886.637312418848
 30
0.0
 11
2213.094205469896
 21
9886.637312418848
 31
0.0
  0
LINE
  8
0
 62
     0
 10
2309.292117479274
 20
9899.302007797574
 30
0.0
 11
2309.292117479274
 21
9899.302007797574
 31
0.0
  0
LINE
  8
0
 62
     0
 10
1986.412312728525
 20
7663.587690425026
 30
0.0
 11
1986.412312728525
 21
7663.587690425026
 31
0.0
  0
LINE
  8
0
 62
     0
 10
2146.826108409085
 20
7684.706567273846
 30
0.0
 11
2146.826108409085
 21
7684.706567273846
 31
0.0
  0
LINE
  8
0
 62
     0
 10
2080.00644589878
 20
7584.525992455726
 30
0.0
 11
2080.00644589878
 21
7584.525992455726
 31
0.0
  0
LINE
  8
0
 62
     0
 10
2143.592762082989
 20
7592.897289793761
 30
0.0
 11
2143.592762082989
 21
7592.897289793761
 31
0.0
  0
LINE
  8
0
 62
     0
 10
2013.186783388475
 20
7484.345417637606
 30
0.0
 11
2013.186783388475
 21
7484.345417637606
 31
0.0
  0
LINE
  8
0
 62
     0
 10
2076.773099572684
 20
7492.71671497564
 30
0.0
 11
2076.773099572684
 21
7492.71671497564
 31
0.0
  0
LINE
  8
0
 62
     0
 10
2172.971011582061
 20
7505.381410354367
 30
0.0
 11
2172.971011582061
 21
7505.381410354367
 31
0.0
  0
LINE
  8
0
 62
     0
 10
3453.76310707865
 20
7674.000888616689
 30
0.0
 11
3453.76310707865
 21
7674.000888616689
 31
0.0
  0
LINE
  8
0
 62
     0
 10
3614.17690275921
 20
7695.119765465508
 30
0.0
 11
3614.17690275921
 21
7695.119765465508
 31
0.0
  0
LINE
  8
0
 62
     0
 10
2396.971123446831
 20
7534.871584541219
 30
0.0
 11
2396.971123446831
 21
7534.871584541219
 31
0.0
  0
LINE
  8
0
 62
     0
 10
2493.169035456209
 20
7547.536279919946
 30
0.0
 11
2493.169035456209
 21
7547.536279919946
 31
0.0
  0
LINE
  8
0
 62
     0
 10
2266.565144752316
 20
7426.319712385068
 30
0.0
 11
2266.565144752316
 21
7426.319712385068
 31
0.0
  0
LINE
  8
0
 62
     0
 10
2330.151460936525
 20
7434.691009723103
 30
0.0
 11
2330.151460936525
 21
7434.691009723103
 31
0.0
  0
LINE
  8
0
 62
     0
 10
2426.349372945903
 20
7447.355705101828
 30
0.0
 11
2426.349372945903
 21
7447.355705101828
 31
0.0
  0
LINE
  8
0
 62
     0
 10
3386.943444568345
 20
7573.820313798568
 30
0.0
 11
3386.943444568345
 21
7573.820313798568
 31
0.0
  0
LINE
  8
0
 62
     0
 10
3547.357240248905
 20
7594.939190647388
 30
0.0
 11
3547.357240248905
 21
7594.939190647388
 31
0.0
  0
LINE
  8
0
 62
     0
 10
3610.943556433114
 20
7603.310487985422
 30
0.0
 11
3610.943556433114
 21
7603.310487985422
 31
0.0
  0
LINE
  8
0
 62
     0
 10
3066.745420694198
 20
7531.665444232989
 30
0.0
 11
3066.745420694198
 21
7531.665444232989
 31
0.0
  0
LINE
  8
0
 62
     0
 10
3227.159216374757
 20
7552.784321081809
 30
0.0
 11
3227.159216374757
 21
7552.784321081809
 31
0.0
  0
LINE
  8
0
 62
     0
 10
3160.339553864451
 20
7452.603746263688
 30
0.0
 11
3160.339553864451
 21
7452.603746263688
 31
0.0
  0
LINE
  8
0
 62
     0
 10
3223.92587004866
 20
7460.975043601721
 30
0.0
 11
3223.92587004866
 21
7460.975043601721
 31
0.0
  0
LINE
  8
0
 62
     0
 10
3480.537577738598
 20
7494.758615829267
 30
0.0
 11
3480.537577738598
 21
7494.758615829267
 31
0.0
  0
LINE
  8
0
 62
     0
 10
3544.123893922807
 20
7503.129913167302
 30
0.0
 11
3544.123893922807
 21
7503.129913167302
 31
0.0
  0
LINE
  8
0
 62
     0
 10
3573.50214342188
 20
7415.614033727909
 30
0.0
 11
3573.50214342188
 21
7415.614033727909
 31
0.0
  0
LINE
  8
0
 62
     0
 10
3185.458350342612
 20
6176.540307506756
 30
0.0
 11
3185.458350342612
 21
6176.540307506756
 31
0.0
  0
LINE
  8
0
 62
     0
 10
3249.044666526822
 20
6184.911604844789
 30
0.0
 11
3249.044666526822
 21
6184.911604844789
 31
0.0
  0
LINE
  8
0
 62
     0
 10
3118.638687832307
 20
6076.359732688636
 30
0.0
 11
3118.638687832307
 21
6076.359732688636
 31
0.0
  0
LINE
  8
0
 62
     0
 10
3182.225004016516
 20
6084.73103002667
 30
0.0
 11
3182.225004016516
 21
6084.73103002667
 31
0.0
  0
LINE
  8
0
 62
     0
 10
3278.422916025894
 20
6097.395725405396
 30
0.0
 11
3278.422916025894
 21
6097.395725405396
 31
0.0
  0
LINE
  8
0
 62
     0
 10
3438.836711706454
 20
6118.514602254216
 30
0.0
 11
3438.836711706454
 21
6118.514602254216
 31
0.0
  0
LINE
  8
0
 62
     0
 10
3502.423027890663
 20
6126.88589959225
 30
0.0
 11
3502.423027890663
 21
6126.88589959225
 31
0.0
  0
LINE
  8
0
 62
     0
 10
3598.620939900041
 20
6139.550594970977
 30
0.0
 11
3598.620939900041
 21
6139.550594970977
 31
0.0
  0
LINE
  8
0
 62
     0
 10
3051.819025322
 20
5976.179157870517
 30
0.0
 11
3051.819025322
 21
5976.179157870517
 31
0.0
  0
LINE
  8
0
 62
     0
 10
3115.405341506209
 20
5984.55045520855
 30
0.0
 11
3115.405341506209
 21
5984.55045520855
 31
0.0
  0
LINE
  8
0
 62
     0
 10
3211.603253515587
 20
5997.215150587277
 30
0.0
 11
3211.603253515587
 21
5997.215150587277
 31
0.0
  0
LINE
  8
0
 62
     0
 10
3435.603365380357
 20
6026.70532477413
 30
0.0
 11
3435.603365380357
 21
6026.70532477413
 31
0.0
  0
LINE
  8
0
 62
     0
 10
3531.801277389734
 20
6039.370020152857
 30
0.0
 11
3531.801277389734
 21
6039.370020152857
 31
0.0
  0
LINE
  8
0
 62
     0
 10
3305.197386685843
 20
5918.153452617977
 30
0.0
 11
3305.197386685843
 21
5918.153452617977
 31
0.0
  0
LINE
  8
0
 62
     0
 10
3368.783702870052
 20
5926.524749956009
 30
0.0
 11
3368.783702870052
 21
5926.524749956009
 31
0.0
  0
LINE
  8
0
 62
     0
 10
3464.98161487943
 20
5939.189445334737
 30
0.0
 11
3464.98161487943
 21
5939.189445334737
 31
0.0
  0
LINE
  8
0
 62
     0
 10
3625.39541055999
 20
5960.308322183557
 30
0.0
 11
3625.39541055999
 21
5960.308322183557
 31
0.0
  0
LINE
  8
0
 62
     0
 10
3385.579249968381
 20
7485.302230524973
 30
0.0
 11
3385.579249968381
 21
7485.302230524973
 31
0.0
  0
LINE
  8
0
 62
     0
 10
3439.134606777499
 20
7451.18370539495
 30
0.0
 11
3439.134606777499
 21
7451.18370539495
 31
0.0
  0
LINE
  8
0
 62
     0
 10
3521.169845135254
 20
7479.5734865323
 30
0.0
 11
3521.169845135254
 21
7479.5734865323
 31
0.0
  0
LINE
  8
0
 62
     0
 10
3574.725201944372
 20
7445.454961402276
 30
0.0
 11
3574.725201944372
 21
7445.454961402276
 31
0.0
  0
LINE
  8
0
 62
     0
 10
1940.846808137979
 20
8567.002287705571
 30
0.0
 11
1940.846808137979
 21
8567.002287705571
 31
0.0
  0
LINE
  8
0
 62
     0
 10
3435.041263112377
 20
7615.095436577919
 30
0.0
 11
3435.041263112377
 21
7615.095436577919
 31
0.0
  0
LINE
  8
0
 62
     0
 10
2022.882046495729
 20
8595.392068842921
 30
0.0
 11
2022.882046495729
 21
8595.392068842921
 31
0.0
  0
LINE
  8
0
 62
     0
 10
2076.437403304848
 20
8561.273543712898
 30
0.0
 11
2076.437403304848
 21
8561.273543712898
 31
0.0
  0
LINE
  8
0
 62
     0
 10
3570.631858279248
 20
7609.366692585248
 30
0.0
 11
3570.631858279248
 21
7609.366692585248
 31
0.0
  0
LINE
  8
0
 62
     0
 10
1936.753464472854
 20
8730.914018888544
 30
0.0
 11
1936.753464472854
 21
8730.914018888544
 31
0.0
  0
LINE
  8
0
 62
     0
 10
2158.472641662604
 20
8589.663324850246
 30
0.0
 11
2158.472641662604
 21
8589.663324850246
 31
0.0
  0
LINE
  8
0
 62
     0
 10
2072.344059639722
 20
8725.185274895872
 30
0.0
 11
2072.344059639722
 21
8725.185274895872
 31
0.0
  0
LINE
  8
0
 62
     0
 10
2429.653831996343
 20
8578.205836864901
 30
0.0
 11
2429.653831996343
 21
8578.205836864901
 31
0.0
  0
LINE
  8
0
 62
     0
 10
2343.525249973467
 20
8713.727786910522
 30
0.0
 11
2343.525249973467
 21
8713.727786910522
 31
0.0
  0
LINE
  8
0
 62
     0
 10
2479.115845140339
 20
8707.999042917849
 30
0.0
 11
2479.115845140339
 21
8707.999042917849
 31
0.0
  0
LINE
  8
0
 62
     0
 10
1934.055556334038
 20
9619.804686096786
 30
0.0
 11
1934.055556334038
 21
9619.804686096786
 31
0.0
  0
LINE
  8
0
 62
     0
 10
2016.090794691791
 20
9648.194467234135
 30
0.0
 11
2016.090794691791
 21
9648.194467234135
 31
0.0
  0
LINE
  8
0
 62
     0
 10
2069.64615150091
 20
9614.075942104115
 30
0.0
 11
2069.64615150091
 21
9614.075942104115
 31
0.0
  0
LINE
  8
0
 62
     0
 10
1929.962212668913
 20
9783.716417279759
 30
0.0
 11
1929.962212668913
 21
9783.716417279759
 31
0.0
  0
LINE
  8
0
 62
     0
 10
2151.681389858663
 20
9642.465723241462
 30
0.0
 11
2151.681389858663
 21
9642.465723241462
 31
0.0
  0
LINE
  8
0
 62
     0
 10
2205.236746667781
 20
9608.347198111438
 30
0.0
 11
2205.236746667781
 21
9608.347198111438
 31
0.0
  0
LINE
  8
0
 62
     0
 10
2065.552807835784
 20
9777.987673287087
 30
0.0
 11
2065.552807835784
 21
9777.987673287087
 31
0.0
  0
LINE
  8
0
 62
     0
 10
2287.271985025533
 20
9636.736979248791
 30
0.0
 11
2287.271985025533
 21
9636.736979248791
 31
0.0
  0
LINE
  8
0
 62
     0
 10
2034.050689758207
 20
9878.708727700086
 30
0.0
 11
2034.050689758207
 21
9878.708727700086
 31
0.0
  0
LINE
  8
0
 62
     0
 10
2422.862580192403
 20
9631.008235256118
 30
0.0
 11
2422.862580192403
 21
9631.008235256118
 31
0.0
  0
LINE
  8
0
 62
     0
 10
2116.085928115961
 20
9907.098508837437
 30
0.0
 11
2116.085928115961
 21
9907.098508837437
 31
0.0
  0
LINE
  8
0
 62
     0
 10
2169.641284925079
 20
9872.979983707415
 30
0.0
 11
2169.641284925079
 21
9872.979983707415
 31
0.0
  0
LINE
  8
0
 62
     0
 10
2336.733998169528
 20
9766.530185301739
 30
0.0
 11
2336.733998169528
 21
9766.530185301739
 31
0.0
  0
LINE
  8
0
 62
     0
 10
2251.67652328283
 20
9901.369764844764
 30
0.0
 11
2251.67652328283
 21
9901.369764844764
 31
0.0
  0
LINE
  8
0
 62
     0
 10
2305.231880091948
 20
9867.25123971474
 30
0.0
 11
2305.231880091948
 21
9867.25123971474
 31
0.0
  0
LINE
  8
0
 62
     0
 10
2472.324593336397
 20
9760.80144130907
 30
0.0
 11
2472.324593336397
 21
9760.80144130907
 31
0.0
  0
LINE
  8
0
 62
     0
 10
2387.267118449703
 20
9895.641020852089
 30
0.0
 11
2387.267118449703
 21
9895.641020852089
 31
0.0
  0
LINE
  8
0
 62
     0
 10
2440.822475258821
 20
9861.522495722066
 30
0.0
 11
2440.822475258821
 21
9861.522495722066
 31
0.0
  0
LINE
  8
0
 62
     0
 10
2522.857713616576
 20
9889.912276859416
 30
0.0
 11
2522.857713616576
 21
9889.912276859416
 31
0.0
  0
LINE
  8
0
 62
     0
 10
3249.988654801511
 20
7491.030974517644
 30
0.0
 11
3249.988654801511
 21
7491.030974517644
 31
0.0
  0
LINE
  8
0
 62
     0
 10
3303.544011610629
 20
7456.912449387621
 30
0.0
 11
3303.544011610629
 21
7456.912449387621
 31
0.0
  0
LINE
  8
0
 62
     0
 10
3114.398059634641
 20
7496.759718510318
 30
0.0
 11
3114.398059634641
 21
7496.759718510318
 31
0.0
  0
LINE
  8
0
 62
     0
 10
3167.953416443759
 20
7462.641193380295
 30
0.0
 11
3167.953416443759
 21
7462.641193380295
 31
0.0
  0
LINE
  8
0
 62
     0
 10
3032.362821276886
 20
7468.36993737297
 30
0.0
 11
3032.362821276886
 21
7468.36993737297
 31
0.0
  0
LINE
  8
0
 62
     0
 10
2436.445083800283
 20
7525.403438473685
 30
0.0
 11
2436.445083800283
 21
7525.403438473685
 31
0.0
  0
LINE
  8
0
 62
     0
 10
2490.000440609402
 20
7491.284913343662
 30
0.0
 11
2490.000440609402
 21
7491.284913343662
 31
0.0
  0
LINE
  8
0
 62
     0
 10
2079.135311443662
 20
7672.382876504656
 30
0.0
 11
2079.135311443662
 21
7672.382876504656
 31
0.0
  0
LINE
  8
0
 62
     0
 10
2354.409845442529
 20
7497.013657336336
 30
0.0
 11
2354.409845442529
 21
7497.013657336336
 31
0.0
  0
LINE
  8
0
 62
     0
 10
1943.544716276791
 20
7678.11162049733
 30
0.0
 11
1943.544716276791
 21
7678.11162049733
 31
0.0
  0
LINE
  8
0
 62
     0
 10
2165.26389346654
 20
7536.860926459032
 30
0.0
 11
2165.26389346654
 21
7536.860926459032
 31
0.0
  0
LINE
  8
0
 62
     0
 10
2029.67329829967
 20
7542.589670451707
 30
0.0
 11
2029.67329829967
 21
7542.589670451707
 31
0.0
  0
LINE
  8
0
 62
     0
 10
2083.228655108788
 20
7508.471145321683
 30
0.0
 11
2083.228655108788
 21
7508.471145321683
 31
0.0
  0
LINE
  8
0
 62
     0
 10
1947.638059941916
 20
7514.199889314356
 30
0.0
 11
1947.638059941916
 21
7514.199889314356
 31
0.0
  0
LINE
  8
0
 62
     0
 10
2114.730773186365
 20
7407.750090908683
 30
0.0
 11
2114.730773186365
 21
7407.750090908683
 31
0.0
  0
LINE
  8
0
 62
     0
 10
1979.140178019493
 20
7413.478834901357
 30
0.0
 11
1979.140178019493
 21
7413.478834901357
 31
0.0
  0
LINE
  8
0
 62
     0
 10
3563.556558681896
 20
6162.13830254511
 30
0.0
 11
3563.556558681896
 21
6162.13830254511
 31
0.0
  0
LINE
  8
0
 62
     0
 10
3617.111915491014
 20
6128.019777415087
 30
0.0
 11
3617.111915491014
 21
6128.019777415087
 31
0.0
  0
LINE
  8
0
 62
     0
 10
3427.965963515023
 20
6167.867046537786
 30
0.0
 11
3427.965963515023
 21
6167.867046537786
 31
0.0
  0
LINE
  8
0
 62
     0
 10
3481.521320324141
 20
6133.748521407762
 30
0.0
 11
3481.521320324141
 21
6133.748521407762
 31
0.0
  0
LINE
  8
0
 62
     0
 10
3292.375368348152
 20
6173.595790530459
 30
0.0
 11
3292.375368348152
 21
6173.595790530459
 31
0.0
  0
LINE
  8
0
 62
     0
 10
3513.023438401719
 20
6033.027466994761
 30
0.0
 11
3513.023438401719
 21
6033.027466994761
 31
0.0
  0
LINE
  8
0
 62
     0
 10
3156.784773181282
 20
6179.32453452313
 30
0.0
 11
3156.784773181282
 21
6179.32453452313
 31
0.0
  0
LINE
  8
0
 62
     0
 10
3210.3401299904
 20
6145.206009393107
 30
0.0
 11
3210.3401299904
 21
6145.206009393107
 31
0.0
  0
LINE
  8
0
 62
     0
 10
3074.749534823528
 20
6150.93475338578
 30
0.0
 11
3074.749534823528
 21
6150.93475338578
 31
0.0
  0
LINE
  8
0
 62
     0
 10
3241.842248067977
 20
6044.484954980108
 30
0.0
 11
3241.842248067977
 21
6044.484954980108
 31
0.0
  0
LINE
  8
0
 62
     0
 10
3106.251652901105
 20
6050.213698972782
 30
0.0
 11
3106.251652901105
 21
6050.213698972782
 31
0.0
  0
LINE
  8
0
 62
     0
 10
3327.970830090855
 20
5908.963004934485
 30
0.0
 11
3327.970830090855
 21
5908.963004934485
 31
0.0
  0
LINE
  8
0
 62
     0
 10
3192.380234923984
 20
5914.691748927158
 30
0.0
 11
3192.380234923984
 21
5914.691748927158
 31
0.0
  0
LINE
  8
0
 62
     0
 10
3056.789639757111
 20
5920.420492919833
 30
0.0
 11
3056.789639757111
 21
5920.420492919833
 31
0.0
  0
LINE
  8
0
 62
     0
 10
2020.972386043606
 20
8548.464410397615
 30
0.0
 11
2020.972386043606
 21
8548.464410397615
 31
0.0
  0
LINE
  8
0
 62
     0
 10
3106.005747970981
 20
7554.214516014632
 30
0.0
 11
3106.005747970981
 21
7554.214516014632
 31
0.0
  0
LINE
  8
0
 62
     0
 10
3203.010801729763
 20
7465.325761218224
 30
0.0
 11
3203.010801729763
 21
7465.325761218224
 31
0.0
  0
LINE
  8
0
 62
     0
 10
2011.234269517166
 20
8718.549627866028
 30
0.0
 11
2011.234269517166
 21
8718.549627866028
 31
0.0
  0
LINE
  8
0
 62
     0
 10
2072.096513670842
 20
8662.779656227355
 30
0.0
 11
2072.096513670842
 21
8662.779656227355
 31
0.0
  0
LINE
  8
0
 62
     0
 10
2169.101567429623
 20
8573.890901430948
 30
0.0
 11
2169.101567429623
 21
8573.890901430948
 31
0.0
  0
LINE
  8
0
 62
     0
 10
3351.139983115781
 20
7490.752252251557
 30
0.0
 11
3351.139983115781
 21
7490.752252251557
 31
0.0
  0
LINE
  8
0
 62
     0
 10
3254.134929356999
 20
7579.641007047965
 30
0.0
 11
3254.134929356999
 21
7579.641007047965
 31
0.0
  0
LINE
  8
0
 62
     0
 10
2159.363450903184
 20
8743.976118899361
 30
0.0
 11
2159.363450903184
 21
8743.976118899361
 31
0.0
  0
LINE
  8
0
 62
     0
 10
3402.264110743017
 20
7605.067498081298
 30
0.0
 11
3402.264110743017
 21
7605.067498081298
 31
0.0
  0
LINE
  8
0
 62
     0
 10
3499.269164501799
 20
7516.17874328489
 30
0.0
 11
3499.269164501799
 21
7516.17874328489
 31
0.0
  0
LINE
  8
0
 62
     0
 10
2307.492632289202
 20
8769.402609932695
 30
0.0
 11
2307.492632289202
 21
8769.402609932695
 31
0.0
  0
LINE
  8
0
 62
     0
 10
2368.354876442878
 20
8713.632638294022
 30
0.0
 11
2368.354876442878
 21
8713.632638294022
 31
0.0
  0
LINE
  8
0
 62
     0
 10
3489.53104797536
 20
7686.263960753303
 30
0.0
 11
3489.53104797536
 21
7686.263960753303
 31
0.0
  0
LINE
  8
0
 62
     0
 10
3550.393292129037
 20
7630.493989114631
 30
0.0
 11
3550.393292129037
 21
7630.493989114631
 31
0.0
  0
LINE
  8
0
 62
     0
 10
2465.35993020166
 20
8624.743883497613
 30
0.0
 11
2465.35993020166
 21
8624.743883497613
 31
0.0
  0
LINE
  8
0
 62
     0
 10
2455.62181367522
 20
8794.829100966028
 30
0.0
 11
2455.62181367522
 21
8794.829100966028
 31
0.0
  0
LINE
  8
0
 62
     0
 10
2516.484057828896
 20
8739.059129327356
 30
0.0
 11
2516.484057828896
 21
8739.059129327356
 31
0.0
  0
LINE
  8
0
 62
     0
 10
2013.480546068656
 20
9683.462560950571
 30
0.0
 11
2013.480546068656
 21
9683.462560950571
 31
0.0
  0
LINE
  8
0
 62
     0
 10
2074.342790222332
 20
9627.692589311898
 30
0.0
 11
2074.342790222332
 21
9627.692589311898
 31
0.0
  0
LINE
  8
0
 62
     0
 10
2023.967421445591
 20
9835.014987843671
 30
0.0
 11
2023.967421445591
 21
9835.014987843671
 31
0.0
  0
LINE
  8
0
 62
     0
 10
2161.609727454673
 20
9708.889051983902
 30
0.0
 11
2161.609727454673
 21
9708.889051983902
 31
0.0
  0
LINE
  8
0
 62
     0
 10
2172.09660283161
 20
9860.441478877003
 30
0.0
 11
2172.09660283161
 21
9860.441478877003
 31
0.0
  0
LINE
  8
0
 62
     0
 10
2309.738908840691
 20
9734.315543017237
 30
0.0
 11
2309.738908840691
 21
9734.315543017237
 31
0.0
  0
LINE
  8
0
 62
     0
 10
2370.601152994368
 20
9678.545571378563
 30
0.0
 11
2370.601152994368
 21
9678.545571378563
 31
0.0
  0
LINE
  8
0
 62
     0
 10
2320.225784217628
 20
9885.867969910336
 30
0.0
 11
2320.225784217628
 21
9885.867969910336
 31
0.0
  0
LINE
  8
0
 62
     0
 10
2457.86809022671
 20
9759.742034050569
 30
0.0
 11
2457.86809022671
 21
9759.742034050569
 31
0.0
  0
LINE
  8
0
 62
     0
 10
2518.730334380386
 20
9703.972062411898
 30
0.0
 11
2518.730334380386
 21
9703.972062411898
 31
0.0
  0
LINE
  8
0
 62
     0
 10
3054.881620343746
 20
7439.89927018489
 30
0.0
 11
3054.881620343746
 21
7439.89927018489
 31
0.0
  0
LINE
  8
0
 62
     0
 10
2452.626778273232
 20
7508.278523519972
 30
0.0
 11
2452.626778273232
 21
7508.278523519972
 31
0.0
  0
LINE
  8
0
 62
     0
 10
2513.489022426908
 20
7452.508551881299
 30
0.0
 11
2513.489022426908
 21
7452.508551881299
 31
0.0
  0
LINE
  8
0
 62
     0
 10
2069.850237119352
 20
7697.866723142814
 30
0.0
 11
2069.850237119352
 21
7697.866723142814
 31
0.0
  0
LINE
  8
0
 62
     0
 10
2166.855290878133
 20
7608.977968346406
 30
0.0
 11
2166.855290878133
 21
7608.977968346406
 31
0.0
  0
LINE
  8
0
 62
     0
 10
2304.497596887216
 20
7482.852032486638
 30
0.0
 11
2304.497596887216
 21
7482.852032486638
 31
0.0
  0
LINE
  8
0
 62
     0
 10
2365.359841040891
 20
7427.082060847965
 30
0.0
 11
2365.359841040891
 21
7427.082060847965
 31
0.0
  0
LINE
  8
0
 62
     0
 10
2018.726109492115
 20
7583.551477313073
 30
0.0
 11
2018.726109492115
 21
7583.551477313073
 31
0.0
  0
LINE
  8
0
 62
     0
 10
2156.368415501197
 20
7457.425541453305
 30
0.0
 11
2156.368415501197
 21
7457.425541453305
 31
0.0
  0
LINE
  8
0
 62
     0
 10
2008.23923411518
 20
7431.999050419972
 30
0.0
 11
2008.23923411518
 21
7431.999050419972
 31
0.0
  0
LINE
  8
0
 62
     0
 10
3485.787253722877
 20
6078.075738945732
 30
0.0
 11
3485.787253722877
 21
6078.075738945732
 31
0.0
  0
LINE
  8
0
 62
     0
 10
3546.649497876553
 20
6022.30576730706
 30
0.0
 11
3546.649497876553
 21
6022.30576730706
 31
0.0
  0
LINE
  8
0
 62
     0
 10
3200.015766327776
 20
6178.775183772168
 30
0.0
 11
3200.015766327776
 21
6178.775183772168
 31
0.0
  0
LINE
  8
0
 62
     0
 10
3398.520316490535
 20
5996.879276273728
 30
0.0
 11
3398.520316490535
 21
5996.879276273728
 31
0.0
  0
LINE
  8
0
 62
     0
 10
3495.525370249316
 20
5907.99052147732
 30
0.0
 11
3495.525370249316
 21
5907.99052147732
 31
0.0
  0
LINE
  8
0
 62
     0
 10
3051.886584941758
 20
6153.348692738835
 30
0.0
 11
3051.886584941758
 21
6153.348692738835
 31
0.0
  0
LINE
  8
0
 62
     0
 10
3189.52889095084
 20
6027.222756879067
 30
0.0
 11
3189.52889095084
 21
6027.222756879067
 31
0.0
  0
LINE
  8
0
 62
     0
 10
3250.391135104516
 20
5971.452785240395
 30
0.0
 11
3250.391135104516
 21
5971.452785240395
 31
0.0
  0
LINE
  8
0
 62
     0
 10
3041.399709564823
 20
6001.796265845734
 30
0.0
 11
3041.399709564823
 21
6001.796265845734
 31
0.0
  0
LINE
  8
0
 62
     0
 10
3102.261953718498
 20
5946.026294207062
 30
0.0
 11
3102.261953718498
 21
5946.026294207062
 31
0.0
  0
ENDBLK
  8
0
  0
BLOCK
  8
0
  2
*D50
 70
    65
 10
0.0
 20
0.0
 30
0.0
  3
*D
  0
LINE
  8
0
  6
BYBLOCK
 10
-5747.245793593362
 20
12159.84856262259
 30
0.0
 11
-5747.245793593362
 21
12150.08668474307
 31
0.0
  0
LINE
  8
0
  6
BYBLOCK
 10
-7747.245793593362
 20
12168.61044050211
 30
0.0
 11
-7747.245793593362
 21
12150.08668474307
 31
0.0
  0
LINE
  8
0
  6
BYBLOCK
 10
-5787.245793593362
 20
12151.08668474307
 30
0.0
 11
-7707.245793593362
 21
12151.08668474307
 31
0.0
  0
SOLID
  8
0
  6
BYBLOCK
 10
-5787.245793593362
 20
12157.75335140973
 30
0.0
 11
-5787.245793593362
 21
12144.4200180764
 31
0.0
 12
-5747.245793593362
 22
12151.08668474307
 32
0.0
 13
-5747.245793593362
 23
12151.08668474307
 33
0.0
  0
SOLID
  8
0
  6
BYBLOCK
 10
-7707.245793593362
 20
12157.75335140973
 30
0.0
 11
-7707.245793593362
 21
12144.4200180764
 31
0.0
 12
-7747.245793593362
 22
12151.08668474307
 32
0.0
 13
-7747.245793593362
 23
12151.08668474307
 33
0.0
  0
TEXT
  8
0
  6
BYBLOCK
 10
-6804.388650736219
 20
12166.08668474306
 30
0.0
 40
30.0
  1
2000
  7
ROMANS
 72
     1
 11
-6747.245793593362
 21
12181.08668474306
 31
0.0
 73
     2
  0
POINT
  8
DEFPOINTS
  6
BYBLOCK
 62
     0
 10
-5747.245793593362
 20
12159.84856262259
 30
0.0
  0
POINT
  8
DEFPOINTS
  6
BYBLOCK
 62
     0
 10
-7747.245793593362
 20
12168.61044050211
 30
0.0
  0
POINT
  8
DEFPOINTS
  6
BYBLOCK
 62
     0
 10
-7747.245793593362
 20
12151.08668474307
 30
0.0
  0
ENDBLK
  8
0
  0
BLOCK
  8
0
  2
*D51
 70
    65
 10
0.0
 20
0.0
 30
0.0
  3
*D
  0
LINE
  8
0
  6
BYBLOCK
 10
33943.79587683613
 20
25277.46030326454
 30
0.0
 11
33955.571234692
 21
25277.46030326454
 31
0.0
  0
LINE
  8
0
  6
BYBLOCK
 10
33943.79587683613
 20
28427.46030326454
 30
0.0
 11
33955.571234692
 21
28427.46030326454
 31
0.0
  0
LINE
  8
0
  6
BYBLOCK
 10
33954.571234692
 20
25377.46030326454
 30
0.0
 11
33954.571234692
 21
28327.46030326454
 31
0.0
  0
SOLID
  8
0
  6
BYBLOCK
 10
33937.90456802534
 20
25377.46030326454
 30
0.0
 11
33971.23790135867
 21
25377.46030326454
 31
0.0
 12
33954.571234692
 22
25277.46030326454
 32
0.0
 13
33954.571234692
 23
25277.46030326454
 33
0.0
  0
SOLID
  8
0
  6
BYBLOCK
 10
33937.90456802534
 20
28327.46030326454
 30
0.0
 11
33971.23790135867
 21
28327.46030326454
 31
0.0
 12
33954.571234692
 22
28427.46030326454
 32
0.0
 13
33954.571234692
 23
28427.46030326454
 33
0.0
  0
TEXT
  8
0
  6
BYBLOCK
 10
33914.571234692
 20
26700.07935088359
 30
0.0
 40
80.0
  1
3150
 50
90.0
  7
ROMANS
 72
     1
 11
33874.571234692
 21
26852.46030326454
 31
0.0
 73
     2
  0
POINT
  8
DEFPOINTS
  6
BYBLOCK
 62
     0
 10
33943.79587683613
 20
25277.46030326454
 30
0.0
  0
POINT
  8
DEFPOINTS
  6
BYBLOCK
 62
     0
 10
33943.79587683613
 20
28427.46030326454
 30
0.0
  0
POINT
  8
DEFPOINTS
  6
BYBLOCK
 62
     0
 10
33954.571234692
 20
28427.46030326454
 30
0.0
  0
ENDBLK
  8
0
  0
BLOCK
  8
0
  2
*D52
 70
    65
 10
0.0
 20
0.0
 30
0.0
  3
*D
  0
LINE
  8
0
  6
BYBLOCK
 10
34143.79587683612
 20
24302.46030326455
 30
0.0
 11
34163.50587560217
 21
24302.46030326455
 31
0.0
  0
LINE
  8
0
  6
BYBLOCK
 10
34143.79587683612
 20
29402.46030326454
 30
0.0
 11
34163.50587560217
 21
29402.46030326454
 31
0.0
  0
LINE
  8
0
  6
BYBLOCK
 10
34162.50587560217
 20
24402.46030326455
 30
0.0
 11
34162.50587560217
 21
29302.46030326454
 31
0.0
  0
SOLID
  8
0
  6
BYBLOCK
 10
34145.83920893551
 20
24402.46030326455
 30
0.0
 11
34179.17254226884
 21
24402.46030326455
 31
0.0
 12
34162.50587560217
 22
24302.46030326455
 32
0.0
 13
34162.50587560217
 23
24302.46030326455
 33
0.0
  0
SOLID
  8
0
  6
BYBLOCK
 10
34145.83920893551
 20
29302.46030326454
 30
0.0
 11
34179.17254226884
 21
29302.46030326454
 31
0.0
 12
34162.50587560217
 22
29402.46030326454
 32
0.0
 13
34162.50587560217
 23
29402.46030326454
 33
0.0
  0
TEXT
  8
0
  6
BYBLOCK
 10
34122.50587560217
 20
26700.07935088359
 30
0.0
 40
80.0
  1
5100
 50
90.0
  7
ROMANS
 72
     1
 11
34082.50587560217
 21
26852.46030326454
 31
0.0
 73
     2
  0
POINT
  8
DEFPOINTS
  6
BYBLOCK
 62
     0
 10
34143.79587683612
 20
24302.46030326455
 30
0.0
  0
POINT
  8
DEFPOINTS
  6
BYBLOCK
 62
     0
 10
34143.79587683612
 20
29402.46030326454
 30
0.0
  0
POINT
  8
DEFPOINTS
  6
BYBLOCK
 62
     0
 10
34162.50587560217
 20
29402.46030326454
 30
0.0
  0
ENDBLK
  8
0
  0
BLOCK
  8
0
  2
*D53
 70
    65
 10
0.0
 20
0.0
 30
0.0
  3
*D
  0
LINE
  8
0
  6
BYBLOCK
 10
25663.79587683611
 20
24302.46030326455
 30
0.0
 11
25663.79587683611
 21
23556.24434561409
 31
0.0
  0
LINE
  8
0
  6
BYBLOCK
 10
33643.79587683612
 20
24302.46030326455
 30
0.0
 11
33643.79587683612
 21
23556.24434561409
 31
0.0
  0
LINE
  8
0
  6
BYBLOCK
 10
25763.79587683612
 20
23557.24434561409
 30
0.0
 11
33543.79587683612
 21
23557.24434561409
 31
0.0
  0
SOLID
  8
0
  6
BYBLOCK
 10
25763.79587683612
 20
23573.91101228075
 30
0.0
 11
25763.79587683612
 21
23540.57767894742
 31
0.0
 12
25663.79587683611
 22
23557.24434561409
 32
0.0
 13
25663.79587683611
 23
23557.24434561409
 33
0.0
  0
SOLID
  8
0
  6
BYBLOCK
 10
33543.79587683612
 20
23573.91101228075
 30
0.0
 11
33543.79587683612
 21
23540.57767894742
 31
0.0
 12
33643.79587683612
 22
23557.24434561409
 32
0.0
 13
33643.79587683612
 23
23557.24434561409
 33
0.0
  0
TEXT
  8
0
  6
BYBLOCK
 10
29501.41492445516
 20
23597.24434561409
 30
0.0
 40
80.0
  1
7980
  7
ROMANS
 72
     1
 11
29653.79587683612
 21
23637.24434561409
 31
0.0
 73
     2
  0
POINT
  8
DEFPOINTS
  6
BYBLOCK
 62
     0
 10
25663.79587683611
 20
24302.46030326455
 30
0.0
  0
POINT
  8
DEFPOINTS
  6
BYBLOCK
 62
     0
 10
33643.79587683612
 20
24302.46030326455
 30
0.0
  0
POINT
  8
DEFPOINTS
  6
BYBLOCK
 62
     0
 10
33643.79587683612
 20
23557.24434561409
 30
0.0
  0
ENDBLK
  8
0
  0
BLOCK
  8
0
  2
*X54
 70
    65
 10
0.0
 20
0.0
 30
0.0
  3
*X
  0
LINE
  8
0
 62
     0
 10
37006.14629365369
 20
32156.80798827635
 30
0.0
 11
38002.50114769351
 21
33153.16284231617
 31
0.0
  0
LINE
  8
0
 62
     0
 10
37006.14629365369
 20
32336.41311069773
 30
0.0
 11
37822.89602527213
 21
33153.16284231617
 31
0.0
  0
LINE
  8
0
 62
     0
 10
37006.14629365369
 20
32516.01823311912
 30
0.0
 11
37643.29090285075
 21
33153.16284231617
 31
0.0
  0
LINE
  8
0
 62
     0
 10
37006.14629365369
 20
32695.6233555405
 30
0.0
 11
37463.68578042936
 21
33153.16284231617
 31
0.0
  0
LINE
  8
0
 62
     0
 10
37006.14629365369
 20
32875.22847796188
 30
0.0
 11
37284.08065800798
 21
33153.16284231617
 31
0.0
  0
LINE
  8
0
 62
     0
 10
37006.14629365369
 20
33054.83360038326
 30
0.0
 11
37104.4755355866
 21
33153.16284231617
 31
0.0
  0
LINE
  8
0
 62
     0
 10
37182.10627011491
 20
32153.16284231619
 30
0.0
 11
38006.14629365369
 21
32977.20286585497
 31
0.0
  0
LINE
  8
0
 62
     0
 10
37361.7113925363
 20
32153.16284231619
 30
0.0
 11
38006.14629365369
 21
32797.59774343359
 31
0.0
  0
LINE
  8
0
 62
     0
 10
37541.31651495768
 20
32153.16284231619
 30
0.0
 11
38006.14629365369
 21
32617.99262101221
 31
0.0
  0
LINE
  8
0
 62
     0
 10
37720.92163737906
 20
32153.16284231619
 30
0.0
 11
38006.14629365369
 21
32438.38749859082
 31
0.0
  0
LINE
  8
0
 62
     0
 10
37900.52675980045
 20
32153.16284231619
 30
0.0
 11
38006.14629365369
 21
32258.78237616944
 31
0.0
  0
ENDBLK
  8
0
  0
BLOCK
  8
0
  2
*D58
 70
    65
 10
0.0
 20
0.0
 30
0.0
  3
*D
  0
LINE
  8
0
  6
BYBLOCK
 10
2413.433676317704
 20
12002.73016652231
 30
0.0
 11
2410.77808854924
 21
12002.73016652231
 31
0.0
  0
LINE
  8
0
  6
BYBLOCK
 10
2463.470553438201
 20
10520.12444512271
 30
0.0
 11
2410.77808854924
 21
10520.12444512271
 31
0.0
  0
LINE
  8
0
  6
BYBLOCK
 10
2411.77808854924
 20
11902.73016652231
 30
0.0
 11
2411.77808854924
 21
10620.12444512271
 31
0.0
  0
SOLID
  8
0
  6
BYBLOCK
 10
2395.111421882573
 20
11902.73016652231
 30
0.0
 11
2428.444755215906
 21
11902.73016652231
 31
0.0
 12
2411.77808854924
 22
12002.73016652231
 32
0.0
 13
2411.77808854924
 23
12002.73016652231
 33
0.0
  0
SOLID
  8
0
  6
BYBLOCK
 10
2395.111421882573
 20
10620.12444512271
 30
0.0
 11
2428.444755215906
 21
10620.12444512271
 31
0.0
 12
2411.77808854924
 22
10520.12444512271
 32
0.0
 13
2411.77808854924
 23
10520.12444512271
 33
0.0
  0
TEXT
  8
0
  6
BYBLOCK
 10
2376.77808854924
 20
11123.09397248918
 30
0.0
 40
70.0
  1
1500
 50
90.0
  7
ROMANS
 72
     1
 11
2341.77808854924
 21
11261.42730582251
 31
0.0
 73
     2
  0
POINT
  8
DEFPOINTS
  6
BYBLOCK
 62
     0
 10
2413.433676317704
 20
12002.73016652231
 30
0.0
  0
POINT
  8
DEFPOINTS
  6
BYBLOCK
 62
     0
 10
2463.470553438201
 20
10520.12444512271
 30
0.0
  0
POINT
  8
DEFPOINTS
  6
BYBLOCK
 62
     0
 10
2411.77808854924
 20
10520.12444512271
 30
0.0
  0
ENDBLK
  8
0
  0
BLOCK
  8
0
  2
*D59
 70
    65
 10
0.0
 20
0.0
 30
0.0
  3
*D
  0
LINE
  8
0
  6
BYBLOCK
 10
3175.083525676242
 20
17473.11335703766
 30
0.0
 11
3169.418534424965
 21
17473.11335703766
 31
0.0
  0
LINE
  8
0
  6
BYBLOCK
 10
3236.857605409237
 20
18972.98278819843
 30
0.0
 11
3169.418534424965
 21
18972.98278819843
 31
0.0
  0
LINE
  8
0
  6
BYBLOCK
 10
3170.418534424964
 20
17573.11335703766
 30
0.0
 11
3170.418534424964
 21
18872.98278819844
 31
0.0
  0
SOLID
  8
0
  6
BYBLOCK
 10
3153.751867758298
 20
17573.11335703766
 30
0.0
 11
3187.085201091631
 21
17573.11335703766
 31
0.0
 12
3170.418534424964
 22
17473.11335703766
 32
0.0
 13
3170.418534424964
 23
17473.11335703766
 33
0.0
  0
SOLID
  8
0
  6
BYBLOCK
 10
3153.751867758298
 20
18872.98278819844
 30
0.0
 11
3187.085201091631
 21
18872.98278819844
 31
0.0
 12
3170.418534424964
 22
18972.98278819843
 32
0.0
 13
3170.418534424964
 23
18972.98278819843
 33
0.0
  0
TEXT
  8
0
  6
BYBLOCK
 10
3135.418534424965
 20
18084.71473928472
 30
0.0
 40
70.0
  1
1500
 50
90.0
  7
ROMANS
 72
     1
 11
3100.418534424965
 21
18223.04807261805
 31
0.0
 73
     2
  0
POINT
  8
DEFPOINTS
  6
BYBLOCK
 62
     0
 10
3175.083525676242
 20
17473.11335703766
 30
0.0
  0
POINT
  8
DEFPOINTS
  6
BYBLOCK
 62
     0
 10
3236.857605409237
 20
18972.98278819843
 30
0.0
  0
POINT
  8
DEFPOINTS
  6
BYBLOCK
 62
     0
 10
3170.418534424964
 20
18972.98278819843
 30
0.0
  0
ENDBLK
  8
0
  0
BLOCK
  8
0
  2
*D60
 70
    65
 10
0.0
 20
0.0
 30
0.0
  3
*D
  0
LINE
  8
0
  6
BYBLOCK
 10
420.363792083985
 20
16713.55086582654
 30
0.0
 11
420.363792083985
 21
18725.07744097175
 31
0.0
  0
LINE
  8
0
  6
BYBLOCK
 10
5214.436829612142
 20
14862.84838775546
 30
0.0
 11
5214.436829612142
 21
18725.07744097175
 31
0.0
  0
LINE
  8
0
  6
BYBLOCK
 10
520.363792083985
 20
18724.07744097175
 30
0.0
 11
5114.436829612142
 21
18724.07744097175
 31
0.0
  0
SOLID
  8
0
  6
BYBLOCK
 10
520.363792083985
 20
18740.74410763842
 30
0.0
 11
520.363792083985
 21
18707.41077430508
 31
0.0
 12
420.363792083985
 22
18724.07744097175
 32
0.0
 13
420.363792083985
 23
18724.07744097175
 33
0.0
  0
SOLID
  8
0
  6
BYBLOCK
 10
5114.436829612142
 20
18740.74410763842
 30
0.0
 11
5114.436829612142
 21
18707.41077430508
 31
0.0
 12
5214.436829612142
 22
18724.07744097175
 32
0.0
 13
5214.436829612142
 23
18724.07744097175
 33
0.0
  0
TEXT
  8
0
  6
BYBLOCK
 10
2684.06697751473
 20
18759.07744097175
 30
0.0
 40
70.0
  1
4795
  7
ROMANS
 72
     1
 11
2817.400310848063
 21
18794.07744097175
 31
0.0
 73
     2
  0
POINT
  8
DEFPOINTS
  6
BYBLOCK
 62
     0
 10
420.363792083985
 20
16713.55086582654
 30
0.0
  0
POINT
  8
DEFPOINTS
  6
BYBLOCK
 62
     0
 10
5214.436829612142
 20
14862.84838775546
 30
0.0
  0
POINT
  8
DEFPOINTS
  6
BYBLOCK
 62
     0
 10
5214.436829612142
 20
18724.07744097175
 30
0.0
  0
ENDBLK
  8
0
  0
BLOCK
  8
0
  2
*D61
 70
    65
 10
0.0
 20
0.0
 30
0.0
  3
*D
  0
LINE
  8
0
  6
BYBLOCK
 10
3175.083525676242
 20
-5488.746695535624
 30
0.0
 11
3176.71509682229
 21
-5488.746695535624
 31
0.0
  0
LINE
  8
0
  6
BYBLOCK
 10
3175.083525676242
 20
-4985.677869541428
 30
0.0
 11
3176.71509682229
 21
-4985.677869541428
 31
0.0
  0
LINE
  8
0
  6
BYBLOCK
 10
3175.715096822291
 20
-5388.746695535624
 30
0.0
 11
3175.715096822291
 21
-5085.677869541428
 31
0.0
  0
SOLID
  8
0
  6
BYBLOCK
 10
3159.048430155624
 20
-5388.746695535624
 30
0.0
 11
3192.381763488957
 21
-5388.746695535624
 31
0.0
 12
3175.715096822291
 22
-5488.746695535624
 32
0.0
 13
3175.715096822291
 23
-5488.746695535624
 33
0.0
  0
SOLID
  8
0
  6
BYBLOCK
 10
3159.048430155624
 20
-5085.677869541428
 30
0.0
 11
3192.381763488957
 21
-5085.677869541428
 31
0.0
 12
3175.715096822291
 22
-4985.677869541428
 32
0.0
 13
3175.715096822291
 23
-4985.677869541428
 33
0.0
  0
TEXT
  8
0
  6
BYBLOCK
 10
3140.715096822291
 20
-5337.212282538525
 30
0.0
 40
70.0
  1
500
 50
90.0
  7
ROMANS
 72
     1
 11
3105.715096822291
 21
-5237.212282538526
 31
0.0
 73
     2
  0
POINT
  8
DEFPOINTS
  6
BYBLOCK
 62
     0
 10
3175.083525676242
 20
-5488.746695535624
 30
0.0
  0
POINT
  8
DEFPOINTS
  6
BYBLOCK
 62
     0
 10
3175.083525676242
 20
-4985.677869541428
 30
0.0
  0
POINT
  8
DEFPOINTS
  6
BYBLOCK
 62
     0
 10
3175.715096822291
 20
-4985.677869541428
 30
0.0
  0
ENDBLK
  8
0
  0
ENDSEC
  0
SECTION
  2
ENTITIES
  0
VIEWPORT
  8
0
 67
     1
 68
     1
 10
210.0
 20
151.361256544503
 30
0.0
 40
420.0
 41
302.722513089005
 69
     1
1001
ACAD
1000
MVIEW
1002
{
1070
    16
1010
0.0
1020
0.0
1030
0.0
1010
0.0
1020
0.0
1030
1.0
1040
0.0
1040
302.722513089005
1040
210.0
1040
151.361256544503
1040
50.0
1040
0.0
1040
0.0
1070
     0
1070
 20000
1070
     1
1070
     1
1070
     0
1070
     0
1070
     0
1070
     0
1040
0.0
1040
0.0
1040
0.0
1040
10.0
1040
10.0
1040
10.0
1040
10.0
1070
     0
1002
{
1002
}
1002
}
  0
POLYLINE
  8
DIK
 66
     1
 10
0.0
 20
0.0
 30
0.0
 70
     1
  0
VERTEX
  8
DIK
 10
3041.979607335818
 20
3648.968839407819
 30
0.0
  0
VERTEX
  8
DIK
 10
3119.561013822369
 20
3585.872679718273
 30
0.0
  0
VERTEX
  8
DIK
 10
3056.464854132824
 20
3508.291273231722
 30
0.0
  0
VERTEX
  8
DIK
 10
2978.883447646273
 20
3571.387432921266
 30
0.0
  0
SEQEND
  8
DIK
  0
POLYLINE
  8
DIK
 66
     1
 10
0.0
 20
0.0
 30
0.0
 70
     1
  0
VERTEX
  8
DIK
 10
2347.921850750822
 20
2795.573368055757
 30
0.0
  0
VERTEX
  8
DIK
 10
2425.503257237373
 20
2732.477208366212
 30
0.0
  0
VERTEX
  8
DIK
 10
2362.407097547828
 20
2654.895801879661
 30
0.0
  0
VERTEX
  8
DIK
 10
2284.825691061278
 20
2717.991961569206
 30
0.0
  0
SEQEND
  8
DIK
  0
POLYLINE
  8
DIK
 66
     1
 10
0.0
 20
0.0
 30
0.0
 70
     1
  0
VERTEX
  8
DIK
 10
3201.317322102883
 20
2101.515611470762
 30
0.0
  0
VERTEX
  8
DIK
 10
3278.898728589434
 20
2038.419451781218
 30
0.0
  0
VERTEX
  8
DIK
 10
3215.802568899888
 20
1960.838045294668
 30
0.0
  0
VERTEX
  8
DIK
 10
3138.221162413337
 20
2023.934204984212
 30
0.0
  0
SEQEND
  8
DIK
  0
LINE
  8
DIK
 10
3183.019435792915
 20
2079.017003589663
 30
0.0
 11
2407.205370927406
 21
2709.978600485112
 31
0.0
  0
LINE
  8
DIK
 10
3156.519048723306
 20
2046.432812865313
 30
0.0
 11
2380.704983857797
 21
2677.394409760762
 31
0.0
  0
ARC
  8
DIK
 10
3247.350648744661
 20
1999.628748537943
 30
0.0
 40
17.5
 50
230.87889690441
 51
50.87889690441
  0
ARC
  8
DIK
 10
2316.37377090605
 20
2756.782664812481
 30
0.0
 40
17.5
 50
50.87889690441
 51
230.87889690441
  0
LINE
  8
DIK
 10
3033.966246251724
 20
3526.589159541691
 30
0.0
 11
2403.004649356273
 21
2750.77509467618
 31
0.0
  0
LINE
  8
DIK
 10
3001.382055527372
 20
3553.0895466113
 30
0.0
 11
2370.420458631923
 21
2777.275481745788
 31
0.0
  0
ARC
  8
DIK
 10
2323.616394304552
 20
2686.443881724434
 30
0.0
 40
17.5
 50
140.87889690441
 51
320.87889690441
  0
ARC
  8
DIK
 10
3080.770310579094
 20
3617.420759563045
 30
0.0
 40
17.5
 50
320.87889690441
 51
140.87889690441
  0
POLYLINE
  8
DIK
 66
     1
 10
0.0
 20
0.0
 30
0.0
 70
     1
  0
VERTEX
  8
DIK
 10
2507.259565517888
 20
1248.120140118703
 30
0.0
  0
VERTEX
  8
DIK
 10
2584.840972004438
 20
1185.023980429158
 30
0.0
  0
VERTEX
  8
DIK
 10
2521.744812314894
 20
1107.442573942607
 30
0.0
  0
VERTEX
  8
DIK
 10
2444.163405828343
 20
1170.538733632152
 30
0.0
  0
SEQEND
  8
DIK
  0
LINE
  8
DIK
 10
3126.998903430115
 20
1987.947250357385
 30
0.0
 11
2540.204618317345
 21
1266.440170032459
 31
0.0
  0
LINE
  8
DIK
 10
3193.30396101879
 20
1979.135931604638
 30
0.0
 11
2562.34236412334
 21
1203.321866739126
 31
0.0
  0
LINE
  8
DIK
 10
3160.719770294439
 20
2005.636318674246
 30
0.0
 11
2529.758173398989
 21
1229.822253808735
 31
0.0
  0
ARC
  8
DIK
 10
3240.108025346159
 20
2069.967531625992
 30
0.0
 40
17.5
 50
320.87889690441
 51
140.87889690441
  0
ARC
  8
DIK
 10
2482.954109071619
 20
1138.990653787378
 30
0.0
 40
17.5
 50
140.87889690441
 51
320.87889690441
  0
POLYLINE
  8
DIK
 66
     1
 10
0.0
 20
0.0
 30
0.0
  0
VERTEX
  8
DIK
 10
2540.204618317345
 20
1266.440170032459
 30
0.0
  0
VERTEX
  8
DIK
 10
2551.841829290329
 20
1256.975746079027
 30
0.0
  0
SEQEND
  8
DIK
  0
POLYLINE
  8
DIK
 66
     1
 10
0.0
 20
0.0
 30
0.0
  0
VERTEX
  8
DIK
 10
3138.636114403098
 20
1978.482826403953
 30
0.0
  0
VERTEX
  8
DIK
 10
3126.998903430115
 20
1987.947250357384
 30
0.0
  0
SEQEND
  8
DIK
  0
LINE
  8
DIK
 10
3183.457228573895
 20
5004.603158283729
 30
0.0
 11
3180.783466157949
 21
3739.605983980741
 31
0.0
  0
LINE
  8
DIK
 10
3141.457322391504
 20
5004.69193142323
 30
0.0
 11
3138.783559975558
 21
3739.694757120242
 31
0.0
  0
LINE
  8
DIK
 10
3183.457228573896
 20
5004.603158283729
 30
0.0
 11
3141.457322391505
 21
5004.691931423232
 31
0.0
  0
LINE
  8
DIK
 10
3160.158565630814
 20
3681.751972514792
 30
0.0
 11
3097.06240594127
 21
3604.170566028243
 31
0.0
  0
LINE
  8
DIK
 10
3127.574374906462
 20
3708.252359584402
 30
0.0
 11
3064.478215216918
 21
3630.67095309785
 31
0.0
  0
ARC
  8
DIK
 10
3088.783671663187
 20
3739.800439429171
 30
0.0
 40
50.0
 50
320.87889690441
 51
359.87889690441
  0
ARC
  8
DIK
 10
3088.783671663188
 20
3739.800439429173
 30
0.0
 40
92.0
 50
320.87889690441
 51
359.87889690441
  0
ARC
  8
DIK
 10
3162.668640100561
 20
5104.647321478221
 30
0.0
 40
17.5
 50
359.87889690441
 51
179.87889690441
  0
LINE
  8
DIK
 10
3033.966246251725
 20
3526.589159541693
 30
0.0
 11
2529.196968735363
 21
2905.937907649281
 31
0.0
  0
LINE
  8
DIK
 10
3001.382055527373
 20
3553.0895466113
 30
0.0
 11
2496.612778011012
 21
2932.438294718892
 31
0.0
  0
LINE
  8
DIK
 10
2499.246204433793
 20
1125.740460252577
 30
0.0
 11
2466.662013709444
 21
1152.240847322181
 31
0.0
  0
LINE
  8
DIK
 10
851.463448266563
 20
-313.165887077446
 30
0.0
 11
855.22503237218
 21
1466.496073970808
 31
0.0
  0
LINE
  8
DIK
 10
3212.668528412932
 20
5104.541639169291
 30
0.0
 11
3212.457163795072
 21
5004.54186254455
 31
0.0
  0
LINE
  8
DIK
 10
3212.457163795072
 20
5004.54186254455
 30
0.0
 11
3112.457387170329
 21
5004.753227162412
 31
0.0
  0
LINE
  8
DIK
 10
3112.457387170329
 20
5004.753227162412
 30
0.0
 11
3112.668751788191
 21
5104.753003787152
 31
0.0
  0
LINE
  8
DIK
 10
2422.267097259207
 20
-248.280518072804
 30
0.0
 11
2424.940859675154
 21
1016.716656230184
 31
0.0
  0
LINE
  8
DIK
 10
2380.267191076817
 20
-248.191744933302
 30
0.0
 11
2382.940953492763
 21
1016.805429369685
 31
0.0
  0
LINE
  8
DIK
 10
2436.15004474425
 20
1048.159053766024
 30
0.0
 11
2499.246204433793
 21
1125.740460252576
 31
0.0
  0
LINE
  8
DIK
 10
2403.565854019899
 20
1074.659440835633
 30
0.0
 11
2466.662013709441
 21
1152.240847322182
 31
0.0
  0
ARC
  8
DIK
 10
2482.954109071619
 20
1138.990653787378
 30
0.0
 40
17.5
 50
140.87889690441
 51
320.87889690441
  0
ARC
  8
DIK
 10
2474.940747987526
 20
1016.610973921252
 30
0.0
 40
50.0
 50
140.87889690441
 51
179.87889690441
  0
ARC
  8
DIK
 10
2474.940747987526
 20
1016.610973921251
 30
0.0
 40
92.0
 50
140.87889690441
 51
179.87889690441
  0
ARC
  8
DIK
 10
2401.05577955015
 20
-348.235908127797
 30
0.0
 40
17.5
 50
179.87889690441
 51
359.87889690441
  0
LINE
  8
DIK
 10
2380.267191076817
 20
-248.191744933302
 30
0.0
 11
2422.267097259207
 21
-248.280518072806
 31
0.0
  0
LINE
  8
DIK
 10
2351.267255855639
 20
-248.130449194124
 30
0.0
 11
2451.267032480383
 21
-248.341813811985
 31
0.0
  0
LINE
  8
DIK
 10
2451.267032480383
 20
-248.341813811985
 30
0.0
 11
2451.055667862521
 21
-348.341590436726
 31
0.0
  0
LINE
  8
DIK
 10
2351.055891237778
 20
-348.130225818865
 30
0.0
 11
2351.267255855639
 21
-248.130449194124
 31
0.0
  0
ARC
  8
DIK
 10
3224.442719833557
 20
5104.516752638997
 30
0.0
 40
1500.0
 50
359.87889690441
 51
91.78911007612
  0
ARC
  8
DIK
 10
3124.442943208815
 20
5104.728117256859
 30
0.0
 40
1500.0
 50
87.9686837327
 51
179.87889690441
  0
ARC
  8
DIK
 10
2451.055667862521
 20
-348.341590436724
 30
0.0
 40
1500.0
 50
267.9686837327
 51
359.87889690441
  0
ARC
  8
DIK
 10
2351.05589123778
 20
-348.130225818864
 30
0.0
 40
1500.0
 50
178.664339667186
 51
271.78911007612
  0
ARC
  8
DIK
 10
2284.825691061278
 20
2717.991961569206
 30
0.0
 40
1900.0
 50
140.87889690441
 51
221.199435431317
  0
ARC
  8
DIK
 10
3278.898728589434
 20
2038.419451781218
 30
0.0
 40
1900.0
 50
320.87889690441
 51
39.900878800882
  0
LINE
  8
DIK
 10
1624.44629383768
 20
5107.898586524775
 30
0.0
 11
810.77896781681
 21
3916.818995670559
 31
0.0
  0
LINE
  8
DIK
 10
4724.439369204688
 20
5101.346283371081
 30
0.0
 11
4722.066921283111
 21
3978.905523833652
 31
0.0
  0
LINE
  8
DIK
 10
4752.945451833902
 20
839.592417679866
 30
0.0
 11
3951.052317233653
 21
-351.512059704661
 31
0.0
  0
ARC
  8
DIK
 10
3119.561013822369
 20
3585.872679718273
 30
0.0
 40
1650.0
 50
348.509940379405
 51
13.780428912605
  0
LINE
  8
DUN
 10
3864.209248143112
 20
-851.329620652304
 30
0.0
 11
935.788664778566
 21
-845.139961850707
 31
0.0
  0
LINE
  8
DUN
 10
1711.289362928217
 20
5607.716147472419
 30
0.0
 11
4639.709946292764
 21
5601.526488670858
 31
0.0
  0
LINE
  8
DIK
 10
3212.668528412932
 20
5104.541639169291
 30
0.0
 11
3112.668751788191
 21
5104.753003787152
 31
0.0
  0
LINE
  8
DIK
 10
2451.055667862521
 20
-348.341590436726
 30
0.0
 11
2351.055891237778
 21
-348.130225818865
 31
0.0
  0
DIMENSION
  8
DUN
  2
*D23
 10
5178.898728589435
 20
6915.579351587145
 30
0.0
 11
2781.862209825356
 21
6985.579351587143
 31
0.0
 12
84.512062706845
 22
-2409.170672168683
 32
0.0
 13
384.825691061278
 23
2717.991961569206
 33
0.0
 14
5178.898728589435
 24
2038.419451781218
 34
0.0
  3
STANDAARD
  0
DIMENSION
  8
DUN
  2
*D24
 10
5743.484063511883
 20
6604.516752638995
 30
0.0
 11
5673.484063511883
 21
2378.087581101135
 31
0.0
 12
84.512062706845
 22
-2409.170672168683
 32
0.0
 13
2451.055667862521
 23
-1848.341590436724
 33
0.0
 14
3224.442719833557
 24
6604.516752638995
 34
0.0
 50
90.0
  3
STANDAARD
  0
DIMENSION
  8
DUN
  2
*D25
 10
3162.491651765044
 20
5604.646204601932
 30
0.0
 11
3092.491651765044
 21
5354.646763040077
 31
0.0
 12
84.512062706845
 22
-2409.170672168683
 32
0.0
 13
3162.668640100562
 23
5104.647321478222
 33
0.0
 14
3163.725463189868
 24
5604.646204601932
 34
0.0
 50
90.0
  3
STANDAARD
  0
DIMENSION
  8
DUN
  2
*D26
 10
384.825691061278
 20
2717.937477692808
 30
0.0
 11
1334.825691061278
 21
2787.937477692808
 31
0.0
 12
84.512062706845
 22
-2409.170672168683
 32
0.0
 13
2284.825691061278
 23
2717.991961569206
 33
0.0
 14
384.825691061278
 24
2717.991961569206
 34
0.0
  3
STANDAARD
  0
DIMENSION
  8
DUN
  2
*D27
 10
5178.898728589435
 20
2040.747530004298
 30
0.0
 11
4228.898728589435
 21
2110.747530004298
 31
0.0
 12
84.512062706845
 22
-2409.170672168683
 32
0.0
 13
3278.898728589434
 23
2038.419451781218
 33
0.0
 14
5178.898728589435
 24
2038.419451781218
 34
0.0
  3
STANDAARD
  0
DIMENSION
  8
DUN
  2
*D28
 10
4769.561013822369
 20
3585.510839316921
 30
0.0
 11
3944.561013822369
 21
3655.510839316921
 31
0.0
 12
84.512062706845
 22
-2409.170672168683
 32
0.0
 13
3119.561013822369
 23
3585.872679718273
 33
0.0
 14
4769.561013822369
 24
3585.872679718273
 34
0.0
  3
STANDAARD
  0
DIMENSION
  8
DUN
  2
*D29
 10
2401.326532065809
 20
-848.234791251505
 30
0.0
 11
2331.326532065808
 21
-598.23534968965
 31
0.0
 12
84.512062706845
 22
-2409.170672168683
 32
0.0
 13
2401.05577955015
 23
-348.235908127796
 33
0.0
 14
2399.998956460839
 24
-848.234791251505
 34
0.0
 50
90.0
  3
STANDAARD
  0
INSERT
  8
STREEPLIJN
  2
*X30
 10
84.512062706845
 20
-2409.170672168683
 30
0.0
1001
ACAD
1000
HATCH
1002
{
1070
    16
1000
ANSI31
1040
20.0
1040
0.0
1002
}
  0
DIMENSION
  8
DUN
  2
*D31
 10
5175.21908299344
 20
-1848.341590436724
 30
0.0
 11
5105.21908299344
 21
-1097.426825070693
 31
0.0
 12
84.512062706845
 22
-2409.170672168683
 32
0.0
 13
3951.052317233653
 23
-346.512059704661
 33
0.0
 14
2451.055667862521
 24
-1848.341590436724
 34
0.0
 50
90.0
  3
STANDAARD
  0
DIMENSION
  8
DUN
  2
*D32
 10
851.249011999045
 20
-349.146079699231
 30
0.0
 11
1601.152451618411
 21
-279.146079699231
 31
0.0
 12
84.512062706845
 22
-2409.170672168683
 32
0.0
 13
2351.055891237778
 23
-348.130225818865
 33
0.0
 14
851.249011999045
 24
-372.199396726222
 34
0.0
  3
STANDAARD
  0
DIMENSION
  8
DUN
  2
*D33
 10
4724.248067114956
 20
5011.838390258882
 30
0.0
 11
3968.361854167178
 21
5081.838390258882
 31
0.0
 12
84.512062706845
 22
-2409.170672168683
 32
0.0
  1
1500
 13
3212.475641219401
 23
5013.283809632225
 33
0.0
 14
4724.248067114956
 24
5014.9938504861
 34
0.0
  3
STANDAARD
  0
DIMENSION
  8
DUN
  2
*D33
 10
4759.786168137662
 20
16617.49066956018
 30
0.0
 11
4003.899955189886
 21
16687.49066956018
 31
0.0
 12
120.050163729551
 22
9196.481607132621
 32
0.0
  1
1500
 13
3248.013742242109
 23
16618.93608893352
 33
0.0
 14
4759.786168137662
 24
16620.6461297874
 34
0.0
  3
STANDAARD
  0
DIMENSION
  8
DUN
  2
*D32
 10
886.787113021752
 20
11256.50619960207
 30
0.0
 11
1636.690552641119
 21
11326.50619960207
 31
0.0
 12
120.050163729551
 22
9196.481607132621
 32
0.0
 13
2386.593992260487
 23
11257.52205348243
 33
0.0
 14
886.787113021752
 24
11233.45288257508
 34
0.0
  3
STANDAARD
  0
DIMENSION
  8
DUN
  2
*D31
 10
5210.757184016149
 20
9757.310688864579
 30
0.0
 11
5140.757184016148
 21
10508.22545423061
 31
0.0
 12
120.050163729551
 22
9196.481607132621
 32
0.0
 13
3986.590418256359
 23
11259.14021959664
 33
0.0
 14
2486.593768885228
 24
9757.310688864579
 34
0.0
 50
90.0
  3
STANDAARD
  0
DIMENSION
  8
DUN
  2
*D28
 10
4805.099114845076
 20
15191.16311861822
 30
0.0
 11
3980.099114845076
 21
15261.16311861822
 31
0.0
 12
120.050163729551
 22
9196.481607132621
 32
0.0
 13
3155.099114845076
 23
15191.52495901957
 33
0.0
 14
4805.099114845076
 24
15191.52495901957
 34
0.0
  3
STANDAARD
  0
DIMENSION
  8
DUN
  2
*D27
 10
5214.436829612142
 20
13646.3998093056
 30
0.0
 11
4264.436829612142
 21
13716.3998093056
 31
0.0
 12
120.050163729551
 22
9196.481607132621
 32
0.0
 13
3314.436829612141
 23
13644.07173108252
 33
0.0
 14
5214.436829612142
 24
13644.07173108252
 34
0.0
  3
STANDAARD
  0
DIMENSION
  8
DUN
  2
*D26
 10
420.363792083985
 20
14323.58975699411
 30
0.0
 11
1370.363792083985
 21
14393.58975699411
 31
0.0
 12
120.050163729551
 22
9196.481607132621
 32
0.0
 13
2320.363792083985
 23
14323.64424087051
 33
0.0
 14
420.363792083985
 24
14323.64424087051
 34
0.0
  3
STANDAARD
  0
DIMENSION
  8
DUN
  2
*D24
 10
5779.022164534591
 20
18210.16903194029
 30
0.0
 11
5709.022164534591
 21
13983.73986040243
 31
0.0
 12
120.050163729551
 22
9196.481607132621
 32
0.0
 13
2486.593768885228
 23
9757.310688864579
 33
0.0
 14
3259.980820856264
 24
18210.16903194029
 34
0.0
 50
90.0
  3
STANDAARD
  0
LINE
  8
DIK
 10
2486.593768885228
 20
11257.31068886457
 30
0.0
 11
2386.593992260487
 21
11257.52205348243
 31
0.0
  0
LINE
  8
DIK
 10
3248.206629435639
 20
16710.19391847059
 30
0.0
 11
3148.206852810899
 21
16710.40528308845
 31
0.0
  0
ARC
  8
DIK
 10
3155.099114845076
 20
15191.52495901957
 30
0.0
 40
1650.0
 50
348.509940379405
 51
13.780428912605
  0
LINE
  8
DIK
 10
4788.48355285661
 20
12445.24469698117
 30
0.0
 11
3986.590418256359
 21
11254.14021959664
 31
0.0
  0
LINE
  8
DIK
 10
4759.977470227396
 20
16706.99856267237
 30
0.0
 11
4757.605022305818
 21
15584.55780313495
 31
0.0
  0
LINE
  8
DIK
 10
1659.984394860388
 20
16713.55086582607
 30
0.0
 11
846.317068839517
 21
15522.47127497186
 31
0.0
  0
ARC
  8
DIK
 10
3314.436829612141
 20
13644.07173108252
 30
0.0
 40
1900.0
 50
320.87889690441
 51
39.900878800882
  0
ARC
  8
DIK
 10
2320.363792083985
 20
14323.64424087051
 30
0.0
 40
1900.0
 50
140.87889690441
 51
221.199435431317
  0
ARC
  8
DIK
 10
2386.593992260487
 20
11257.52205348244
 30
0.0
 40
1500.0
 50
178.664339667186
 51
271.78911007612
  0
ARC
  8
DIK
 10
2486.593768885228
 20
11257.31068886458
 30
0.0
 40
1500.0
 50
267.9686837327
 51
359.87889690441
  0
ARC
  8
DIK
 10
3159.981044231523
 20
16710.38039655816
 30
0.0
 40
1500.0
 50
87.9686837327
 51
179.87889690441
  0
ARC
  8
DIK
 10
3259.980820856264
 20
16710.16903194029
 30
0.0
 40
1500.0
 50
359.87889690441
 51
91.78911007612
  0
LINE
  8
DIK
 10
2386.593992260487
 20
11257.52205348243
 30
0.0
 11
2386.805356878347
 21
11357.52183010718
 31
0.0
  0
LINE
  8
DIK
 10
2486.805133503091
 20
11357.31046548932
 30
0.0
 11
2486.593768885228
 21
11257.31068886457
 31
0.0
  0
LINE
  8
DIK
 10
2386.805356878347
 20
11357.52183010718
 30
0.0
 11
2486.805133503091
 21
11357.31046548932
 31
0.0
  0
LINE
  8
DIK
 10
2415.805292099523
 20
11357.460534368
 30
0.0
 11
2457.805198281914
 21
11357.37176122849
 31
0.0
  0
ARC
  8
DIK
 10
2436.593880572857
 20
11257.4163711735
 30
0.0
 40
17.5
 50
179.87889690441
 51
359.87889690441
  0
ARC
  8
DIK
 10
2510.478849010233
 20
12622.26325322255
 30
0.0
 40
92.0
 50
140.87889690441
 51
179.87889690441
  0
ARC
  8
DIK
 10
2510.478849010233
 20
12622.26325322255
 30
0.0
 40
50.0
 50
140.87889690441
 51
179.87889690441
  0
ARC
  8
DIK
 10
2518.492210094326
 20
12744.64293308868
 30
0.0
 40
17.5
 50
140.87889690441
 51
320.87889690441
  0
LINE
  8
DIK
 10
2439.103955042605
 20
12680.31172013693
 30
0.0
 11
2502.200114732148
 21
12757.89312662348
 31
0.0
  0
LINE
  8
DIK
 10
2471.688145766957
 20
12653.81133306732
 30
0.0
 11
2534.7843054565
 21
12731.39273955387
 31
0.0
  0
LINE
  8
DIK
 10
2415.805292099523
 20
11357.460534368
 30
0.0
 11
2418.47905451547
 21
12622.45770867098
 31
0.0
  0
LINE
  8
DIK
 10
2457.805198281914
 20
11357.3717612285
 30
0.0
 11
2460.478960697861
 21
12622.36893553148
 31
0.0
  0
LINE
  8
DIK
 10
3147.995488193037
 20
16610.40550646371
 30
0.0
 11
3148.206852810899
 21
16710.40528308845
 31
0.0
  0
LINE
  8
DIK
 10
3247.995264817779
 20
16610.19414184585
 30
0.0
 11
3147.995488193037
 21
16610.40550646371
 31
0.0
  0
LINE
  8
DIK
 10
3248.206629435639
 20
16710.19391847059
 30
0.0
 11
3247.995264817779
 21
16610.19414184585
 31
0.0
  0
LINE
  8
DIK
 10
887.001549289271
 20
11292.48639222385
 30
0.0
 11
890.763133394889
 21
13072.14835327211
 31
0.0
  0
LINE
  8
DIK
 10
2534.7843054565
 20
12731.39273955387
 30
0.0
 11
2502.200114732152
 21
12757.89312662348
 31
0.0
  0
LINE
  8
DIK
 10
3036.920156550081
 20
15158.7418259126
 30
0.0
 11
2532.15087903372
 21
14538.09057402019
 31
0.0
  0
LINE
  8
DIK
 10
3069.504347274431
 20
15132.24143884299
 30
0.0
 11
2564.735069758072
 21
14511.59018695058
 31
0.0
  0
ARC
  8
DIK
 10
3198.20674112327
 20
16710.29960077952
 30
0.0
 40
17.5
 50
359.87889690441
 51
179.87889690441
  0
ARC
  8
DIK
 10
3124.321772685895
 20
15345.45271873047
 30
0.0
 40
92.0
 50
320.87889690441
 51
359.87889690441
  0
ARC
  8
DIK
 10
3124.321772685895
 20
15345.45271873047
 30
0.0
 40
50.0
 50
320.87889690441
 51
359.87889690441
  0
LINE
  8
DIK
 10
3163.112475929169
 20
15313.9046388857
 30
0.0
 11
3100.016316239626
 21
15236.32323239915
 31
0.0
  0
LINE
  8
DIK
 10
3195.696666653521
 20
15287.40425181609
 30
0.0
 11
3132.600506963978
 21
15209.82284532954
 31
0.0
  0
LINE
  8
DIK
 10
3218.995329596603
 20
16610.25543758503
 30
0.0
 11
3176.995423414212
 21
16610.34421072453
 31
0.0
  0
LINE
  8
DIK
 10
3176.995423414212
 20
16610.34421072452
 30
0.0
 11
3174.321660998265
 21
15345.34703642154
 31
0.0
  0
LINE
  8
DIK
 10
3218.995329596603
 20
16610.25543758503
 30
0.0
 11
3216.321567180655
 21
15345.25826328204
 31
0.0
  0
POLYLINE
  8
DIK
 66
     1
 10
0.0
 20
0.0
 30
0.0
  0
VERTEX
  8
DIK
 10
3174.174215425805
 20
13584.13510570525
 30
0.0
  0
VERTEX
  8
DIK
 10
3162.537004452823
 20
13593.59952965868
 30
0.0
  0
SEQEND
  8
DIK
  0
POLYLINE
  8
DIK
 66
     1
 10
0.0
 20
0.0
 30
0.0
  0
VERTEX
  8
DIK
 10
2575.742719340053
 20
12872.09244933376
 30
0.0
  0
VERTEX
  8
DIK
 10
2587.379930313037
 20
12862.62802538033
 30
0.0
  0
SEQEND
  8
DIK
  0
ARC
  8
DIK
 10
2518.492210094326
 20
12744.64293308868
 30
0.0
 40
17.5
 50
140.87889690441
 51
320.87889690441
  0
ARC
  8
DIK
 10
3275.646126368867
 20
13675.61981092729
 30
0.0
 40
17.5
 50
320.87889690441
 51
140.87889690441
  0
LINE
  8
DIK
 10
3196.257871317146
 20
13611.28859797555
 30
0.0
 11
2565.296274421695
 21
12835.47453311003
 31
0.0
  0
LINE
  8
DIK
 10
3228.842062041496
 20
13584.78821090594
 30
0.0
 11
2597.880465146047
 21
12808.97414604043
 31
0.0
  0
LINE
  8
DIK
 10
3162.537004452823
 20
13593.59952965869
 30
0.0
 11
2575.742719340053
 21
12872.09244933376
 31
0.0
  0
POLYLINE
  8
DIK
 66
     1
 10
0.0
 20
0.0
 30
0.0
 70
     1
  0
VERTEX
  8
DIK
 10
2542.797666540597
 20
12853.77241942
 30
0.0
  0
VERTEX
  8
DIK
 10
2620.379073027145
 20
12790.67625973046
 30
0.0
  0
VERTEX
  8
DIK
 10
2557.282913337602
 20
12713.09485324391
 30
0.0
  0
VERTEX
  8
DIK
 10
2479.70150685105
 20
12776.19101293345
 30
0.0
  0
SEQEND
  8
DIK
  0
ARC
  8
DIK
 10
3116.308411601802
 20
15223.07303886434
 30
0.0
 40
17.5
 50
320.87889690441
 51
140.87889690441
  0
ARC
  8
DIK
 10
2359.154495327261
 20
14292.09616102573
 30
0.0
 40
17.5
 50
140.87889690441
 51
320.87889690441
  0
LINE
  8
DIK
 10
3036.920156550079
 20
15158.7418259126
 30
0.0
 11
2405.95855965463
 21
14382.92776104709
 31
0.0
  0
LINE
  8
DIK
 10
3069.504347274431
 20
15132.24143884299
 30
0.0
 11
2438.542750378982
 21
14356.42737397748
 31
0.0
  0
ARC
  8
DIK
 10
2351.911871928758
 20
14362.43494411378
 30
0.0
 40
17.5
 50
50.87889690441
 51
230.87889690441
  0
ARC
  8
DIK
 10
3282.88874976737
 20
13605.28102783924
 30
0.0
 40
17.5
 50
230.87889690441
 51
50.87889690441
  0
LINE
  8
DIK
 10
3192.057149746013
 20
13652.08509216661
 30
0.0
 11
2416.243084880504
 21
14283.04668906206
 31
0.0
  0
LINE
  8
DIK
 10
3218.557536815622
 20
13684.66928289096
 30
0.0
 11
2442.743471950113
 21
14315.63087978641
 31
0.0
  0
POLYLINE
  8
DIK
 66
     1
 10
0.0
 20
0.0
 30
0.0
 70
     1
  0
VERTEX
  8
DIK
 10
3236.855423125589
 20
13707.16789077206
 30
0.0
  0
VERTEX
  8
DIK
 10
3314.436829612141
 20
13644.07173108252
 30
0.0
  0
VERTEX
  8
DIK
 10
3251.340669922595
 20
13566.49032459597
 30
0.0
  0
VERTEX
  8
DIK
 10
3173.759263436045
 20
13629.58648428551
 30
0.0
  0
SEQEND
  8
DIK
  0
POLYLINE
  8
DIK
 66
     1
 10
0.0
 20
0.0
 30
0.0
 70
     1
  0
VERTEX
  8
DIK
 10
2383.459951773529
 20
14401.22564735706
 30
0.0
  0
VERTEX
  8
DIK
 10
2461.04135826008
 20
14338.12948766751
 30
0.0
  0
VERTEX
  8
DIK
 10
2397.945198570536
 20
14260.54808118096
 30
0.0
  0
VERTEX
  8
DIK
 10
2320.363792083985
 20
14323.64424087051
 30
0.0
  0
SEQEND
  8
DIK
  0
POLYLINE
  8
DIK
 66
     1
 10
0.0
 20
0.0
 30
0.0
 70
     1
  0
VERTEX
  8
DIK
 10
3077.517708358524
 20
15254.62111870912
 30
0.0
  0
VERTEX
  8
DIK
 10
3155.099114845076
 20
15191.52495901957
 30
0.0
  0
VERTEX
  8
DIK
 10
3092.002955155531
 20
15113.94355253302
 30
0.0
  0
VERTEX
  8
DIK
 10
3014.421548668981
 20
15177.03971222257
 30
0.0
  0
SEQEND
  8
DIK
  0
LINE
  8
STREEPLIJN
 10
1659.984394860392
 20
16713.55086582608
 30
0.0
 11
1659.984394860392
 21
18209.43780053883
 31
0.0
  0
LINE
  8
STREEPLIJN
 10
4805.099114845075
 20
18209.43780053883
 30
0.0
 11
1659.984394860392
 21
18209.43780053883
 31
0.0
  0
LINE
  8
STREEPLIJN
 10
1659.984394860392
 20
16713.55086582654
 30
0.0
 11
420.363792083985
 21
16713.55086582654
 31
0.0
  0
LINE
  8
STREEPLIJN
 10
420.363792083985
 20
13072.14835327211
 30
0.0
 11
420.363792083985
 21
16713.55086582654
 31
0.0
  0
LINE
  8
STREEPLIJN
 10
890.76313339489
 20
13072.14835327211
 30
0.0
 11
420.363792083987
 21
13072.14835327211
 31
0.0
  0
LINE
  8
STREEPLIJN
 10
890.763133394889
 20
13072.14835327211
 30
0.0
 11
890.763133394889
 21
9757.522053482441
 31
0.0
  0
LINE
  8
STREEPLIJN
 10
3986.590418256359
 20
9757.522053482441
 30
0.0
 11
890.76313339489
 21
9757.522053482441
 31
0.0
  0
LINE
  8
STREEPLIJN
 10
3986.590418256359
 20
11259.14021959664
 30
0.0
 11
3986.590418256358
 21
9757.522053482441
 31
0.0
  0
LINE
  8
STREEPLIJN
 10
3986.590418256359
 20
11259.14021959664
 30
0.0
 11
5214.436829612144
 21
11259.14021959664
 31
0.0
  0
LINE
  8
STREEPLIJN
 10
5214.436829612142
 20
14862.84838775546
 30
0.0
 11
5214.436829612144
 21
11259.14021959664
 31
0.0
  0
LINE
  8
STREEPLIJN
 10
4805.099114845076
 20
14862.84838775546
 30
0.0
 11
5214.436829612142
 21
14862.84838775546
 31
0.0
  0
LINE
  8
STREEPLIJN
 10
4805.099114845076
 20
14862.84838775546
 30
0.0
 11
4805.099114845075
 21
18209.43780053883
 31
0.0
  0
POLYLINE
  8
DIK
 66
     1
 10
0.0
 20
0.0
 30
0.0
 70
     1
  0
VERTEX
  8
DIK
 10
3054.394492911497
 20
-6944.425177606025
 30
0.0
  0
VERTEX
  8
DIK
 10
3131.975899398049
 20
-7007.521337295574
 30
0.0
  0
VERTEX
  8
DIK
 10
3068.879739708504
 20
-7085.102743782125
 30
0.0
  0
VERTEX
  8
DIK
 10
2991.298333221954
 20
-7022.006584092578
 30
0.0
  0
SEQEND
  8
DIK
  0
POLYLINE
  8
DIK
 66
     1
 10
0.0
 20
0.0
 30
0.0
 70
     1
  0
VERTEX
  8
DIK
 10
2360.336736326503
 20
-7797.820648958087
 30
0.0
  0
VERTEX
  8
DIK
 10
2437.918142813052
 20
-7860.916808647635
 30
0.0
  0
VERTEX
  8
DIK
 10
2374.82198312351
 20
-7938.498215134182
 30
0.0
  0
VERTEX
  8
DIK
 10
2297.240576636958
 20
-7875.402055444639
 30
0.0
  0
SEQEND
  8
DIK
  0
POLYLINE
  8
DIK
 66
     1
 10
0.0
 20
0.0
 30
0.0
 70
     1
  0
VERTEX
  8
DIK
 10
3213.732207678563
 20
-8491.878405543085
 30
0.0
  0
VERTEX
  8
DIK
 10
3291.313614165114
 20
-8554.974565232628
 30
0.0
  0
VERTEX
  8
DIK
 10
3228.217454475567
 20
-8632.555971719179
 30
0.0
  0
VERTEX
  8
DIK
 10
3150.636047989018
 20
-8569.459812029633
 30
0.0
  0
SEQEND
  8
DIK
  0
LINE
  8
DIK
 10
3195.434321368595
 20
-8514.377013424182
 30
0.0
 11
2419.620256503085
 21
-7883.415416528732
 31
0.0
  0
LINE
  8
DIK
 10
3168.933934298986
 20
-8546.961204148535
 30
0.0
 11
2393.119869433476
 21
-7915.999607253085
 31
0.0
  0
ARC
  8
DIK
 10
3259.765534320342
 20
-8593.765268475902
 30
0.0
 40
17.5
 50
230.87889690441
 51
50.87889690441
  0
ARC
  8
DIK
 10
2328.788656481731
 20
-7836.611352201366
 30
0.0
 40
17.5
 50
50.87889690441
 51
230.87889690441
  0
LINE
  8
DIK
 10
3046.381131827404
 20
-7066.804857472154
 30
0.0
 11
2415.419534931955
 21
-7842.618922337664
 31
0.0
  0
LINE
  8
DIK
 10
3013.796941103052
 20
-7040.304470402546
 30
0.0
 11
2382.835344207602
 21
-7816.118535268058
 31
0.0
  0
ARC
  8
DIK
 10
2336.031279880233
 20
-7906.950135289411
 30
0.0
 40
17.5
 50
140.87889690441
 51
320.87889690441
  0
ARC
  8
DIK
 10
3093.185196154775
 20
-6975.9732574508
 30
0.0
 40
17.5
 50
320.87889690441
 51
140.87889690441
  0
POLYLINE
  8
DIK
 66
     1
 10
0.0
 20
0.0
 30
0.0
 70
     1
  0
VERTEX
  8
DIK
 10
2519.67445109357
 20
-9345.273876895141
 30
0.0
  0
VERTEX
  8
DIK
 10
2597.255857580118
 20
-9408.37003658469
 30
0.0
  0
VERTEX
  8
DIK
 10
2534.159697890574
 20
-9485.951443071236
 30
0.0
  0
VERTEX
  8
DIK
 10
2456.578291404023
 20
-9422.855283381693
 30
0.0
  0
SEQEND
  8
DIK
  0
LINE
  8
DIK
 10
3139.413789005796
 20
-8605.446766656461
 30
0.0
 11
2552.619503893025
 21
-9326.953846981385
 31
0.0
  0
LINE
  8
DIK
 10
3205.718846594469
 20
-8614.258085409209
 30
0.0
 11
2574.75724969902
 21
-9390.072150274718
 31
0.0
  0
LINE
  8
DIK
 10
3173.134655870119
 20
-8587.757698339599
 30
0.0
 11
2542.173058974668
 21
-9363.57176320511
 31
0.0
  0
ARC
  8
DIK
 10
3252.52291092184
 20
-8523.426485387853
 30
0.0
 40
17.5
 50
320.87889690441
 51
140.87889690441
  0
ARC
  8
DIK
 10
2495.368994647299
 20
-9454.403363226466
 30
0.0
 40
17.5
 50
140.87889690441
 51
320.87889690441
  0
POLYLINE
  8
DIK
 66
     1
 10
0.0
 20
0.0
 30
0.0
  0
VERTEX
  8
DIK
 10
2552.619503893025
 20
-9326.953846981385
 30
0.0
  0
VERTEX
  8
DIK
 10
2564.256714866009
 20
-9336.418270934817
 30
0.0
  0
SEQEND
  8
DIK
  0
POLYLINE
  8
DIK
 66
     1
 10
0.0
 20
0.0
 30
0.0
  0
VERTEX
  8
DIK
 10
3151.050999978778
 20
-8614.911190609893
 30
0.0
  0
VERTEX
  8
DIK
 10
3139.413789005796
 20
-8605.446766656461
 30
0.0
  0
SEQEND
  8
DIK
  0
LINE
  8
DIK
 10
3195.872114149576
 20
-5588.790858730116
 30
0.0
 11
3193.198351733629
 21
-6853.788033033105
 31
0.0
  0
LINE
  8
DIK
 10
3153.872207967185
 20
-5588.702085590619
 30
0.0
 11
3151.198445551238
 21
-6853.699259893605
 31
0.0
  0
LINE
  8
DIK
 10
3195.872114149576
 20
-5588.790858730116
 30
0.0
 11
3153.872207967185
 21
-5588.702085590615
 31
0.0
  0
LINE
  8
DIK
 10
3172.573451206494
 20
-6911.642044499053
 30
0.0
 11
3109.477291516951
 21
-6989.223450985603
 31
0.0
  0
LINE
  8
DIK
 10
3139.989260482142
 20
-6885.141657429444
 30
0.0
 11
3076.893100792599
 21
-6962.723063915995
 31
0.0
  0
ARC
  8
DIK
 10
3101.198557238868
 20
-6853.593577584673
 30
0.0
 40
50.0
 50
320.87889690441
 51
359.87889690441
  0
ARC
  8
DIK
 10
3101.198557238868
 20
-6853.593577584673
 30
0.0
 40
92.0
 50
320.87889690441
 51
359.87889690441
  0
ARC
  8
DIK
 10
3175.083525676242
 20
-5488.746695535624
 30
0.0
 40
17.5
 50
359.87889690441
 51
179.87889690441
  0
LINE
  8
DIK
 10
3046.381131827404
 20
-7066.804857472154
 30
0.0
 11
2541.611854311045
 21
-7687.456109364565
 31
0.0
  0
LINE
  8
DIK
 10
3013.796941103054
 20
-7040.304470402546
 30
0.0
 11
2509.027663586692
 21
-7660.955722294955
 31
0.0
  0
LINE
  8
DIK
 10
2511.661090009473
 20
-9467.65355676127
 30
0.0
 11
2479.076899285125
 21
-9441.153169691665
 31
0.0
  0
LINE
  8
DIK
 10
3225.083413988612
 20
-5488.852377844556
 30
0.0
 11
3224.872049370752
 21
-5588.852154469295
 31
0.0
  0
LINE
  8
DIK
 10
3224.872049370752
 20
-5588.852154469295
 30
0.0
 11
3124.87227274601
 21
-5588.640789851432
 31
0.0
  0
LINE
  8
DIK
 10
3124.87227274601
 20
-5588.640789851432
 30
0.0
 11
3125.083637363872
 21
-5488.641013226692
 31
0.0
  0
LINE
  8
DIK
 10
2434.681982834887
 20
-10841.67453508664
 30
0.0
 11
2437.355745250834
 21
-9576.677360783662
 31
0.0
  0
LINE
  8
DIK
 10
2392.682076652496
 20
-10841.58576194714
 30
0.0
 11
2395.355839068443
 21
-9576.588587644161
 31
0.0
  0
LINE
  8
DIK
 10
2448.56493031993
 20
-9545.234963247821
 30
0.0
 11
2511.661090009473
 21
-9467.65355676127
 31
0.0
  0
LINE
  8
DIK
 10
2415.980739595578
 20
-9518.734576178212
 30
0.0
 11
2479.076899285121
 21
-9441.153169691665
 31
0.0
  0
ARC
  8
DIK
 10
2495.368994647299
 20
-9454.403363226466
 30
0.0
 40
17.5
 50
140.87889690441
 51
320.87889690441
  0
ARC
  8
DIK
 10
2487.355633563206
 20
-9576.783043092595
 30
0.0
 40
50.0
 50
140.87889690441
 51
179.87889690441
  0
ARC
  8
DIK
 10
2487.355633563206
 20
-9576.783043092595
 30
0.0
 40
92.0
 50
140.87889690441
 51
179.87889690441
  0
ARC
  8
DIK
 10
2413.47066512583
 20
-10941.62992514164
 30
0.0
 40
17.5
 50
179.87889690441
 51
359.87889690441
  0
LINE
  8
DIK
 10
2392.682076652496
 20
-10841.58576194714
 30
0.0
 11
2434.681982834887
 21
-10841.67453508665
 31
0.0
  0
LINE
  8
DIK
 10
2363.68214143132
 20
-10841.52446620796
 30
0.0
 11
2463.681918056063
 21
-10841.73583082582
 31
0.0
  0
LINE
  8
DIK
 10
2463.681918056063
 20
-10841.73583082582
 30
0.0
 11
2463.470553438201
 21
-10941.73560745057
 31
0.0
  0
LINE
  8
DIK
 10
2363.47077681346
 20
-10941.52424283271
 30
0.0
 11
2363.68214143132
 21
-10841.52446620796
 31
0.0
  0
LINE
  8
DIK
 10
3225.083413988612
 20
-5488.852377844556
 30
0.0
 11
3125.083637363872
 21
-5488.641013226692
 31
0.0
  0
LINE
  8
DIK
 10
2463.470553438201
 20
-10941.73560745057
 30
0.0
 11
2363.47077681346
 21
-10941.52424283271
 31
0.0
  0
POLYLINE
  8
DUN
 66
     1
 10
0.0
 20
0.0
 30
0.0
 70
     1
  0
VERTEX
  8
DUN
 10
-88.368719077698
 20
7513.440428098399
 30
0.0
  0
VERTEX
  8
DUN
 10
-88.368719077698
 20
-2753.226113655257
 30
0.0
  0
VERTEX
  8
DUN
 10
6431.197675622148
 20
-2753.226113655257
 30
0.0
  0
VERTEX
  8
DUN
 10
6431.197675622148
 20
7513.440428098399
 30
0.0
  0
SEQEND
  8
DUN
  0
POLYLINE
  8
DUN
 66
     1
 10
0.0
 20
0.0
 30
0.0
 70
     1
  0
VERTEX
  8
DUN
 10
-125.09661853861
 20
-3589.305103025903
 30
0.0
  0
VERTEX
  8
DUN
 10
-125.09661853861
 20
-13855.97164477955
 30
0.0
  0
VERTEX
  8
DUN
 10
6394.469776161237
 20
-13855.97164477955
 30
0.0
  0
VERTEX
  8
DUN
 10
6394.469776161237
 20
-3589.305103025903
 30
0.0
  0
SEQEND
  8
DUN
  0
TEXT
  8
DIK
 10
3847.587492040166
 20
-13289.89707670321
 30
0.0
 40
150.0
  1
afgerond= 31 tegels
  7
ROMANS
  0
TEXT
  8
DUN
 10
1250.344627751674
 20
8787.576774492851
 30
0.0
 40
200.0
  1
Obstakelvrijeruimte
  7
ROMANS
  0
TEXT
  8
DUN
 10
1343.555440980992
 20
-2570.506283507683
 30
0.0
 40
200.0
  1
Valdempende ondergrond
  7
ROMANS
  0
TEXT
  8
DUN
 10
1231.580394650257
 20
-13633.38733430777
 30
0.0
 40
200.0
  1
rubbertegels 1mx1m
  7
ROMANS
  0
POLYLINE
  8
STREEPLIJN
 66
     1
 10
0.0
 20
0.0
 30
0.0
 70
     1
  0
VERTEX
  8
STREEPLIJN
 10
138.802779822589
 20
-1617.944144888483
 30
0.0
  0
VERTEX
  8
STREEPLIJN
 10
138.802779822589
 20
-2617.944144888468
 30
0.0
  0
VERTEX
  8
STREEPLIJN
 10
1138.802779822589
 20
-2617.944144888468
 30
0.0
  0
VERTEX
  8
STREEPLIJN
 10
1138.802779822589
 20
-1617.944144888483
 30
0.0
  0
SEQEND
  8
STREEPLIJN
  0
POLYLINE
  8
STREEPLIJN
 66
     1
 10
0.0
 20
0.0
 30
0.0
 70
     1
  0
VERTEX
  8
STREEPLIJN
 10
65.34676426684
 20
-12699.65043575816
 30
0.0
  0
VERTEX
  8
STREEPLIJN
 10
65.34676426684
 20
-13699.65043575815
 30
0.0
  0
VERTEX
  8
STREEPLIJN
 10
1065.34676426684
 20
-13699.65043575815
 30
0.0
  0
VERTEX
  8
STREEPLIJN
 10
1065.34676426684
 20
-12699.65043575816
 30
0.0
  0
SEQEND
  8
STREEPLIJN
  0
INSERT
  8
STREEPLIJN
  2
*X54
 10
-36867.34351383111
 20
-34771.10698720466
 30
0.0
1001
ACAD
1000
HATCH
1002
{
1070
    16
1000
ANSI31
1040
40.0
1040
0.0
1002
}
  0
LINE
  8
STREEPLIJN
 10
1191.313614165114
 20
-4985.677869541428
 30
0.0
 11
5191.313614165115
 21
-4985.677869541428
 31
0.0
  0
LINE
  8
STREEPLIJN
 10
191.313614165114
 20
-5985.677869541426
 30
0.0
 11
5191.313614165115
 21
-5985.677869541427
 31
0.0
  0
LINE
  8
STREEPLIJN
 10
191.313614165114
 20
-6985.677869541427
 30
0.0
 11
5191.313614165115
 21
-6985.677869541427
 31
0.0
  0
LINE
  8
STREEPLIJN
 10
191.313614165114
 20
-7985.677869541427
 30
0.0
 11
5191.313614165115
 21
-7985.677869541427
 31
0.0
  0
LINE
  8
STREEPLIJN
 10
191.313614165114
 20
-8985.677869541424
 30
0.0
 11
5191.313614165115
 21
-8985.677869541426
 31
0.0
  0
LINE
  8
STREEPLIJN
 10
191.313614165114
 20
-9985.677869541428
 30
0.0
 11
5191.313614165115
 21
-9985.677869541426
 31
0.0
  0
LINE
  8
STREEPLIJN
 10
191.313614165114
 20
-10985.67786954142
 30
0.0
 11
5191.313614165115
 21
-10985.67786954142
 31
0.0
  0
LINE
  8
STREEPLIJN
 10
191.313614165114
 20
-11485.67786954142
 30
0.0
 11
4191.313614165114
 21
-11485.67786954142
 31
0.0
  0
LINE
  8
STREEPLIJN
 10
5191.313614165115
 20
-10985.67786954142
 30
0.0
 11
5191.313614165115
 21
-4985.677869541428
 31
0.0
  0
LINE
  8
STREEPLIJN
 10
4191.313614165114
 20
-11485.67786954142
 30
0.0
 11
4191.313614165114
 21
-4985.677869541428
 31
0.0
  0
LINE
  8
STREEPLIJN
 10
3191.313614165114
 20
-11485.67786954142
 30
0.0
 11
3191.313614165114
 21
-4985.677869541428
 31
0.0
  0
LINE
  8
STREEPLIJN
 10
2191.313614165114
 20
-11485.67786954142
 30
0.0
 11
2191.313614165114
 21
-4985.677869541428
 31
0.0
  0
LINE
  8
STREEPLIJN
 10
1191.313614165114
 20
-11485.67786954142
 30
0.0
 11
1191.313614165114
 21
-4985.677869541428
 31
0.0
  0
LINE
  8
STREEPLIJN
 10
191.313614165114
 20
-11485.67786954142
 30
0.0
 11
191.313614165114
 21
-5985.677869541427
 31
0.0
  0
TEXT
  8
DUN
 10
1652.256979329315
 20
15823.10192892165
 30
0.0
 40
160.0
  1
Wico Comfa AK715
  7
ROMANS
  0
TEXT
  8
DUN
 10
1212.717858179369
 20
-1121.16028946183
 30
0.0
 40
160.0
  1
Wico Comfa AK715
  7
ROMANS
  0
TEXT
  8
DUN
 10
2648.905184941366
 20
-10770.6031505584
 30
0.0
 40
160.0
  1
Wico Comfa AK715
  7
ROMANS
  0
DIMENSION
  8
DUN
  2
*D58
 10
2434.901303996267
 20
9757.310688864579
 30
0.0
 11
2364.901303996266
 21
10498.61354956437
 31
0.0
 12
23.123215447027
 22
-762.813756258138
 32
0.0
  1
1500
 13
2436.556891764731
 23
11239.91641026417
 33
0.0
 14
2486.593768885228
 24
9757.310688864579
 34
0.0
 50
90.0
  3
STANDAARD
  0
DIMENSION
  8
DUN
  2
*D59
 10
3193.541749871992
 20
18210.16903194029
 30
0.0
 11
3123.541749871992
 21
17460.23431635991
 31
0.0
 12
23.123215447027
 22
-762.813756258138
 32
0.0
 13
3198.20674112327
 23
16710.29960077952
 33
0.0
 14
3259.980820856264
 24
18210.16903194029
 34
0.0
 50
90.0
  3
STANDAARD
  0
POLYLINE
  8
DUN
 66
     1
 10
0.0
 20
0.0
 30
0.0
 70
     1
  0
VERTEX
  8
DUN
 10
6429.893058284364
 20
8534.9863822727
 30
0.0
  0
VERTEX
  8
DUN
 10
6429.893058284364
 20
19232.61994514384
 30
0.0
  0
VERTEX
  8
DUN
 10
-94.693151104816
 20
19232.61994514384
 30
0.0
  0
VERTEX
  8
DUN
 10
-94.693151104816
 20
8534.9863822727
 30
0.0
  0
SEQEND
  8
DUN
  0
DIMENSION
  8
DUN
  2
*D60
 10
5214.436829612142
 20
18724.07744097175
 30
0.0
 11
2817.400310848063
 21
18794.07744097175
 31
0.0
 13
420.363792083985
 23
16713.55086582654
 33
0.0
 14
5214.436829612142
 24
14862.84838775546
 34
0.0
  3
STANDAARD
  0
ENDSEC
  0
EOF
