  0
SECTION
  2
HEADER
  9
$ACADVER
  1
AC1009
  9
$INSBASE
 10
0.0
 20
0.0
 30
0.0
  9
$EXTMIN
 10
-2167.932709507441
 20
-9836.100386235777
 30
0.0
  9
$EXTMAX
 10
287.210725997252
 20
-3427.879633067774
 30
0.0
  9
$LIMMIN
 10
0.0
 20
0.0
  9
$LIMMAX
 10
420.0
 20
297.0
  9
$ORTHOMODE
 70
     1
  9
$REGENMODE
 70
     1
  9
$FILLMODE
 70
     1
  9
$QTEXTMODE
 70
     0
  9
$MIRRTEXT
 70
     1
  9
$DRAGMODE
 70
     2
  9
$LTSCALE
 40
180.0
  9
$OSMODE
 70
   512
  9
$ATTMODE
 70
     1
  9
$TEXTSIZE
 40
120.0
  9
$TRACEWID
 40
0.05
  9
$TEXTSTYLE
  7
ROMANS
  9
$CLAYER
  8
DUN
  9
$CELTYPE
  6
BYLAYER
  9
$CECOLOR
 62
   256
  9
$DIMSCALE
 40
0.0
  9
$DIMASZ
 40
80.0
  9
$DIMEXO
 40
0.0
  9
$DIMDLI
 40
7.0
  9
$DIMRND
 40
1.0
  9
$DIMDLE
 40
0.0
  9
$DIMEXE
 40
1.0
  9
$DIMTP
 40
0.0
  9
$DIMTM
 40
0.0
  9
$DIMTXT
 40
80.0
  9
$DIMCEN
 40
1.75
  9
$DIMTSZ
 40
0.0
  9
$DIMTOL
 70
     0
  9
$DIMLIM
 70
     0
  9
$DIMTIH
 70
     0
  9
$DIMTOH
 70
     0
  9
$DIMSE1
 70
     0
  9
$DIMSE2
 70
     0
  9
$DIMTAD
 70
     1
  9
$DIMZIN
 70
     8
  9
$DIMBLK
  1

  9
$DIMASO
 70
     1
  9
$DIMSHO
 70
     0
  9
$DIMPOST
  1

  9
$DIMAPOST
  1

  9
$DIMALT
 70
     0
  9
$DIMALTD
 70
     2
  9
$DIMALTF
 40
25.4
  9
$DIMLFAC
 40
1.0
  9
$DIMTOFL
 70
     1
  9
$DIMTVP
 40
0.0
  9
$DIMTIX
 70
     0
  9
$DIMSOXD
 70
     0
  9
$DIMSAH
 70
     0
  9
$DIMBLK1
  1

  9
$DIMBLK2
  1

  9
$DIMSTYLE
  2
STANDAARD
  9
$DIMCLRD
 70
   256
  9
$DIMCLRE
 70
   256
  9
$DIMCLRT
 70
     6
  9
$DIMTFAC
 40
0.03125
  9
$DIMGAP
 40
0.0
  9
$LUNITS
 70
     2
  9
$LUPREC
 70
     4
  9
$SKETCHINC
 40
0.1
  9
$FILLETRAD
 40
10.0
  9
$AUNITS
 70
     0
  9
$AUPREC
 70
     0
  9
$MENU
  1
acad
  9
$ELEVATION
 40
0.0
  9
$PELEVATION
 40
0.0
  9
$THICKNESS
 40
0.0
  9
$LIMCHECK
 70
     0
  9
$BLIPMODE
 70
     1
  9
$CHAMFERA
 40
0.0
  9
$CHAMFERB
 40
0.0
  9
$SKPOLY
 70
     0
  9
$TDCREATE
 40
2450785.698476736
  9
$TDUPDATE
 40
2453760.684114814
  9
$TDINDWG
 40
0.3902769676
  9
$TDUSRTIMER
 40
0.3902769676
  9
$USRTIMER
 70
     1
  9
$ANGBASE
 50
0.0
  9
$ANGDIR
 70
     0
  9
$PDMODE
 70
     0
  9
$PDSIZE
 40
0.0
  9
$PLINEWID
 40
0.0
  9
$COORDS
 70
     2
  9
$SPLFRAME
 70
     0
  9
$SPLINETYPE
 70
     6
  9
$SPLINESEGS
 70
     8
  9
$ATTDIA
 70
     1
  9
$ATTREQ
 70
     1
  9
$HANDLING
 70
     0
  9
$HANDSEED
  5
0
  9
$SURFTAB1
 70
     6
  9
$SURFTAB2
 70
     6
  9
$SURFTYPE
 70
     6
  9
$SURFU
 70
     6
  9
$SURFV
 70
     6
  9
$UCSNAME
  2

  9
$UCSORG
 10
0.0
 20
0.0
 30
0.0
  9
$UCSXDIR
 10
1.0
 20
0.0
 30
0.0
  9
$UCSYDIR
 10
0.0
 20
1.0
 30
0.0
  9
$PUCSNAME
  2

  9
$PUCSORG
 10
0.0
 20
0.0
 30
0.0
  9
$PUCSXDIR
 10
1.0
 20
0.0
 30
0.0
  9
$PUCSYDIR
 10
0.0
 20
1.0
 30
0.0
  9
$USERI1
 70
     0
  9
$USERI2
 70
     0
  9
$USERI3
 70
     0
  9
$USERI4
 70
     0
  9
$USERI5
 70
     0
  9
$USERR1
 40
0.0
  9
$USERR2
 40
0.0
  9
$USERR3
 40
0.0
  9
$USERR4
 40
0.0
  9
$USERR5
 40
0.0
  9
$WORLDVIEW
 70
     1
  9
$SHADEDGE
 70
     3
  9
$SHADEDIF
 70
    70
  9
$TILEMODE
 70
     1
  9
$MAXACTVP
 70
    16
  9
$PINSBASE
 10
0.0
 20
0.0
 30
0.0
  9
$PLIMCHECK
 70
     0
  9
$PEXTMIN
 10
0.0
 20
0.0
 30
0.0
  9
$PEXTMAX
 10
420.0
 20
297.0
 30
0.0
  9
$PLIMMIN
 10
0.0
 20
0.0
  9
$PLIMMAX
 10
12.0
 20
9.0
  9
$UNITMODE
 70
     0
  9
$VISRETAIN
 70
     0
  9
$PLINEGEN
 70
     0
  9
$PSLTSCALE
 70
     0
  9
$TREEDEPTH
 70
  3020
  9
$DWGCODEPAGE
  3
iso8859-1
  0
ENDSEC
  0
SECTION
  2
TABLES
  0
TABLE
  2
VPORT
 70
     2
  0
VPORT
  2
*ACTIVE
 70
     0
 10
0.0
 20
0.0
 11
1.0
 21
1.0
 12
2395.605343555966
 22
-6631.990009651777
 13
0.0
 23
0.0
 14
10.0
 24
10.0
 15
10.0
 25
10.0
 16
0.0
 26
0.0
 36
1.0
 17
0.0
 27
0.0
 37
0.0
 40
6408.220753168005
 41
1.424276169265
 42
50.0
 43
0.0
 44
0.0
 50
0.0
 51
0.0
 71
     0
 72
 20000
 73
     1
 74
     0
 75
     0
 76
     0
 77
     0
 78
     0
  0
ENDTAB
  0
TABLE
  2
LTYPE
 70
    10
  0
LTYPE
  2
CONTINUOUS
 70
    64
  3
Solid line
 72
    65
 73
     0
 40
0.0
  0
LTYPE
  2
CENTER
 70
    64
  3
____ _ ____ _ ____ _ ____ _ ____ _ ____ _ ____
 72
    65
 73
     4
 40
2.0
 49
1.25
 49
-0.25
 49
0.25
 49
-0.25
  0
LTYPE
  2
PHANTOM
 70
    64
  3
_____ _ _ _____ _ _ _____ _ _ _____ _ _ ____
 72
    65
 73
     6
 40
2.5
 49
1.25
 49
-0.25
 49
0.25
 49
-0.25
 49
0.25
 49
-0.25
  0
LTYPE
  2
DASHED
 70
    64
  3
__ __ __ __ __ __ __ __ __ __ __ __ __ __ __
 72
    65
 73
     2
 40
0.75
 49
0.5
 49
-0.25
  0
LTYPE
  2
CENTER2
 70
     0
  3
___ _ ___ _ ___ _ ___ _ ___ _ ___ _ ___ _ ___ _
 72
    65
 73
     4
 40
1.125
 49
0.75
 49
-0.125
 49
0.125
 49
-0.125
  0
LTYPE
  2
CENTERX2
 70
     0
  3
________  __  ________  __  ________  __  _____
 72
    65
 73
     4
 40
4.0
 49
2.5
 49
-0.5
 49
0.5
 49
-0.5
  0
LTYPE
  2
DASHED2
 70
     0
  3
_ _ _ _ _ _ _ _ _ _ _ _ _ _ _ _ _ _ _ _ _ _ _ _
 72
    65
 73
     2
 40
0.375
 49
0.25
 49
-0.125
  0
LTYPE
  2
DASHEDX2
 70
    64
  3
____  ____  ____  ____  ____  ____  ____  ____ 
 72
    65
 73
     2
 40
1.5
 49
1.0
 49
-0.5
  0
LTYPE
  2
PHANTOM2
 70
     0
  3
___ _ _ ___ _ _ ___ _ _ ___ _ _ ___ _ _ ___ _ _
 72
    65
 73
     6
 40
1.25
 49
0.625
 49
-0.125
 49
0.125
 49
-0.125
 49
0.125
 49
-0.125
  0
LTYPE
  2
PHANTOMX2
 70
     0
  3
____________    ____    ____    ____________   
 72
    65
 73
     6
 40
5.0
 49
2.5
 49
-0.5
 49
0.5
 49
-0.5
 49
0.5
 49
-0.5
  0
ENDTAB
  0
TABLE
  2
LAYER
 70
     9
  0
LAYER
  2
0
 70
    64
 62
     7
  6
CONTINUOUS
  0
LAYER
  2
DIK
 70
    64
 62
     2
  6
CONTINUOUS
  0
LAYER
  2
DUN
 70
    64
 62
     6
  6
CONTINUOUS
  0
LAYER
  2
HARTLIJN
 70
    64
 62
     1
  6
CENTER
  0
LAYER
  2
STREEPLIJN
 70
    64
 62
     5
  6
DASHED
  0
LAYER
  2
HARTLIJN-DUBBEL
 70
    64
 62
     1
  6
PHANTOM
  0
LAYER
  2
HARTLIJN-DIK
 70
     0
 62
     2
  6
CENTER
  0
LAYER
  2
DEFPOINTS
 70
    64
 62
     7
  6
CONTINUOUS
  0
LAYER
  2
MATEN
 70
    64
 62
     8
  6
CONTINUOUS
  0
ENDTAB
  0
TABLE
  2
STYLE
 70
     4
  0
STYLE
  2
STANDARD
 70
    64
 40
0.0
 41
1.0
 50
0.0
 71
     0
 42
0.2
  3
txt
  4

  0
STYLE
  2
ROMANS
 70
    64
 40
0.0
 41
1.0
 50
0.0
 71
     0
 42
120.0
  3
romans
  4

  0
STYLE
  2
ROMAND
 70
     0
 40
0.0
 41
1.0
 50
0.0
 71
     0
 42
5.591715976331
  3
romand
  4

  0
STYLE
  2
SANSSERIFBOLD
 70
    64
 40
10.0
 41
1.0
 50
0.0
 71
     0
 42
10.0
  3
sasb____.pfb
  4

  0
ENDTAB
  0
TABLE
  2
VIEW
 70
     0
  0
ENDTAB
  0
TABLE
  2
UCS
 70
     0
  0
ENDTAB
  0
TABLE
  2
APPID
 70
     1
  0
APPID
  2
ACAD
 70
    64
  0
ENDTAB
  0
TABLE
  2
DIMSTYLE
 70
     2
  0
DIMSTYLE
  2
STANDAARD
 70
    64
  3

  4

  5

  6

  7

 40
0.0
 41
80.0
 42
0.0
 43
7.0
 44
1.0
 45
1.0
 46
0.0
 47
0.0
 48
0.0
140
80.0
141
1.75
142
0.0
143
25.4
144
1.0
145
0.0
146
0.03125
147
0.0
 71
     0
 72
     0
 73
     0
 74
     0
 75
     0
 76
     0
 77
     1
 78
     8
170
     0
171
     2
172
     1
173
     0
174
     0
175
     0
176
   256
177
   256
178
     6
  0
DIMSTYLE
  2
TOLERANTIE
 70
     0
  3

  4

  5
PIJLP
  6

  7

 40
0.0
 41
3.5
 42
0.0
 43
7.0
 44
1.0
 45
0.1
 46
0.0
 47
0.3
 48
0.7
140
3.5
141
1.75
142
0.0
143
25.4
144
-1.0
145
0.0
146
0.714285714286
147
0.0
 71
     1
 72
     0
 73
     0
 74
     0
 75
     0
 76
     0
 77
     1
 78
     8
170
     0
171
     2
172
     1
173
     0
174
     0
175
     0
176
   256
177
   256
178
   256
  0
ENDTAB
  0
ENDSEC
  0
SECTION
  2
BLOCKS
  0
BLOCK
  8
0
  2
TEKENH
 70
    64
 10
0.0
 20
0.0
 30
0.0
  3
TEKENH
  0
LINE
  8
DUN
 10
0.0
 20
15.0
 30
0.0
 11
-105.0
 21
15.0
 31
0.0
  0
LINE
  8
DUN
 10
0.0
 20
29.0
 30
0.0
 11
-180.0
 21
29.0
 31
0.0
  0
LINE
  8
DUN
 10
-45.0
 20
35.0
 30
0.0
 11
-145.0
 21
35.0
 31
0.0
  0
LINE
  8
DUN
 10
-45.0
 20
41.0
 30
0.0
 11
-145.0
 21
41.0
 31
0.0
  0
LINE
  8
DUN
 10
0.0
 20
47.0
 30
0.0
 11
-180.0
 21
47.0
 31
0.0
  0
LINE
  8
DUN
 10
0.0
 20
54.0
 30
0.0
 11
-180.0
 21
54.0
 31
0.0
  0
LINE
  8
DIK
 10
-180.0
 20
5.0
 30
0.0
 11
0.0
 21
5.0
 31
0.0
  0
LINE
  8
DIK
 10
-180.0
 20
57.0
 30
0.0
 11
-180.0
 21
0.0
 31
0.0
  0
TEXT
  8
DUN
 10
-143.75
 20
36.25
 30
0.0
 40
2.5
  1
Maateenheid
  7
ROMANS
  0
TEXT
  8
DIK
 10
-148.440362545074
 20
19.340461725786
 30
0.0
 40
2.5
  1
SECTOR TECHNIEK
  7
ROMANS
  0
TEXT
  8
DIK
 10
-148.440362545074
 20
23.388080773405
 30
0.0
 40
2.5
  1
HAAGSE HOGESCHOOL
  7
ROMANS
  0
TEXT
  8
DIK
 10
-148.440362545074
 20
13.066876305898
 30
0.0
 40
2.5
  1
AFDELING INDUSTRIEEL
  7
ROMANS
  0
TEXT
  8
DIK
 10
-148.440362545074
 20
9.019257258279
 30
0.0
 40
2.5
  1
PRODUKTONTWERPEN
  7
ROMANS
  0
LINE
  8
DUN
 10
-155.0
 20
57.0
 30
0.0
 11
-155.0
 21
47.0
 31
0.0
  0
LINE
  8
DUN
 10
-167.5
 20
57.0
 30
0.0
 11
-167.5
 21
47.0
 31
0.0
  0
LINE
  8
HARTLIJN
 10
-176.886088794123
 20
35.230609663178
 30
0.0
 11
-146.820300421814
 21
35.230609663178
 31
0.0
  0
LINE
  8
DIK
 10
-162.450142380332
 20
36.730609663178
 30
0.0
 11
-152.450142380332
 21
38.730609663178
 31
0.0
  0
LINE
  8
DIK
 10
-152.450142380332
 20
31.730609663178
 30
0.0
 11
-162.450142380332
 21
33.730609663178
 31
0.0
  0
TEXT
  8
DUN
 10
-178.75
 20
43.25
 30
0.0
 40
2.5
  1
Amerik. proj.
  7
ROMANS
  0
CIRCLE
  8
DIK
 10
-155.16399605453
 20
19.101995476601
 30
0.0
 40
2.738926691931
  0
ARC
  8
DIK
 10
-155.16399605453
 20
19.101995476601
 30
0.0
 40
5.08244644145
 50
217.58615827382
 51
136.945859517254
  0
LINE
  8
DIK
 10
-160.606534081057
 20
13.81954903515
 30
0.0
 11
-149.881549613079
 21
13.81954903515
 31
0.0
  0
LINE
  8
DIK
 10
-160.738999640542
 20
24.384441918051
 30
0.0
 11
-149.881549613079
 21
24.384441918051
 31
0.0
  0
POLYLINE
  8
DIK
 66
     1
 10
0.0
 20
0.0
 30
0.0
  0
VERTEX
  8
DIK
 10
-173.299933916411
 20
19.893020206338
 30
0.0
 42
0.01519296989
  0
VERTEX
  8
DIK
 10
-173.80806199825
 20
19.191293308404
 30
0.0
 42
0.04059810252
  0
VERTEX
  8
DIK
 10
-174.638507094833
 20
17.724574301424
 30
0.0
 42
0.106995455646
 70
     2
 50
254.39619560055
  0
SEQEND
  8
DIK
  0
POLYLINE
  8
DIK
 66
     1
 10
0.0
 20
0.0
 30
0.0
  0
VERTEX
  8
DIK
 10
-174.369010352572
 20
10.671836157203
 30
0.0
 42
0.068010394449
  0
VERTEX
  8
DIK
 10
-173.430811033457
 20
9.820574846878
 30
0.0
 42
0.106995455646
  0
SEQEND
  8
DIK
  0
LINE
  8
DIK
 10
-173.430811033457
 20
9.820574846878
 30
0.0
 11
-175.038295632455
 21
7.779878286816
 31
0.0
  0
LINE
  8
DIK
 10
-175.665796239655
 20
21.060062653769
 30
0.0
 11
-173.299933916411
 21
19.893020206338
 31
0.0
  0
POLYLINE
  8
DIK
 66
     1
 10
0.0
 20
0.0
 30
0.0
  0
VERTEX
  8
DIK
 10
-175.06979071136
 20
16.637763287061
 30
0.0
 42
0.012293677113
  0
VERTEX
  8
DIK
 10
-175.219344929091
 20
16.148974448758
 30
0.0
 42
0.106995455646
 70
     2
 50
254.39619560055
  0
VERTEX
  8
DIK
 10
-175.408142861391
 20
12.961273310181
 30
0.0
 42
0.136872673305
 50
254.39619560055
  0
VERTEX
  8
DIK
 10
-174.369010352572
 20
10.671836157203
 30
0.0
 42
0.136872673305
  0
SEQEND
  8
DIK
  0
POLYLINE
  8
DIK
 66
     1
 10
0.0
 20
0.0
 30
0.0
  0
VERTEX
  8
DIK
 10
-177.533246919684
 20
17.450717667179
 30
0.0
 42
0.01215599776
  0
VERTEX
  8
DIK
 10
-177.717860069696
 20
16.846751246235
 30
0.0
 42
0.106995455646
 70
     2
 50
254.39619560055
  0
VERTEX
  8
DIK
 10
-177.971556021955
 20
12.563299271861
 30
0.0
 42
0.136872673305
 50
254.39619560055
  0
VERTEX
  8
DIK
 10
-176.356223304524
 20
9.00436650215
 30
0.0
 42
0.136872673305
  0
SEQEND
  8
DIK
  0
POLYLINE
  8
DIK
 66
     1
 10
0.0
 20
0.0
 30
0.0
  0
VERTEX
  8
DIK
 10
-176.356223304524
 20
9.00436650215
 30
0.0
 42
0.062080649113
  0
VERTEX
  8
DIK
 10
-175.038295632455
 20
7.779878286816
 30
0.0
 42
0.106995455646
  0
SEQEND
  8
DIK
  0
POLYLINE
  8
DIK
 66
     1
 10
0.0
 20
0.0
 30
0.0
  0
VERTEX
  8
DIK
 10
-175.665796239655
 20
21.060062653769
 30
0.0
 42
0.007460633215
  0
VERTEX
  8
DIK
 10
-175.954427875157
 20
20.648202327313
 30
0.0
 42
0.041760377079
  0
VERTEX
  8
DIK
 10
-177.017316923261
 20
18.760741908652
 30
0.0
 42
0.106995455646
 70
     2
 50
254.39619560055
  0
SEQEND
  8
DIK
  0
LINE
  8
DIK
 10
-175.06979071136
 20
16.637763287061
 30
0.0
 11
-177.533246919684
 21
17.450717667179
 31
0.0
  0
LINE
  8
DIK
 10
-177.017316923261
 20
18.760741908652
 30
0.0
 11
-174.638507094833
 21
17.724574301424
 31
0.0
  0
ARC
  8
DIK
 10
-166.836551726683
 20
17.489108830784
 30
0.0
 40
3.024136079487
 50
270.0
 51
90.0
  0
LINE
  8
DIK
 10
-168.670154683362
 20
20.513244910271
 30
0.0
 11
-168.670154683362
 21
12.447690434973
 31
0.0
  0
POLYLINE
  8
DIK
 66
     1
 10
0.0
 20
0.0
 30
0.0
  0
VERTEX
  8
DIK
 10
-160.606534081057
 20
13.81954903515
 30
0.0
 42
0.020212941293
  0
VERTEX
  8
DIK
 10
-159.92129908168
 20
14.746139761985
 30
0.0
 42
0.034969919681
  0
VERTEX
  8
DIK
 10
-159.191514773802
 20
16.001938251947
 30
0.0
 42
0.106995455646
 70
     2
 50
74.39619560055
  0
SEQEND
  8
DIK
  0
LINE
  8
DIK
 10
-166.836551726683
 20
14.464972751297
 30
0.0
 11
-166.836551726683
 21
12.447690434973
 31
0.0
  0
LINE
  8
DIK
 10
-168.670154683362
 20
12.447690434973
 30
0.0
 11
-166.836551726683
 21
12.447690434973
 31
0.0
  0
ARC
  8
DIK
 10
-166.836551726683
 20
17.489108830784
 30
0.0
 40
1.190136079487
 50
270.0
 51
90.0
  0
POLYLINE
  8
DIK
 66
     1
 10
0.0
 20
0.0
 30
0.0
  0
VERTEX
  8
DIK
 10
-164.821453945582
 20
25.51055579841
 30
0.0
 42
0.077262734149
 70
     2
 50
185.60380439945
  0
VERTEX
  8
DIK
 10
-168.042895588918
 20
24.62734996957
 30
0.0
 42
0.050945521512
 50
185.60380439945
  0
VERTEX
  8
DIK
 10
-170.636781555084
 20
23.129724656625
 30
0.0
 42
0.069190866296
  0
SEQEND
  8
DIK
  0
POLYLINE
  8
DIK
 66
     1
 10
0.0
 20
0.0
 30
0.0
  0
VERTEX
  8
DIK
 10
-164.816465222912
 20
25.031365508669
 30
0.0
 42
0.076071376639
 70
     2
 50
185.60380439945
  0
VERTEX
  8
DIK
 10
-167.847785840809
 20
24.192558833828
 30
0.0
 42
0.048801187094
 50
185.60380439945
  0
VERTEX
  8
DIK
 10
-170.258569566301
 20
22.81436839439
 30
0.0
 42
0.069190866296
  0
SEQEND
  8
DIK
  0
LINE
  8
DIK
 10
-166.836551726683
 20
18.679244910271
 30
0.0
 11
-166.836551726683
 21
16.298972751297
 31
0.0
  0
LINE
  8
DIK
 10
-166.836551726683
 20
20.513244910271
 30
0.0
 11
-168.670154683362
 21
20.513244910271
 31
0.0
  0
LINE
  8
DIK
 10
-170.636781555084
 20
23.129724656625
 30
0.0
 11
-170.258569566301
 21
22.81436839439
 31
0.0
  0
LINE
  8
DIK
 10
-164.821453945582
 20
25.51055579841
 30
0.0
 11
-164.816465222912
 21
25.031365508669
 31
0.0
  0
POLYLINE
  8
DIK
 66
     1
 10
0.0
 20
0.0
 30
0.0
  0
VERTEX
  8
DIK
 10
-158.877785079489
 20
22.571726432785
 30
0.0
 42
0.045257321946
 50
74.39619560055
  0
VERTEX
  8
DIK
 10
-159.360350727358
 20
23.265596913186
 30
0.0
 42
0.095750765923
  0
VERTEX
  8
DIK
 10
-160.738999640542
 20
24.384441918051
 30
0.0
 42
0.106995455646
  0
SEQEND
  8
DIK
  0
TEXT
  8
DUN
 10
-178.75
 20
48.25
 30
0.0
 40
2.5
  1
Pos
  7
ROMANS
  0
CIRCLE
  8
DIK
 10
-172.011475615595
 20
35.230609663178
 30
0.0
 40
3.5
  0
LINE
  8
HARTLIJN
 10
-172.011475615595
 20
40.304753886429
 30
0.0
 11
-172.011475615595
 21
30.156465439926
 31
0.0
  0
CIRCLE
  8
DIK
 10
-172.011475615595
 20
35.230609663178
 30
0.0
 40
1.5
  0
LINE
  8
DIK
 10
-162.450142380332
 20
35.230609663178
 30
0.0
 11
-162.450142380332
 21
36.730609663178
 31
0.0
  0
LINE
  8
DIK
 10
-162.450142380332
 20
35.230609663178
 30
0.0
 11
-162.450142380332
 21
33.730609663178
 31
0.0
  0
TEXT
  8
DUN
 10
-166.25
 20
48.25
 30
0.0
 40
2.5
  1
Aant.
  7
ROMANS
  0
LINE
  8
DIK
 10
-149.881549613079
 20
24.384441918051
 30
0.0
 11
-149.881549613079
 21
13.81954903515
 31
0.0
  0
TEXT
  8
DUN
 10
-143.75
 20
30.25
 30
0.0
 40
2.5
  1
Datum
  7
ROMANS
  0
TEXT
  8
DUN
 10
-153.75
 20
48.25
 30
0.0
 40
2.5
  1
Benaming
  7
ROMANS
  0
TEXT
  8
DUN
 10
-143.75
 20
42.25
 30
0.0
 40
2.5
  1
Schaal
  7
ROMANS
  0
LINE
  8
DUN
 10
-145.0
 20
47.0
 30
0.0
 11
-145.0
 21
29.0
 31
0.0
  0
LINE
  8
DIK
 10
-152.450142380332
 20
38.730609663178
 30
0.0
 11
-152.450142380332
 21
31.730609663178
 31
0.0
  0
LINE
  8
DUN
 10
-105.0
 20
57.0
 30
0.0
 11
-105.0
 21
5.0
 31
0.0
  0
LINE
  8
DUN
 10
-80.0
 20
57.0
 30
0.0
 11
-80.0
 21
47.0
 31
0.0
  0
TEXT
  8
DUN
 10
-103.75
 20
48.25
 30
0.0
 40
2.5
  1
Materiaal
  7
ROMANS
  0
TEXT
  8
DUN
 10
-103.75
 20
42.25
 30
0.0
 40
2.5
  1
Getekend
  7
ROMANS
  0
TEXT
  8
DUN
 10
-103.75
 20
36.25
 30
0.0
 40
2.5
  1
Semester
  7
ROMANS
  0
TEXT
  8
DUN
 10
-103.75
 20
11.25
 30
0.0
 40
2.5
  1
Opdracht
  7
ROMANS
  0
TEXT
  8
DUN
 10
-103.75
 20
25.25
 30
0.0
 40
2.5
  1
Benaming
  7
ROMANS
  0
TEXT
  8
DUN
 10
-103.75
 20
30.25
 30
0.0
 40
2.5
  1
Gezien
  7
ROMANS
  0
TEXT
  8
DUN
 10
-78.75
 20
48.25
 30
0.0
 40
2.5
  1
Afmetingen
  7
ROMANS
  0
LINE
  8
DUN
 10
-40.0
 20
57.0
 30
0.0
 11
-40.0
 21
47.0
 31
0.0
  0
TEXT
  8
DUN
 10
-43.75
 20
42.25
 30
0.0
 40
2.5
  1
Ruwheid NEN 3634
  7
ROMANS
  0
TEXT
  8
DUN
 10
-43.75
 20
36.25
 30
0.0
 40
2.5
  1
Maattol. NEN 406
  7
ROMANS
  0
TEXT
  8
DUN
 10
-43.75
 20
30.25
 30
0.0
 40
2.5
  1
Vorm/pl.tol NEN 1101
  7
ROMANS
  0
TEXT
  8
DUN
 10
-38.75
 20
48.25
 30
0.0
 40
2.5
  1
Opmerking
  7
ROMANS
  0
LINE
  8
DUN
 10
-55.0
 20
15.0
 30
0.0
 11
-55.0
 21
5.0
 31
0.0
  0
TEXT
  8
DUN
 10
-53.75
 20
11.25
 30
0.0
 40
2.5
  1
Tek.nr.
  7
ROMANS
  0
LINE
  8
DUN
 10
-45.0
 20
47.0
 30
0.0
 11
-45.0
 21
29.0
 31
0.0
  0
LINE
  8
DUN
 10
-12.5
 20
5.0
 30
0.0
 11
-12.5
 21
15.0
 31
0.0
  0
POINT
  8
DUN
 10
0.0
 20
5.0
 30
0.0
  0
POINT
  8
DIK
 10
0.0
 20
5.0
 30
0.0
  0
ENDBLK
  8
0
  0
BLOCK
  8
0
  2
REGEL
 70
     2
 10
0.0
 20
0.0
 30
0.0
  3
REGEL
  0
ATTDEF
  8
DUN
 10
-178.75
 20
1.25
 30
0.0
 40
2.5
  1

  3

  2
POS.NR.
 70
     0
  7
ROMANS
  0
ATTDEF
  8
DUN
 10
-166.25
 20
1.25
 30
0.0
 40
2.5
  1

  3

  2
AANTAL
 70
     0
  7
ROMANS
  0
ATTDEF
  8
DUN
 10
-153.75
 20
1.25
 30
0.0
 40
2.5
  1

  3

  2
BENAMING
 70
     0
  7
ROMANS
  0
ATTDEF
  8
DUN
 10
-103.75
 20
1.25
 30
0.0
 40
2.5
  1

  3

  2
MATERIAAL
 70
     0
  7
ROMANS
  0
ATTDEF
  8
DUN
 10
-78.75
 20
1.25
 30
0.0
 40
2.5
  1

  3

  2
AFMETINGEN
 70
     0
  7
ROMANS
  0
ATTDEF
  8
DUN
 10
-38.75
 20
1.25
 30
0.0
 40
2.5
  1

  3

  2
OPMERKINGEN
 70
     0
  7
ROMANS
  0
LINE
  8
DUN
 10
0.0
 20
5.0
 30
0.0
 11
-180.0
 21
5.0
 31
0.0
  0
LINE
  8
DUN
 10
-40.0
 20
5.0
 30
0.0
 11
-40.0
 21
0.0
 31
0.0
  0
LINE
  8
DUN
 10
-80.0
 20
5.0
 30
0.0
 11
-80.0
 21
0.0
 31
0.0
  0
LINE
  8
DUN
 10
-105.0
 20
5.0
 30
0.0
 11
-105.0
 21
0.0
 31
0.0
  0
LINE
  8
DUN
 10
-155.0
 20
5.0
 30
0.0
 11
-155.0
 21
0.0
 31
0.0
  0
LINE
  8
DUN
 10
-167.5
 20
5.0
 30
0.0
 11
-167.5
 21
0.0
 31
0.0
  0
LINE
  8
DIK
 10
-180.0
 20
5.0
 30
0.0
 11
-180.0
 21
0.0
 31
0.0
  0
ENDBLK
  8
0
  0
BLOCK
  8
0
  2
A0L
 70
     2
 10
0.0
 20
0.0
 30
0.0
  3
A0L
  0
LINE
  8
DUN
 10
0.0
 20
841.0
 30
0.0
 11
-1189.0
 21
841.0
 31
0.0
  0
LINE
  8
DUN
 10
-1189.0
 20
0.0
 30
0.0
 11
0.0
 21
0.0
 31
0.0
  0
POLYLINE
  8
DIK
 66
     1
 10
0.0
 20
0.0
 30
0.0
 70
     1
  0
VERTEX
  8
DIK
 10
-1169.0
 20
10.0
 30
0.0
  0
VERTEX
  8
DIK
 10
-10.0
 20
10.0
 30
0.0
  0
VERTEX
  8
DIK
 10
-10.0
 20
831.0
 30
0.0
  0
VERTEX
  8
DIK
 10
-1169.0
 20
831.0
 30
0.0
  0
SEQEND
  8
DIK
  0
LINE
  8
DUN
 10
-1189.0
 20
841.0
 30
0.0
 11
-1189.0
 21
0.0
 31
0.0
  0
LINE
  8
DUN
 10
-979.0
 20
0.0
 30
0.0
 11
-979.0
 21
10.0
 31
0.0
  0
LINE
  8
DUN
 10
-869.5
 20
0.0
 30
0.0
 11
-869.5
 21
10.0
 31
0.0
  0
LINE
  8
DUN
 10
-760.0
 20
0.0
 30
0.0
 11
-760.0
 21
10.0
 31
0.0
  0
LINE
  8
DUN
 10
-1189.0
 20
297.0
 30
0.0
 11
-1169.0
 21
297.0
 31
0.0
  0
LINE
  8
DUN
 10
-1189.0
 20
594.0
 30
0.0
 11
-1169.0
 21
594.0
 31
0.0
  0
LINE
  8
DUN
 10
-979.0
 20
831.0
 30
0.0
 11
-979.0
 21
841.0
 31
0.0
  0
LINE
  8
DUN
 10
-869.5
 20
831.0
 30
0.0
 11
-869.5
 21
841.0
 31
0.0
  0
LINE
  8
DUN
 10
-760.0
 20
831.0
 30
0.0
 11
-760.0
 21
841.0
 31
0.0
  0
LINE
  8
DUN
 10
0.0
 20
0.0
 30
0.0
 11
0.0
 21
841.0
 31
0.0
  0
LINE
  8
DUN
 10
-570.0
 20
0.0
 30
0.0
 11
-570.0
 21
10.0
 31
0.0
  0
LINE
  8
DUN
 10
-380.0
 20
0.0
 30
0.0
 11
-380.0
 21
10.0
 31
0.0
  0
INSERT
  8
HARTLIJN-DUBBEL
  2
TEKENH
 10
-10.0
 20
10.0
 30
0.0
  0
ATTDEF
  8
DUN
 10
-69.916666666667
 20
16.25
 30
0.0
 40
3.5
  1

  3

  2
TEKENINGNUMMER
 70
     0
  7
ROMANS
 72
     2
 11
-23.75
 21
16.25
 31
0.0
  0
LINE
  8
DUN
 10
-190.0
 20
0.0
 30
0.0
 11
-190.0
 21
10.0
 31
0.0
  0
ATTDEF
  8
DUN
 10
-140.416666666667
 20
46.25
 30
0.0
 40
2.5
  1
mm
  3

  2
MAATEENHEID
 70
     8
  7
ROMANS
 72
     2
 11
-116.25
 21
46.25
 31
0.0
  0
ATTDEF
  8
DUN
 10
-129.940476190476
 20
52.25
 30
0.0
 40
2.5
  1

  3

  2
SCHAAL
 70
     0
  7
ROMANS
 72
     2
 11
-116.25
 21
52.25
 31
0.0
  0
ATTDEF
  8
DUN
 10
-127.797619047619
 20
40.25
 30
0.0
 40
2.5
  1

  3

  2
DATUM
 70
     0
  7
ROMANS
 72
     2
 11
-116.25
 21
40.25
 31
0.0
  0
ATTDEF
  8
DUN
 10
-93.083333333333
 20
16.25
 30
0.0
 40
3.5
  1

  3

  2
OPDRACHT
 70
     0
  7
ROMANS
 72
     2
 11
-66.25
 21
16.25
 31
0.0
  0
ATTDEF
  8
DUN
 10
-74.702380952381
 20
52.25
 30
0.0
 40
2.5
  1

  3

  2
GETEKEND
 70
     0
  7
ROMANS
 72
     2
 11
-56.25
 21
52.25
 31
0.0
  0
ATTDEF
  8
DUN
 10
-74.702380952381
 20
46.25
 30
0.0
 40
2.5
  1

  3

  2
SEMESTER
 70
     0
  7
ROMANS
 72
     2
 11
-56.25
 21
46.25
 31
0.0
  0
ATTDEF
  8
DIK
 10
-48.690476190476
 20
27.5
 30
0.0
 40
5.0
  1

  3

  2
BENAMING
 70
     0
  7
ROMANS
 72
     2
 11
-12.5
 21
27.5
 31
0.0
  0
TEXT
  8
DUN
 10
-19.5
 20
18.5
 30
0.0
 40
3.0
  1
A0
 72
     2
 11
-15.0
 21
18.5
 31
0.0
  0
LINE
  8
DUN
 10
-570.0
 20
831.0
 30
0.0
 11
-570.0
 21
841.0
 31
0.0
  0
LINE
  8
DUN
 10
-380.0
 20
831.0
 30
0.0
 11
-380.0
 21
841.0
 31
0.0
  0
LINE
  8
DUN
 10
-10.0
 20
297.0
 30
0.0
 11
0.0
 21
297.0
 31
0.0
  0
LINE
  8
DUN
 10
-10.0
 20
594.0
 30
0.0
 11
0.0
 21
594.0
 31
0.0
  0
LINE
  8
DUN
 10
-190.0
 20
831.0
 30
0.0
 11
-190.0
 21
841.0
 31
0.0
  0
ENDBLK
  8
0
  0
BLOCK
  8
0
  2
A0S
 70
     2
 10
0.0
 20
0.0
 30
0.0
  3
A0S
  0
LINE
  8
DUN
 10
-841.0
 20
1188.0
 30
0.0
 11
-841.0
 21
0.0
 31
0.0
  0
LINE
  8
DUN
 10
0.0
 20
0.0
 30
0.0
 11
0.0
 21
1188.0
 31
0.0
  0
POLYLINE
  8
DIK
 66
     1
 10
0.0
 20
0.0
 30
0.0
 70
     1
  0
VERTEX
  8
DIK
 10
-821.0
 20
10.0
 30
0.0
  0
VERTEX
  8
DIK
 10
-10.0
 20
10.0
 30
0.0
  0
VERTEX
  8
DIK
 10
-10.0
 20
1178.0
 30
0.0
  0
VERTEX
  8
DIK
 10
-821.0
 20
1178.0
 30
0.0
  0
SEQEND
  8
DIK
  0
LINE
  8
DUN
 10
-841.0
 20
0.0
 30
0.0
 11
0.0
 21
0.0
 31
0.0
  0
LINE
  8
DUN
 10
-631.0
 20
0.0
 30
0.0
 11
-631.0
 21
10.0
 31
0.0
  0
LINE
  8
DUN
 10
-505.5
 20
0.0
 30
0.0
 11
-505.5
 21
10.0
 31
0.0
  0
LINE
  8
DUN
 10
-380.0
 20
0.0
 30
0.0
 11
-380.0
 21
10.0
 31
0.0
  0
INSERT
  8
DUN
  2
TEKENH
 10
-10.0
 20
10.0
 30
0.0
  0
ATTDEF
  8
DUN
 10
-69.916666666667
 20
16.25
 30
0.0
 40
3.5
  1

  3

  2
TEKENINGNUMMER
 70
     0
  7
ROMANS
 72
     2
 11
-23.75
 21
16.25
 31
0.0
  0
LINE
  8
DUN
 10
-190.0
 20
0.0
 30
0.0
 11
-190.0
 21
10.0
 31
0.0
  0
ATTDEF
  8
DUN
 10
-140.416666666667
 20
46.25
 30
0.0
 40
2.5
  1
mm
  3

  2
MAATEENHEID
 70
     8
  7
ROMANS
 72
     2
 11
-116.25
 21
46.25
 31
0.0
  0
ATTDEF
  8
DUN
 10
-129.940476190476
 20
52.25
 30
0.0
 40
2.5
  1

  3

  2
SCHAAL
 70
     0
  7
ROMANS
 72
     2
 11
-116.25
 21
52.25
 31
0.0
  0
ATTDEF
  8
DUN
 10
-127.797619047619
 20
40.25
 30
0.0
 40
2.5
  1

  3

  2
DATUM
 70
     0
  7
ROMANS
 72
     2
 11
-116.25
 21
40.25
 31
0.0
  0
ATTDEF
  8
DUN
 10
-93.083333333333
 20
16.25
 30
0.0
 40
3.5
  1

  3

  2
OPDRACHT
 70
     0
  7
ROMANS
 72
     2
 11
-66.25
 21
16.25
 31
0.0
  0
ATTDEF
  8
DUN
 10
-74.702380952381
 20
52.25
 30
0.0
 40
2.5
  1

  3

  2
GETEKEND
 70
     0
  7
ROMANS
 72
     2
 11
-56.25
 21
52.25
 31
0.0
  0
ATTDEF
  8
DUN
 10
-74.702380952381
 20
46.25
 30
0.0
 40
2.5
  1

  3

  2
SEMESTER
 70
     0
  7
ROMANS
 72
     2
 11
-56.25
 21
46.25
 31
0.0
  0
ATTDEF
  8
DIK
 10
-48.690476190476
 20
27.5
 30
0.0
 40
5.0
  1

  3

  2
BENAMING
 70
     0
  7
ROMANS
 72
     2
 11
-12.5
 21
27.5
 31
0.0
  0
TEXT
  8
DUN
 10
-19.5
 20
18.5
 30
0.0
 40
3.0
  1
A0
 72
     2
 11
-15.0
 21
18.5
 31
0.0
  0
LINE
  8
DUN
 10
0.0
 20
1188.0
 30
0.0
 11
-841.0
 21
1188.0
 31
0.0
  0
LINE
  8
DUN
 10
-841.0
 20
297.0
 30
0.0
 11
-821.0
 21
297.0
 31
0.0
  0
LINE
  8
DUN
 10
-841.0
 20
594.0
 30
0.0
 11
-821.0
 21
594.0
 31
0.0
  0
LINE
  8
DUN
 10
-841.0
 20
891.0
 30
0.0
 11
-821.0
 21
891.0
 31
0.0
  0
LINE
  8
DUN
 10
-10.0
 20
297.0
 30
0.0
 11
0.0
 21
297.0
 31
0.0
  0
LINE
  8
DUN
 10
-10.0
 20
594.0
 30
0.0
 11
0.0
 21
594.0
 31
0.0
  0
LINE
  8
DUN
 10
-631.0
 20
1178.0
 30
0.0
 11
-631.0
 21
1188.0
 31
0.0
  0
LINE
  8
DUN
 10
-505.5
 20
1178.0
 30
0.0
 11
-505.5
 21
1188.0
 31
0.0
  0
LINE
  8
DUN
 10
-380.0
 20
1178.0
 30
0.0
 11
-380.0
 21
1188.0
 31
0.0
  0
LINE
  8
DUN
 10
-10.0
 20
891.0
 30
0.0
 11
0.0
 21
891.0
 31
0.0
  0
LINE
  8
DUN
 10
-190.0
 20
1178.0
 30
0.0
 11
-190.0
 21
1188.0
 31
0.0
  0
ENDBLK
  8
0
  0
BLOCK
  8
0
  2
A1S
 70
     2
 10
0.0
 20
0.0
 30
0.0
  3
A1S
  0
LINE
  8
DIK
 10
-10.0
 20
830.0
 30
0.0
 11
-574.0
 21
830.0
 31
0.0
  0
LINE
  8
DIK
 10
-574.0
 20
10.0
 30
0.0
 11
-10.0
 21
10.0
 31
0.0
  0
LINE
  8
DUN
 10
0.0
 20
840.0
 30
0.0
 11
-594.0
 21
840.0
 31
0.0
  0
LINE
  8
DUN
 10
-594.0
 20
0.0
 30
0.0
 11
0.0
 21
0.0
 31
0.0
  0
LINE
  8
DIK
 10
-574.0
 20
830.0
 30
0.0
 11
-574.0
 21
10.0
 31
0.0
  0
LINE
  8
DUN
 10
-594.0
 20
840.0
 30
0.0
 11
-594.0
 21
0.0
 31
0.0
  0
LINE
  8
DUN
 10
-594.0
 20
297.0
 30
0.0
 11
-574.0
 21
297.0
 31
0.0
  0
LINE
  8
DUN
 10
-594.0
 20
594.0
 30
0.0
 11
-574.0
 21
594.0
 31
0.0
  0
LINE
  8
DIK
 10
-10.0
 20
10.0
 30
0.0
 11
-10.0
 21
830.0
 31
0.0
  0
LINE
  8
DUN
 10
0.0
 20
0.0
 30
0.0
 11
0.0
 21
840.0
 31
0.0
  0
INSERT
  8
DUN
  2
TEKENH
 10
-10.0
 20
10.0
 30
0.0
  0
ATTDEF
  8
DUN
 10
-74.702380952381
 20
52.25
 30
0.0
 40
2.5
  1

  3

  2
GETEKEND
 70
     0
  7
ROMANS
 72
     2
 11
-56.25
 21
52.25
 31
0.0
  0
ATTDEF
  8
DUN
 10
-74.702380952381
 20
46.25
 30
0.0
 40
2.5
  1

  3

  2
SEMESTER
 70
     0
  7
ROMANS
 72
     2
 11
-56.25
 21
46.25
 31
0.0
  0
ATTDEF
  8
DUN
 10
-69.916666666667
 20
16.25
 30
0.0
 40
3.5
  1

  3

  2
TEKENINGNUMMER
 70
     0
  7
ROMANS
 72
     2
 11
-23.75
 21
16.25
 31
0.0
  0
LINE
  8
DUN
 10
-478.0
 20
0.0
 30
0.0
 11
-478.0
 21
10.0
 31
0.0
  0
LINE
  8
DUN
 10
-382.0
 20
0.0
 30
0.0
 11
-382.0
 21
10.0
 31
0.0
  0
LINE
  8
DUN
 10
-286.0
 20
0.0
 30
0.0
 11
-286.0
 21
10.0
 31
0.0
  0
LINE
  8
DUN
 10
-190.0
 20
0.0
 30
0.0
 11
-190.0
 21
10.0
 31
0.0
  0
ATTDEF
  8
DUN
 10
-129.940476190476
 20
52.25
 30
0.0
 40
2.5
  1

  3

  2
SCHAAL
 70
     0
  7
ROMANS
 72
     2
 11
-116.25
 21
52.25
 31
0.0
  0
ATTDEF
  8
DUN
 10
-140.416666666667
 20
46.25
 30
0.0
 40
2.5
  1
mm
  3

  2
MAATEENHEID
 70
     8
  7
ROMANS
 72
     2
 11
-116.25
 21
46.25
 31
0.0
  0
ATTDEF
  8
DUN
 10
-127.797619047619
 20
40.25
 30
0.0
 40
2.5
  1

  3

  2
DATUM
 70
     0
  7
ROMANS
 72
     2
 11
-116.25
 21
40.25
 31
0.0
  0
ATTDEF
  8
DUN
 10
-93.083333333333
 20
16.25
 30
0.0
 40
3.5
  1

  3

  2
OPDRACHT
 70
     0
  7
ROMANS
 72
     2
 11
-66.25
 21
16.25
 31
0.0
  0
TEXT
  8
DUN
 10
-19.0
 20
18.5
 30
0.0
 40
3.0
  1
A1
 72
     2
 11
-15.0
 21
18.5
 31
0.0
  0
ATTDEF
  8
DIK
 10
-48.690476190476
 20
27.5
 30
0.0
 40
5.0
  1

  3

  2
BENAMING
 70
     0
  7
ROMANS
 72
     2
 11
-12.5
 21
27.5
 31
0.0
  0
LINE
  8
DUN
 10
-478.0
 20
830.0
 30
0.0
 11
-478.0
 21
840.0
 31
0.0
  0
LINE
  8
DUN
 10
-382.0
 20
830.0
 30
0.0
 11
-382.0
 21
840.0
 31
0.0
  0
LINE
  8
DUN
 10
-286.0
 20
830.0
 30
0.0
 11
-286.0
 21
840.0
 31
0.0
  0
LINE
  8
DUN
 10
-190.0
 20
830.0
 30
0.0
 11
-190.0
 21
840.0
 31
0.0
  0
LINE
  8
DUN
 10
-10.0
 20
297.0
 30
0.0
 11
0.0
 21
297.0
 31
0.0
  0
LINE
  8
DUN
 10
-10.0
 20
594.0
 30
0.0
 11
0.0
 21
594.0
 31
0.0
  0
ENDBLK
  8
0
  0
BLOCK
  8
0
  2
A1L
 70
     2
 10
0.0
 20
0.0
 30
0.0
  3
A1L
  0
LINE
  8
DUN
 10
0.0
 20
594.0
 30
0.0
 11
-841.0
 21
594.0
 31
0.0
  0
LINE
  8
DUN
 10
-841.0
 20
0.0
 30
0.0
 11
0.0
 21
0.0
 31
0.0
  0
POLYLINE
  8
DIK
 66
     1
 10
0.0
 20
0.0
 30
0.0
 70
     1
  0
VERTEX
  8
DIK
 10
-821.0
 20
10.0
 30
0.0
  0
VERTEX
  8
DIK
 10
-10.0
 20
10.0
 30
0.0
  0
VERTEX
  8
DIK
 10
-10.0
 20
584.0
 30
0.0
  0
VERTEX
  8
DIK
 10
-821.0
 20
584.0
 30
0.0
  0
SEQEND
  8
DIK
  0
LINE
  8
DUN
 10
-841.0
 20
594.0
 30
0.0
 11
-841.0
 21
0.0
 31
0.0
  0
LINE
  8
DUN
 10
-631.0
 20
0.0
 30
0.0
 11
-631.0
 21
10.0
 31
0.0
  0
LINE
  8
DUN
 10
-505.5
 20
0.0
 30
0.0
 11
-505.5
 21
10.0
 31
0.0
  0
LINE
  8
DUN
 10
-505.5
 20
584.0
 30
0.0
 11
-505.5
 21
594.0
 31
0.0
  0
LINE
  8
DUN
 10
-631.0
 20
584.0
 30
0.0
 11
-631.0
 21
594.0
 31
0.0
  0
LINE
  8
DUN
 10
-841.0
 20
297.0
 30
0.0
 11
-821.0
 21
297.0
 31
0.0
  0
LINE
  8
DUN
 10
0.0
 20
0.0
 30
0.0
 11
0.0
 21
594.0
 31
0.0
  0
INSERT
  8
HARTLIJN-DUBBEL
  2
TEKENH
 10
-10.0
 20
10.0
 30
0.0
  0
ATTDEF
  8
DUN
 10
-93.083333333334
 20
16.25
 30
0.0
 40
3.5
  1

  3

  2
OPDRACHT
 70
     0
  7
ROMANS
 72
     2
 11
-66.25
 21
16.25
 31
0.0
  0
LINE
  8
DUN
 10
-380.0
 20
0.0
 30
0.0
 11
-380.0
 21
10.0
 31
0.0
  0
LINE
  8
DUN
 10
-190.0
 20
0.0
 30
0.0
 11
-190.0
 21
10.0
 31
0.0
  0
ATTDEF
  8
DUN
 10
-140.416666666667
 20
46.25
 30
0.0
 40
2.5
  1
mm
  3

  2
MAATEENHEID
 70
     8
  7
ROMANS
 72
     2
 11
-116.25
 21
46.25
 31
0.0
  0
ATTDEF
  8
DUN
 10
-129.940476190476
 20
52.25
 30
0.0
 40
2.5
  1

  3

  2
SCHAAL
 70
     0
  7
ROMANS
 72
     2
 11
-116.25
 21
52.25
 31
0.0
  0
ATTDEF
  8
DUN
 10
-127.797619047619
 20
40.25
 30
0.0
 40
2.5
  1

  3

  2
DATUM
 70
     0
  7
ROMANS
 72
     2
 11
-116.25
 21
40.25
 31
0.0
  0
ATTDEF
  8
DUN
 10
-69.916666666667
 20
16.25
 30
0.0
 40
3.5
  1

  3

  2
TEKENINGNUMMER
 70
     0
  7
ROMANS
 72
     2
 11
-23.75
 21
16.25
 31
0.0
  0
ATTDEF
  8
DIK
 10
-48.690476190476
 20
27.5
 30
0.0
 40
5.0
  1

  3

  2
BENAMING
 70
     0
  7
ROMANS
 72
     2
 11
-12.5
 21
27.5
 31
0.0
  0
ATTDEF
  8
DUN
 10
-74.702380952381
 20
52.25
 30
0.0
 40
2.5
  1

  3

  2
GETEKEND
 70
     0
  7
ROMANS
 72
     2
 11
-56.25
 21
52.25
 31
0.0
  0
ATTDEF
  8
DUN
 10
-74.702380952381
 20
46.25
 30
0.0
 40
2.5
  1

  3

  2
SEMESTER
 70
     0
  7
ROMANS
 72
     2
 11
-56.25
 21
46.25
 31
0.0
  0
TEXT
  8
DUN
 10
-19.0
 20
18.5
 30
0.0
 40
3.0
  1
A1
 72
     2
 11
-15.0
 21
18.5
 31
0.0
  0
LINE
  8
DUN
 10
-190.0
 20
584.0
 30
0.0
 11
-190.0
 21
594.0
 31
0.0
  0
LINE
  8
DUN
 10
-380.0
 20
584.0
 30
0.0
 11
-380.0
 21
594.0
 31
0.0
  0
LINE
  8
DUN
 10
-10.0
 20
297.0
 30
0.0
 11
0.0
 21
297.0
 31
0.0
  0
ENDBLK
  8
0
  0
BLOCK
  8
0
  2
A2L
 70
     2
 10
0.0
 20
0.0
 30
0.0
  3
A2L
  0
LINE
  8
DUN
 10
0.0
 20
420.0
 30
0.0
 11
-594.0
 21
420.0
 31
0.0
  0
LINE
  8
DUN
 10
-594.0
 20
0.0
 30
0.0
 11
0.0
 21
0.0
 31
0.0
  0
POLYLINE
  8
DIK
 66
     1
 10
0.0
 20
0.0
 30
0.0
 70
     1
  0
VERTEX
  8
DIK
 10
-574.0
 20
10.0
 30
0.0
  0
VERTEX
  8
DIK
 10
-10.0
 20
10.0
 30
0.0
  0
VERTEX
  8
DIK
 10
-10.0
 20
410.0
 30
0.0
  0
VERTEX
  8
DIK
 10
-574.0
 20
410.0
 30
0.0
  0
SEQEND
  8
DIK
  0
LINE
  8
DUN
 10
-594.0
 20
420.0
 30
0.0
 11
-594.0
 21
0.0
 31
0.0
  0
LINE
  8
DUN
 10
-594.0
 20
297.0
 30
0.0
 11
-574.0
 21
297.0
 31
0.0
  0
LINE
  8
DUN
 10
0.0
 20
0.0
 30
0.0
 11
0.0
 21
420.0
 31
0.0
  0
INSERT
  8
DIK
  2
TEKENH
 10
-10.0
 20
10.0
 30
0.0
  0
ATTDEF
  8
DUN
 10
-74.702380952381
 20
52.25
 30
0.0
 40
2.5
  1

  3

  2
GETEKEND
 70
     0
  7
ROMANS
 72
     2
 11
-56.25
 21
52.25
 31
0.0
  0
ATTDEF
  8
DUN
 10
-74.702380952381
 20
46.25
 30
0.0
 40
2.5
  1

  3

  2
SEMESTER
 70
     0
  7
ROMANS
 72
     2
 11
-56.25
 21
46.25
 31
0.0
  0
ATTDEF
  8
DUN
 10
-69.916666666667
 20
16.25
 30
0.0
 40
3.5
  1

  3

  2
TEKENINGNUMMER
 70
     0
  7
ROMANS
 72
     2
 11
-23.75
 21
16.25
 31
0.0
  0
LINE
  8
DUN
 10
-478.0
 20
0.0
 30
0.0
 11
-478.0
 21
10.0
 31
0.0
  0
LINE
  8
DUN
 10
-382.0
 20
0.0
 30
0.0
 11
-382.0
 21
10.0
 31
0.0
  0
LINE
  8
DUN
 10
-286.0
 20
0.0
 30
0.0
 11
-286.0
 21
10.0
 31
0.0
  0
LINE
  8
DUN
 10
-190.0
 20
0.0
 30
0.0
 11
-190.0
 21
10.0
 31
0.0
  0
ATTDEF
  8
DUN
 10
-140.416666666667
 20
46.25
 30
0.0
 40
2.5
  1
mm
  3

  2
MAATEENHEID
 70
     8
  7
ROMANS
 72
     2
 11
-116.25
 21
46.25
 31
0.0
  0
ATTDEF
  8
DUN
 10
-129.940476190476
 20
52.25
 30
0.0
 40
2.5
  1

  3

  2
SCHAAL
 70
     0
  7
ROMANS
 72
     2
 11
-116.25
 21
52.25
 31
0.0
  0
ATTDEF
  8
DUN
 10
-127.797619047619
 20
40.25
 30
0.0
 40
2.5
  1

  3

  2
DATUM
 70
     0
  7
ROMANS
 72
     2
 11
-116.25
 21
40.25
 31
0.0
  0
ATTDEF
  8
DUN
 10
-93.083333333333
 20
16.25
 30
0.0
 40
3.5
  1

  3

  2
OPDRACHT
 70
     0
  7
ROMANS
 72
     2
 11
-66.25
 21
16.25
 31
0.0
  0
ATTDEF
  8
DIK
 10
-48.690476190476
 20
27.5
 30
0.0
 40
5.0
  1

  3

  2
BENAMING
 70
     0
  7
ROMANS
 72
     2
 11
-12.5
 21
27.5
 31
0.0
  0
TEXT
  8
DUN
 10
-20.0
 20
18.5
 30
0.0
 40
3.0
  1
A2
 72
     2
 11
-15.0
 21
18.5
 31
0.0
  0
LINE
  8
DUN
 10
-478.0
 20
410.0
 30
0.0
 11
-478.0
 21
420.0
 31
0.0
  0
LINE
  8
DUN
 10
-382.0
 20
410.0
 30
0.0
 11
-382.0
 21
420.0
 31
0.0
  0
LINE
  8
DUN
 10
-286.0
 20
410.0
 30
0.0
 11
-286.0
 21
420.0
 31
0.0
  0
LINE
  8
DUN
 10
-190.0
 20
410.0
 30
0.0
 11
-190.0
 21
420.0
 31
0.0
  0
LINE
  8
DUN
 10
-10.0
 20
297.0
 30
0.0
 11
0.0
 21
297.0
 31
0.0
  0
ENDBLK
  8
0
  0
BLOCK
  8
0
  2
A2S
 70
     2
 10
0.0
 20
0.0
 30
0.0
  3
A2S
  0
LINE
  8
DIK
 10
-400.0
 20
584.0
 30
0.0
 11
-400.0
 21
10.0
 31
0.0
  0
LINE
  8
DIK
 10
-10.0
 20
10.0
 30
0.0
 11
-10.0
 21
584.0
 31
0.0
  0
LINE
  8
DUN
 10
-420.0
 20
594.0
 30
0.0
 11
-420.0
 21
0.0
 31
0.0
  0
LINE
  8
DUN
 10
0.0
 20
0.0
 30
0.0
 11
0.0
 21
594.0
 31
0.0
  0
LINE
  8
DIK
 10
-400.0
 20
10.0
 30
0.0
 11
-10.0
 21
10.0
 31
0.0
  0
LINE
  8
DUN
 10
-420.0
 20
0.0
 30
0.0
 11
0.0
 21
0.0
 31
0.0
  0
INSERT
  8
DIK
  2
TEKENH
 10
-10.0
 20
10.0
 30
0.0
  0
ATTDEF
  8
DUN
 10
-93.083333333334
 20
16.25
 30
0.0
 40
3.5
  1

  3

  2
OPDRACHT
 70
     0
  7
ROMANS
 72
     2
 11
-66.25
 21
16.25
 31
0.0
  0
LINE
  8
DUN
 10
-295.0
 20
0.0
 30
0.0
 11
-295.0
 21
10.0
 31
0.0
  0
LINE
  8
DUN
 10
-420.0
 20
297.0
 30
0.0
 11
-400.0
 21
297.0
 31
0.0
  0
LINE
  8
DUN
 10
-190.0
 20
0.0
 30
0.0
 11
-190.0
 21
10.0
 31
0.0
  0
ATTDEF
  8
DUN
 10
-140.416666666667
 20
46.25
 30
0.0
 40
2.5
  1
mm
  3

  2
MAATEENHEID
 70
     8
  7
ROMANS
 72
     2
 11
-116.25
 21
46.25
 31
0.0
  0
ATTDEF
  8
DUN
 10
-127.797619047619
 20
40.25
 30
0.0
 40
2.5
  1

  3

  2
DATUM
 70
     0
  7
ROMANS
 72
     2
 11
-116.25
 21
40.25
 31
0.0
  0
ATTDEF
  8
DUN
 10
-129.940476190476
 20
52.25
 30
0.0
 40
2.5
  1

  3

  2
SCHAAL
 70
     0
  7
ROMANS
 72
     2
 11
-116.25
 21
52.25
 31
0.0
  0
ATTDEF
  8
DUN
 10
-69.916666666667
 20
16.25
 30
0.0
 40
3.5
  1

  3

  2
TEKENINGNUMMER
 70
     0
  7
ROMANS
 72
     2
 11
-23.75
 21
16.25
 31
0.0
  0
ATTDEF
  8
DIK
 10
-48.690476190476
 20
27.5
 30
0.0
 40
5.0
  1

  3

  2
BENAMING
 70
     0
  7
ROMANS
 72
     2
 11
-12.5
 21
27.5
 31
0.0
  0
ATTDEF
  8
DUN
 10
-74.702380952381
 20
46.25
 30
0.0
 40
2.5
  1

  3

  2
SEMESTER
 70
     0
  7
ROMANS
 72
     2
 11
-56.25
 21
46.25
 31
0.0
  0
TEXT
  8
DUN
 10
-20.0
 20
28.5
 30
0.0
 40
3.0
  1
A2
 72
     2
 11
-15.0
 21
28.5
 31
0.0
  0
ATTDEF
  8
DUN
 10
-74.702380952381
 20
52.25
 30
0.0
 40
2.5
  1

  3

  2
GETEKEND
 70
     0
  7
ROMANS
 72
     2
 11
-56.25
 21
52.25
 31
0.0
  0
LINE
  8
DUN
 10
-10.0
 20
297.0
 30
0.0
 11
0.0
 21
297.0
 31
0.0
  0
LINE
  8
DIK
 10
-10.0
 20
584.0
 30
0.0
 11
-400.0
 21
584.0
 31
0.0
  0
LINE
  8
DUN
 10
0.0
 20
594.0
 30
0.0
 11
-420.0
 21
594.0
 31
0.0
  0
LINE
  8
DUN
 10
-295.0
 20
584.0
 30
0.0
 11
-295.0
 21
594.0
 31
0.0
  0
LINE
  8
DUN
 10
-190.0
 20
584.0
 30
0.0
 11
-190.0
 21
594.0
 31
0.0
  0
ENDBLK
  8
0
  0
BLOCK
  8
0
  2
A3S
 70
     2
 10
0.0
 20
0.0
 30
0.0
  3
A3S
  0
LINE
  8
DIK
 10
-277.0
 20
410.0
 30
0.0
 11
-277.0
 21
10.0
 31
0.0
  0
LINE
  8
DIK
 10
-10.0
 20
10.0
 30
0.0
 11
-10.0
 21
410.0
 31
0.0
  0
LINE
  8
DUN
 10
-297.0
 20
420.0
 30
0.0
 11
-297.0
 21
0.0
 31
0.0
  0
LINE
  8
DUN
 10
0.0
 20
0.0
 30
0.0
 11
0.0
 21
420.0
 31
0.0
  0
LINE
  8
DIK
 10
-277.0
 20
10.0
 30
0.0
 11
-10.0
 21
10.0
 31
0.0
  0
LINE
  8
DUN
 10
-297.0
 20
0.0
 30
0.0
 11
0.0
 21
0.0
 31
0.0
  0
LINE
  8
DUN
 10
-233.5
 20
0.0
 30
0.0
 11
-233.5
 21
10.0
 31
0.0
  0
LINE
  8
DUN
 10
-297.0
 20
297.0
 30
0.0
 11
-277.0
 21
297.0
 31
0.0
  0
INSERT
  8
0
  2
TEKENH
 10
-10.0
 20
10.0
 30
0.0
  0
ATTDEF
  8
DUN
 10
-129.940476190476
 20
52.25
 30
0.0
 40
2.5
  1

  3

  2
SCHAAL
 70
     0
  7
ROMANS
 72
     2
 11
-116.25
 21
52.25
 31
0.0
  0
LINE
  8
DUN
 10
-190.0
 20
0.0
 30
0.0
 11
-190.0
 21
10.0
 31
0.0
  0
ATTDEF
  8
DUN
 10
-140.416666666667
 20
46.25
 30
0.0
 40
2.5
  1
mm
  3

  2
MAATEENHEID
 70
     8
  7
ROMANS
 72
     2
 11
-116.25
 21
46.25
 31
0.0
  0
ATTDEF
  8
DUN
 10
-127.797619047619
 20
40.25
 30
0.0
 40
2.5
  1

  3

  2
DATUM
 70
     0
  7
ROMANS
 72
     2
 11
-116.25
 21
40.25
 31
0.0
  0
ATTDEF
  8
DUN
 10
-74.702380952381
 20
52.25
 30
0.0
 40
2.5
  1

  3

  2
GETEKEND
 70
     0
  7
ROMANS
 72
     2
 11
-56.25
 21
52.25
 31
0.0
  0
ATTDEF
  8
DUN
 10
-69.916666666667
 20
16.25
 30
0.0
 40
3.5
  1

  3

  2
TEKENINGNUMMER
 70
     0
  7
ROMANS
 72
     2
 11
-23.75
 21
16.25
 31
0.0
  0
ATTDEF
  8
DUN
 10
-93.083333333333
 20
16.25
 30
0.0
 40
3.5
  1

  3

  2
OPDRACHT
 70
     0
  7
ROMANS
 72
     2
 11
-66.25
 21
16.25
 31
0.0
  0
ATTDEF
  8
DUN
 10
-74.702380952381
 20
46.25
 30
0.0
 40
2.5
  1

  3

  2
SEMESTER
 70
     0
  7
ROMANS
 72
     2
 11
-56.25
 21
46.25
 31
0.0
  0
ATTDEF
  8
DIK
 10
-48.690476190476
 20
27.5
 30
0.0
 40
5.0
  1

  3

  2
BENAMING
 70
     0
  7
ROMANS
 72
     2
 11
-12.5
 21
27.5
 31
0.0
  0
TEXT
  8
DUN
 10
-20.0
 20
18.5
 30
0.0
 40
3.0
  1
A3
 72
     2
 11
-15.0
 21
18.5
 31
0.0
  0
LINE
  8
DUN
 10
-10.0
 20
297.0
 30
0.0
 11
0.0
 21
297.0
 31
0.0
  0
LINE
  8
DIK
 10
-10.0
 20
410.0
 30
0.0
 11
-277.0
 21
410.0
 31
0.0
  0
LINE
  8
DUN
 10
0.0
 20
420.0
 30
0.0
 11
-297.0
 21
420.0
 31
0.0
  0
LINE
  8
DUN
 10
-233.5
 20
410.0
 30
0.0
 11
-233.5
 21
420.0
 31
0.0
  0
LINE
  8
DUN
 10
-190.0
 20
410.0
 30
0.0
 11
-190.0
 21
420.0
 31
0.0
  0
ENDBLK
  8
0
  0
BLOCK
  8
0
  2
A3L
 70
     2
 10
0.0
 20
0.0
 30
0.0
  3
A3L
  0
LINE
  8
DUN
 10
-420.0
 20
297.0
 30
0.0
 11
0.0
 21
297.0
 31
0.0
  0
LINE
  8
DUN
 10
0.0
 20
0.0
 30
0.0
 11
-420.0
 21
0.0
 31
0.0
  0
LINE
  8
DIK
 10
-400.0
 20
287.0
 30
0.0
 11
-10.0
 21
287.0
 31
0.0
  0
LINE
  8
DIK
 10
-10.0
 20
10.0
 30
0.0
 11
-400.0
 21
10.0
 31
0.0
  0
LINE
  8
DUN
 10
-420.0
 20
0.0
 30
0.0
 11
-420.0
 21
297.0
 31
0.0
  0
LINE
  8
DIK
 10
-400.0
 20
10.0
 30
0.0
 11
-400.0
 21
287.0
 31
0.0
  0
INSERT
  8
0
  2
TEKENH
 10
-10.0
 20
10.0
 30
0.0
  0
LINE
  8
DUN
 10
-295.0
 20
10.0
 30
0.0
 11
-295.0
 21
0.0
 31
0.0
  0
LINE
  8
DUN
 10
-190.0
 20
10.0
 30
0.0
 11
-190.0
 21
0.0
 31
0.0
  0
ATTDEF
  8
DUN
 10
-127.797619047619
 20
40.25
 30
0.0
 40
2.5
  1

  3

  2
DATUM
 70
     0
  7
ROMANS
 72
     2
 11
-116.25
 21
40.25
 31
0.0
  0
ATTDEF
  8
DUN
 10
-129.940476190476
 20
52.25
 30
0.0
 40
2.5
  1

  3

  2
SCHAAL
 70
     0
  7
ROMANS
 72
     2
 11
-116.25
 21
52.25
 31
0.0
  0
ATTDEF
  8
DUN
 10
-140.416666666667
 20
46.25
 30
0.0
 40
2.5
  1
mm
  3

  2
MAATEENHEID
 70
     8
  7
ROMANS
 72
     2
 11
-116.25
 21
46.25
 31
0.0
  0
LINE
  8
DUN
 10
-295.0
 20
297.0
 30
0.0
 11
-295.0
 21
287.0
 31
0.0
  0
LINE
  8
DUN
 10
-190.0
 20
297.0
 30
0.0
 11
-190.0
 21
287.0
 31
0.0
  0
LINE
  8
DUN
 10
0.0
 20
297.0
 30
0.0
 11
0.0
 21
0.0
 31
0.0
  0
LINE
  8
DIK
 10
-10.0
 20
287.0
 30
0.0
 11
-10.0
 21
10.0
 31
0.0
  0
ATTDEF
  8
DUN
 10
-69.916666666667
 20
16.25
 30
0.0
 40
3.5
  1

  3

  2
TEKENINGNUMMER
 70
     0
  7
ROMANS
 72
     2
 11
-23.75
 21
16.25
 31
0.0
  0
ATTDEF
  8
DUN
 10
-93.083333333333
 20
16.25
 30
0.0
 40
3.5
  1

  3

  2
OPDRACHT
 70
     0
  7
ROMANS
 72
     2
 11
-66.25
 21
16.25
 31
0.0
  0
ATTDEF
  8
DIK
 10
-48.690476190476
 20
27.5
 30
0.0
 40
5.0
  1

  3

  2
BENAMING
 70
     0
  7
ROMANS
 72
     2
 11
-12.5
 21
27.5
 31
0.0
  0
TEXT
  8
DUN
 10
-20.0
 20
18.5
 30
0.0
 40
3.0
  1
A3
 72
     2
 11
-15.0
 21
18.5
 31
0.0
  0
ATTDEF
  8
DUN
 10
-74.702380952381
 20
52.25
 30
0.0
 40
2.5
  1

  3

  2
GETEKEND
 70
     0
  7
ROMANS
 72
     2
 11
-56.25
 21
52.25
 31
0.0
  0
ATTDEF
  8
DUN
 10
-74.702380952381
 20
46.25
 30
0.0
 40
2.5
  1

  3

  2
SEMESTER
 70
     0
  7
ROMANS
 72
     2
 11
-56.25
 21
46.25
 31
0.0
  0
ENDBLK
  8
0
  0
BLOCK
  8
0
  2
PIJLP
 70
     0
 10
0.0
 20
0.0
 30
0.0
  3
PIJLP
  0
LINE
  8
0
  6
BYBLOCK
 62
     0
 10
0.0
 20
0.0
 30
0.0
 11
-1.0
 21
0.1666665
 31
0.0
  0
LINE
  8
0
  6
BYBLOCK
 62
     0
 10
0.0
 20
0.0
 30
0.0
 11
-1.0
 21
-0.1666665
 31
0.0
  0
LINE
  8
0
  6
BYBLOCK
 62
     0
 10
-1.0
 20
0.1666665
 30
0.0
 11
-1.0
 21
-0.1666665
 31
0.0
  0
ENDBLK
  8
0
  0
BLOCK
  8
0
  2
ACAD221C
 70
     0
 10
0.0
 20
0.0
 30
0.0
  3
ACAD221C
  0
LINE
  8
HARTLIJN
 10
4590.251788454331
 20
8763.759565935579
 30
0.0
 11
4590.251788454333
 21
10463.75956593558
 31
0.0
  0
LINE
  8
HARTLIJN
 10
4590.251788454331
 20
8763.759565935579
 30
0.0
 11
4590.251788454331
 21
10466.69116242145
 31
0.0
  0
LINE
  8
DIK
 10
4640.251788454332
 20
8843.759565935579
 30
0.0
 11
4640.251788454332
 21
10442.75956593558
 31
0.0
  0
LINE
  8
DIK
 10
4540.251788454331
 20
8843.759565935579
 30
0.0
 11
4540.251788454331
 21
10263.75956593557
 31
0.0
  0
LINE
  8
HARTLIJN
 10
4590.251788454331
 20
8763.759565935579
 30
0.0
 11
4590.251788454331
 21
10264.72328367782
 31
0.0
  0
LINE
  8
DIK
 10
4537.251788454331
 20
8846.759565935579
 30
0.0
 11
4537.251788454331
 21
9090.259565935575
 31
0.0
  0
LINE
  8
HARTLIJN
 10
4538.751788454331
 20
8845.259565935579
 30
0.0
 11
4538.751788454331
 21
9085.259565935576
 31
0.0
  0
LINE
  8
DIK
 10
4540.251788454331
 20
8843.759565935579
 30
0.0
 11
4540.251788454331
 21
9085.259565935576
 31
0.0
  0
LINE
  8
DIK
 10
4640.251788454332
 20
8843.759565935579
 30
0.0
 11
4640.251788454332
 21
9085.259565935576
 31
0.0
  0
LINE
  8
DIK
 10
4643.251788454331
 20
8846.759565935579
 30
0.0
 11
4643.251788454331
 21
9090.259565935575
 31
0.0
  0
LINE
  8
HARTLIJN
 10
4641.751788454332
 20
8845.259565935579
 30
0.0
 11
4641.751788454332
 21
9085.259565935576
 31
0.0
  0
POLYLINE
  8
STREEPLIJN
 62
     1
 66
     1
 10
0.0
 20
0.0
 30
0.0
 70
     1
  0
VERTEX
  8
STREEPLIJN
 62
     1
 10
4575.25178845433
 20
8843.759565935579
 30
0.0
  0
VERTEX
  8
STREEPLIJN
 62
     1
 10
4575.25178845433
 20
8830.759565935579
 30
0.0
  0
VERTEX
  8
STREEPLIJN
 62
     1
 10
4605.251788454332
 20
8830.759565935579
 30
0.0
  0
VERTEX
  8
STREEPLIJN
 62
     1
 10
4605.251788454332
 20
8843.759565935579
 30
0.0
  0
SEQEND
  8
STREEPLIJN
 62
     1
  0
LINE
  8
STREEPLIJN
 10
4540.251788454331
 20
8888.759565935574
 30
0.0
 11
4640.251788454332
 21
8888.759565935574
 31
0.0
  0
LINE
  8
STREEPLIJN
 10
4540.251788454331
 20
8878.759565935574
 30
0.0
 11
4640.251788454332
 21
8878.759565935574
 31
0.0
  0
LINE
  8
HARTLIJN
 10
4484.358820267022
 20
8883.759565935575
 30
0.0
 11
4696.14475664164
 21
8883.759565935575
 31
0.0
  0
LINE
  8
DIK
 10
4540.251788454331
 20
8863.759565935573
 30
0.0
 11
4640.251788454332
 21
8863.759565935573
 31
0.0
  0
POLYLINE
  8
DIK
 66
     1
 10
0.0
 20
0.0
 30
0.0
 70
     1
  0
VERTEX
  8
DIK
 10
4455.251788454331
 20
8843.759565935579
 30
0.0
  0
VERTEX
  8
DIK
 10
4455.251788454331
 20
8763.759565935579
 30
0.0
  0
VERTEX
  8
DIK
 10
4725.251788454331
 20
8763.759565935579
 30
0.0
  0
VERTEX
  8
DIK
 10
4725.251788454331
 20
8843.759565935579
 30
0.0
  0
SEQEND
  8
DIK
  0
INSERT
  8
HARTLIJN
  2
*X12
 10
3486.013481439445
 20
7438.614143258838
 30
0.0
1001
ACAD
1000
HATCH
1002
{
1070
    16
1000
AR-CONC
1040
0.2
1040
0.0
1002
}
  0
ARC
  8
DIK
 10
4525.768507748479
 20
8836.259565935579
 30
0.0
 40
1.0
 50
180.0
 51
270.0
  0
ARC
  8
DIK
 10
4525.768507748479
 20
8842.259565935579
 30
0.0
 40
1.0
 50
90.0
 51
180.0
  0
LINE
  8
DIK
 10
4524.768507748479
 20
8842.259565935579
 30
0.0
 11
4524.768507748481
 21
8836.259565935579
 31
0.0
  0
ARC
  8
DIK
 10
4525.768507748479
 20
8855.75956593558
 30
0.0
 40
1.0
 50
90.0
 51
180.0
  0
LINE
  8
DIK
 10
4524.768507748479
 20
8849.759565935579
 30
0.0
 11
4524.768507748479
 21
8855.75956593558
 31
0.0
  0
ARC
  8
DIK
 10
4525.768507748479
 20
8849.759565935579
 30
0.0
 40
1.0
 50
180.0
 51
270.0
  0
LINE
  8
DUN
 10
4524.251788454331
 20
8856.759565935579
 30
0.0
 11
4524.251788454331
 21
8861.75956593558
 31
0.0
  0
LINE
  8
DIK
 10
4525.251788454331
 20
8860.759565935579
 30
0.0
 11
4524.251788454331
 21
8861.75956593558
 31
0.0
  0
LINE
  8
DIK
 10
4525.251788454331
 20
8856.759565935579
 30
0.0
 11
4525.251788454331
 21
8860.759565935579
 31
0.0
  0
LINE
  8
DIK
 10
4525.251788454331
 20
8833.259565935579
 30
0.0
 11
4525.251788454331
 21
8831.759565935579
 31
0.0
  0
LINE
  8
DIK
 10
4525.251788454331
 20
8843.759565935579
 30
0.0
 11
4525.251788454333
 21
8843.25956593558
 31
0.0
  0
ARC
  8
DIK
 10
4527.751788454331
 20
8836.259565935579
 30
0.0
 40
1.0
 50
270.0
 51
0.0
  0
ARC
  8
DIK
 10
4527.751788454331
 20
8842.259565935579
 30
0.0
 40
1.0
 50
0.0
 51
90.0
  0
LINE
  8
DIK
 10
4528.751788454331
 20
8842.259565935579
 30
0.0
 11
4528.751788454331
 21
8836.259565935579
 31
0.0
  0
ARC
  8
DIK
 10
4527.751788454331
 20
8855.75956593558
 30
0.0
 40
1.0
 50
0.0
 51
90.0
  0
LINE
  8
DIK
 10
4528.751788454331
 20
8849.759565935579
 30
0.0
 11
4528.751788454331
 21
8855.75956593558
 31
0.0
  0
ARC
  8
DIK
 10
4527.751788454331
 20
8849.759565935579
 30
0.0
 40
1.0
 50
270.0
 51
0.0
  0
LINE
  8
DIK
 10
4530.251788454331
 20
8848.759565935578
 30
0.0
 11
4530.251788454331
 21
8846.759565935579
 31
0.0
  0
LINE
  8
DIK
 10
4530.251788454331
 20
8833.259565935579
 30
0.0
 11
4530.251788454331
 21
8835.259565935579
 31
0.0
  0
LINE
  8
DIK
 10
4503.751788454331
 20
8843.759565935579
 30
0.0
 11
4503.751788454331
 21
8846.759565935579
 31
0.0
  0
LINE
  8
DIK
 10
4515.251788454332
 20
8843.759565935579
 30
0.0
 11
4515.251788454333
 21
8843.25956593558
 31
0.0
  0
ARC
  8
DIK
 10
4514.735069160183
 20
8836.259565935579
 30
0.0
 40
1.0
 50
270.0
 51
0.0
  0
ARC
  8
DIK
 10
4512.75178845433
 20
8836.259565935579
 30
0.0
 40
1.0
 50
180.0
 51
270.0
  0
ARC
  8
DIK
 10
4516.735069160183
 20
8836.259565935579
 30
0.0
 40
1.0
 50
180.0
 51
270.0
  0
ARC
  8
DIK
 10
4516.735069160183
 20
8842.259565935579
 30
0.0
 40
1.0
 50
90.0
 51
180.0
  0
ARC
  8
DIK
 10
4512.75178845433
 20
8842.259565935579
 30
0.0
 40
1.0
 50
90.0
 51
180.0
  0
ARC
  8
DIK
 10
4514.735069160183
 20
8842.259565935579
 30
0.0
 40
1.0
 50
0.0
 51
90.0
  0
LINE
  8
DIK
 10
4511.751788454331
 20
8842.259565935579
 30
0.0
 11
4511.751788454333
 21
8836.259565935579
 31
0.0
  0
LINE
  8
DIK
 10
4515.735069160183
 20
8842.259565935579
 30
0.0
 11
4515.735069160185
 21
8836.259565935579
 31
0.0
  0
ARC
  8
DIK
 10
4516.735069160183
 20
8855.75956593558
 30
0.0
 40
1.0
 50
90.0
 51
180.0
  0
ARC
  8
DIK
 10
4512.75178845433
 20
8855.75956593558
 30
0.0
 40
1.0
 50
90.0
 51
180.0
  0
ARC
  8
DIK
 10
4514.735069160183
 20
8855.75956593558
 30
0.0
 40
1.0
 50
0.0
 51
90.0
  0
LINE
  8
DIK
 10
4511.751788454331
 20
8849.759565935579
 30
0.0
 11
4511.751788454331
 21
8855.75956593558
 31
0.0
  0
LINE
  8
DIK
 10
4515.735069160183
 20
8849.759565935579
 30
0.0
 11
4515.735069160183
 21
8855.75956593558
 31
0.0
  0
ARC
  8
DIK
 10
4514.735069160183
 20
8849.759565935579
 30
0.0
 40
1.0
 50
270.0
 51
0.0
  0
ARC
  8
DIK
 10
4512.75178845433
 20
8849.759565935579
 30
0.0
 40
1.0
 50
180.0
 51
270.0
  0
ARC
  8
DIK
 10
4516.735069160183
 20
8849.759565935579
 30
0.0
 40
1.0
 50
180.0
 51
270.0
  0
LINE
  8
DIK
 10
4510.251788454333
 20
8848.759565935578
 30
0.0
 11
4510.251788454331
 21
8846.759565935579
 31
0.0
  0
LINE
  8
DIK
 10
4515.251788454332
 20
8860.759565935579
 30
0.0
 11
4516.251788454331
 21
8861.75956593558
 31
0.0
  0
LINE
  8
DUN
 10
4516.251788454331
 20
8856.759565935579
 30
0.0
 11
4516.251788454331
 21
8861.75956593558
 31
0.0
  0
LINE
  8
DIK
 10
4515.251788454332
 20
8856.759565935579
 30
0.0
 11
4515.251788454332
 21
8860.759565935579
 31
0.0
  0
LINE
  8
DIK
 10
4515.251788454332
 20
8833.259565935579
 30
0.0
 11
4515.251788454332
 21
8831.759565935579
 31
0.0
  0
LINE
  8
DIK
 10
4510.251788454331
 20
8833.259565935579
 30
0.0
 11
4510.251788454331
 21
8835.259565935579
 31
0.0
  0
LINE
  8
DIK
 10
4537.251788454331
 20
8846.759565935579
 30
0.0
 11
4503.751788454331
 21
8846.759565935579
 31
0.0
  0
LINE
  8
HARTLIJN
 10
4538.751788454331
 20
8845.259565935579
 30
0.0
 11
4503.751788454331
 21
8845.259565935579
 31
0.0
  0
LINE
  8
DIK
 10
4512.75178845433
 20
8843.25956593558
 30
0.0
 11
4527.751788454331
 21
8843.25956593558
 31
0.0
  0
LINE
  8
DIK
 10
4512.75178845433
 20
8856.759565935579
 30
0.0
 11
4527.751788454331
 21
8856.759565935579
 31
0.0
  0
LINE
  8
DIK
 10
4510.251788454333
 20
8848.759565935578
 30
0.0
 11
4530.251788454331
 21
8848.759565935578
 31
0.0
  0
POLYLINE
  8
DIK
 66
     1
 10
0.0
 20
0.0
 30
0.0
  0
VERTEX
  8
DIK
 10
4510.251788454331
 20
8835.259565935579
 30
0.0
  0
VERTEX
  8
DIK
 10
4530.251788454331
 20
8835.259565935579
 30
0.0
  0
SEQEND
  8
DIK
  0
LINE
  8
DIK
 10
4511.25178845433
 20
8835.259565935579
 30
0.0
 11
4529.251788454331
 21
8835.259565935579
 31
0.0
  0
POLYLINE
  8
DIK
 66
     1
 10
0.0
 20
0.0
 30
0.0
 70
     1
  0
VERTEX
  8
DIK
 10
4506.251788454331
 20
8843.759565935579
 30
0.0
  0
VERTEX
  8
DIK
 10
4506.251788454331
 20
8833.259565935579
 30
0.0
  0
VERTEX
  8
DIK
 10
4534.251788454331
 20
8833.259565935579
 30
0.0
  0
VERTEX
  8
DIK
 10
4534.251788454331
 20
8843.759565935579
 30
0.0
  0
SEQEND
  8
DIK
  0
ARC
  8
DIK
 10
4523.768507748479
 20
8836.259565935579
 30
0.0
 40
1.0
 50
270.0
 51
0.0
  0
ARC
  8
DIK
 10
4523.768507748479
 20
8842.259565935579
 30
0.0
 40
1.0
 50
0.0
 51
90.0
  0
ARC
  8
DIK
 10
4523.768507748479
 20
8855.75956593558
 30
0.0
 40
1.0
 50
0.0
 51
90.0
  0
ARC
  8
DIK
 10
4523.768507748479
 20
8849.759565935579
 30
0.0
 40
1.0
 50
270.0
 51
0.0
  0
LINE
  8
DUN
 10
4515.251788454332
 20
8860.759565935579
 30
0.0
 11
4525.251788454331
 21
8860.759565935579
 31
0.0
  0
LINE
  8
DIK
 10
4516.251788454331
 20
8861.75956593558
 30
0.0
 11
4524.251788454331
 21
8861.75956593558
 31
0.0
  0
ARC
  8
DIK
 10
4530.215272949149
 20
8892.759565935575
 30
0.0
 40
1.0
 50
90.0
 51
180.0
  0
LINE
  8
DIK
 10
4536.215272949149
 20
8893.759565935573
 30
0.0
 11
4530.215272949149
 21
8893.759565935573
 31
0.0
  0
ARC
  8
DIK
 10
4536.215272949149
 20
8892.759565935575
 30
0.0
 40
1.0
 50
0.0
 51
90.000000000001
  0
LINE
  8
DIK
 10
4537.215272949149
 20
8888.776285229722
 30
0.0
 11
4537.215272949149
 21
8878.742846641426
 31
0.0
  0
LINE
  8
DIK
 10
4524.215272949149
 20
8879.759565935573
 30
0.0
 11
4524.215272949149
 21
8887.759565935573
 31
0.0
  0
LINE
  8
DUN
 10
4525.215272949149
 20
8878.759565935574
 30
0.0
 11
4525.215272949149
 21
8888.759565935574
 31
0.0
  0
ARC
  8
DIK
 10
4530.215272949149
 20
8874.759565935574
 30
0.0
 40
1.0
 50
180.000000000001
 51
270.0
  0
LINE
  8
DUN
 10
4529.215272949149
 20
8879.759565935573
 30
0.0
 11
4524.215272949149
 21
8879.759565935573
 31
0.0
  0
LINE
  8
DIK
 10
4529.215272949149
 20
8878.759565935574
 30
0.0
 11
4525.215272949149
 21
8878.759565935574
 31
0.0
  0
ARC
  8
DIK
 10
4530.215272949149
 20
8876.742846641425
 30
0.0
 40
1.0
 50
90.0
 51
180.0
  0
ARC
  8
DIK
 10
4530.215272949149
 20
8878.742846641426
 30
0.0
 40
1.0
 50
180.000000000001
 51
270.0
  0
LINE
  8
DIK
 10
4525.215272949149
 20
8878.759565935574
 30
0.0
 11
4524.215272949149
 21
8879.759565935573
 31
0.0
  0
LINE
  8
DIK
 10
4536.215272949149
 20
8877.742846641426
 30
0.0
 11
4530.215272949149
 21
8877.742846641426
 31
0.0
  0
LINE
  8
DIK
 10
4536.215272949149
 20
8873.759565935573
 30
0.0
 11
4530.215272949149
 21
8873.759565935573
 31
0.0
  0
ARC
  8
DIK
 10
4536.215272949149
 20
8876.742846641425
 30
0.0
 40
1.0
 50
0.0
 51
90.0
  0
ARC
  8
DIK
 10
4536.215272949149
 20
8874.759565935574
 30
0.0
 40
1.0
 50
270.0
 51
0.0
  0
ARC
  8
DIK
 10
4536.215272949149
 20
8878.742846641426
 30
0.0
 40
1.0
 50
270.0
 51
0.0
  0
ARC
  8
DIK
 10
4530.215272949149
 20
8890.776285229723
 30
0.0
 40
1.0
 50
180.0
 51
270.0
  0
LINE
  8
DIK
 10
4529.215272949149
 20
8888.759565935574
 30
0.0
 11
4525.215272949149
 21
8888.759565935574
 31
0.0
  0
LINE
  8
DIK
 10
4525.215272949149
 20
8888.759565935574
 30
0.0
 11
4524.215272949149
 21
8887.759565935573
 31
0.0
  0
LINE
  8
DUN
 10
4529.215272949149
 20
8887.759565935573
 30
0.0
 11
4524.215272949149
 21
8887.759565935573
 31
0.0
  0
ARC
  8
DIK
 10
4530.215272949149
 20
8888.776285229722
 30
0.0
 40
1.0
 50
90.0
 51
180.000000000001
  0
LINE
  8
DIK
 10
4536.215272949149
 20
8889.776285229721
 30
0.0
 11
4530.215272949149
 21
8889.776285229721
 31
0.0
  0
ARC
  8
DIK
 10
4536.215272949149
 20
8890.776285229723
 30
0.0
 40
1.0
 50
270.0
 51
0.0
  0
ARC
  8
DIK
 10
4536.215272949149
 20
8888.776285229722
 30
0.0
 40
1.0
 50
0.0
 51
90.0
  0
LINE
  8
DIK
 10
4529.215272949149
 20
8874.759565935574
 30
0.0
 11
4529.215272949149
 21
8892.759565935575
 31
0.0
  0
LINE
  8
DUN
 10
4524.251788454331
 20
8793.759565935578
 30
0.0
 11
4525.251788454331
 21
8790.955399649545
 31
0.0
  0
LINE
  8
DUN
 10
4516.251788454331
 20
8793.759565935578
 30
0.0
 11
4515.251788454332
 21
8790.955399649545
 31
0.0
  0
POLYLINE
  8
DIK
 66
     1
 10
0.0
 20
0.0
 30
0.0
  0
VERTEX
  8
DIK
 10
4515.251788454332
 20
8793.759565935578
 30
0.0
  0
VERTEX
  8
DIK
 10
4525.251788454331
 20
8793.759565935578
 30
0.0
  0
SEQEND
  8
DIK
  0
LINE
  8
DIK
 10
4545.251788454331
 20
8760.759565935579
 30
0.0
 11
4545.251788454331
 21
8763.759565935579
 31
0.0
  0
ARC
  8
DIK
 10
4520.251788454331
 20
8764.565550273367
 30
0.0
 40
10.699790501663
 50
200.836746373359
 51
339.163253626641
  0
LINE
  8
DIK
 10
4495.251788454331
 20
8760.759565935579
 30
0.0
 11
4495.251788454331
 21
8763.759565935579
 31
0.0
  0
LINE
  8
DIK
 10
4495.251788454331
 20
8760.759565935579
 30
0.0
 11
4545.251788454331
 21
8760.759565935579
 31
0.0
  0
LINE
  8
HARTLIJN
 10
4520.251788454331
 20
8726.883523583799
 30
0.0
 11
4520.251788454331
 21
8863.502492119557
 31
0.0
  0
LINE
  8
DUN
 10
4516.251788454331
 20
8793.759565935578
 30
0.0
 11
4516.251788454331
 21
8833.259565935579
 31
0.0
  0
LINE
  8
DUN
 10
4524.251788454331
 20
8793.759565935578
 30
0.0
 11
4524.251788454331
 21
8833.259565935579
 31
0.0
  0
LINE
  8
DIK
 10
4525.251788454331
 20
8763.759565935579
 30
0.0
 11
4525.251788454331
 21
8833.259565935579
 31
0.0
  0
LINE
  8
DIK
 10
4515.251788454332
 20
8763.759565935579
 30
0.0
 11
4515.251788454332
 21
8833.259565935579
 31
0.0
  0
LINE
  8
STREEPLIJN
 62
     1
 10
4584.251788454331
 20
8830.759565935579
 30
0.0
 11
4584.251788454331
 21
8763.759565935579
 31
0.0
  0
LINE
  8
DIK
 10
4676.751788454331
 20
8843.759565935579
 30
0.0
 11
4676.751788454331
 21
8846.759565935579
 31
0.0
  0
LINE
  8
DIK
 10
4676.751788454331
 20
8843.759565935579
 30
0.0
 11
4676.751788454331
 21
8846.759565935579
 31
0.0
  0
ARC
  8
DIK
 10
4665.768507748479
 20
8836.259565935579
 30
0.0
 40
1.0
 50
180.0
 51
270.0
  0
ARC
  8
DIK
 10
4665.768507748479
 20
8842.259565935579
 30
0.0
 40
1.0
 50
90.0
 51
180.0
  0
LINE
  8
DIK
 10
4664.76850774848
 20
8842.259565935579
 30
0.0
 11
4664.76850774848
 21
8836.259565935579
 31
0.0
  0
ARC
  8
DIK
 10
4663.768507748478
 20
8836.259565935579
 30
0.0
 40
1.0
 50
270.0
 51
0.0
  0
ARC
  8
DIK
 10
4663.768507748478
 20
8842.259565935579
 30
0.0
 40
1.0
 50
0.0
 51
90.0
  0
ARC
  8
DIK
 10
4665.768507748479
 20
8855.75956593558
 30
0.0
 40
1.0
 50
90.0
 51
180.0
  0
LINE
  8
DIK
 10
4664.76850774848
 20
8849.759565935579
 30
0.0
 11
4664.76850774848
 21
8855.75956593558
 31
0.0
  0
ARC
  8
DIK
 10
4665.768507748479
 20
8849.759565935579
 30
0.0
 40
1.0
 50
180.0
 51
270.0
  0
ARC
  8
DIK
 10
4663.768507748478
 20
8855.75956593558
 30
0.0
 40
1.0
 50
0.0
 51
90.0
  0
ARC
  8
DIK
 10
4663.768507748478
 20
8849.759565935579
 30
0.0
 40
1.0
 50
270.0
 51
0.0
  0
LINE
  8
DUN
 10
4664.251788454331
 20
8856.759565935579
 30
0.0
 11
4664.251788454331
 21
8861.75956593558
 31
0.0
  0
LINE
  8
DIK
 10
4665.251788454331
 20
8860.759565935579
 30
0.0
 11
4664.251788454331
 21
8861.75956593558
 31
0.0
  0
LINE
  8
DIK
 10
4665.251788454331
 20
8856.759565935579
 30
0.0
 11
4665.251788454331
 21
8860.759565935579
 31
0.0
  0
LINE
  8
DIK
 10
4665.251788454331
 20
8833.259565935579
 30
0.0
 11
4665.251788454331
 21
8831.759565935579
 31
0.0
  0
LINE
  8
DIK
 10
4665.251788454331
 20
8843.759565935579
 30
0.0
 11
4665.251788454331
 21
8843.25956593558
 31
0.0
  0
ARC
  8
DIK
 10
4667.751788454332
 20
8836.259565935579
 30
0.0
 40
1.0
 50
270.0
 51
0.0
  0
ARC
  8
DIK
 10
4667.751788454332
 20
8842.259565935579
 30
0.0
 40
1.0
 50
0.0
 51
90.0
  0
LINE
  8
DIK
 10
4668.751788454331
 20
8842.259565935579
 30
0.0
 11
4668.751788454331
 21
8836.259565935579
 31
0.0
  0
ARC
  8
DIK
 10
4667.751788454332
 20
8855.75956593558
 30
0.0
 40
1.0
 50
0.0
 51
90.0
  0
LINE
  8
DIK
 10
4668.751788454331
 20
8849.759565935579
 30
0.0
 11
4668.751788454331
 21
8855.75956593558
 31
0.0
  0
ARC
  8
DIK
 10
4667.751788454332
 20
8849.759565935579
 30
0.0
 40
1.0
 50
270.0
 51
0.0
  0
LINE
  8
DIK
 10
4670.251788454331
 20
8848.759565935578
 30
0.0
 11
4670.251788454331
 21
8846.759565935579
 31
0.0
  0
LINE
  8
DIK
 10
4670.251788454331
 20
8833.259565935579
 30
0.0
 11
4670.251788454331
 21
8835.259565935579
 31
0.0
  0
LINE
  8
DIK
 10
4655.251788454331
 20
8843.759565935579
 30
0.0
 11
4655.251788454331
 21
8843.25956593558
 31
0.0
  0
ARC
  8
DIK
 10
4654.735069160182
 20
8836.259565935579
 30
0.0
 40
1.0
 50
270.0
 51
0.0
  0
ARC
  8
DIK
 10
4652.751788454331
 20
8836.259565935579
 30
0.0
 40
1.0
 50
180.0
 51
270.0
  0
ARC
  8
DIK
 10
4656.735069160183
 20
8836.259565935579
 30
0.0
 40
1.0
 50
180.0
 51
270.0
  0
ARC
  8
DIK
 10
4656.735069160183
 20
8842.259565935579
 30
0.0
 40
1.0
 50
90.0
 51
180.0
  0
ARC
  8
DIK
 10
4652.751788454331
 20
8842.259565935579
 30
0.0
 40
1.0
 50
90.0
 51
180.0
  0
ARC
  8
DIK
 10
4654.735069160182
 20
8842.259565935579
 30
0.0
 40
1.0
 50
0.0
 51
90.0
  0
LINE
  8
DIK
 10
4651.751788454331
 20
8842.259565935579
 30
0.0
 11
4651.751788454331
 21
8836.259565935579
 31
0.0
  0
LINE
  8
DIK
 10
4655.735069160183
 20
8842.259565935579
 30
0.0
 11
4655.735069160183
 21
8836.259565935579
 31
0.0
  0
ARC
  8
DIK
 10
4656.735069160183
 20
8855.75956593558
 30
0.0
 40
1.0
 50
90.0
 51
180.0
  0
ARC
  8
DIK
 10
4652.751788454331
 20
8855.75956593558
 30
0.0
 40
1.0
 50
90.0
 51
180.0
  0
ARC
  8
DIK
 10
4654.735069160182
 20
8855.75956593558
 30
0.0
 40
1.0
 50
0.0
 51
90.0
  0
LINE
  8
DIK
 10
4651.751788454331
 20
8849.759565935579
 30
0.0
 11
4651.751788454331
 21
8855.75956593558
 31
0.0
  0
LINE
  8
DIK
 10
4655.735069160183
 20
8849.759565935579
 30
0.0
 11
4655.735069160183
 21
8855.75956593558
 31
0.0
  0
ARC
  8
DIK
 10
4654.735069160182
 20
8849.759565935579
 30
0.0
 40
1.0
 50
270.0
 51
0.0
  0
ARC
  8
DIK
 10
4652.751788454331
 20
8849.759565935579
 30
0.0
 40
1.0
 50
180.0
 51
270.0
  0
ARC
  8
DIK
 10
4656.735069160183
 20
8849.759565935579
 30
0.0
 40
1.0
 50
180.0
 51
270.0
  0
LINE
  8
DIK
 10
4650.251788454331
 20
8848.759565935578
 30
0.0
 11
4650.251788454331
 21
8846.759565935579
 31
0.0
  0
LINE
  8
DIK
 10
4655.251788454331
 20
8860.759565935579
 30
0.0
 11
4656.251788454331
 21
8861.75956593558
 31
0.0
  0
LINE
  8
DUN
 10
4656.251788454331
 20
8856.759565935579
 30
0.0
 11
4656.251788454331
 21
8861.75956593558
 31
0.0
  0
LINE
  8
DIK
 10
4655.251788454331
 20
8856.759565935579
 30
0.0
 11
4655.251788454331
 21
8860.759565935579
 31
0.0
  0
LINE
  8
DIK
 10
4655.251788454331
 20
8833.259565935579
 30
0.0
 11
4655.251788454331
 21
8831.759565935579
 31
0.0
  0
LINE
  8
DIK
 10
4650.251788454331
 20
8833.259565935579
 30
0.0
 11
4650.251788454331
 21
8835.259565935579
 31
0.0
  0
LINE
  8
DIK
 10
4643.251788454331
 20
8846.759565935579
 30
0.0
 11
4676.751788454331
 21
8846.759565935579
 31
0.0
  0
LINE
  8
HARTLIJN
 10
4641.751788454332
 20
8845.259565935579
 30
0.0
 11
4676.751788454331
 21
8845.259565935579
 31
0.0
  0
LINE
  8
DIK
 10
4652.751788454331
 20
8843.25956593558
 30
0.0
 11
4667.751788454332
 21
8843.25956593558
 31
0.0
  0
LINE
  8
DIK
 10
4652.751788454331
 20
8856.759565935579
 30
0.0
 11
4667.751788454332
 21
8856.759565935579
 31
0.0
  0
LINE
  8
DIK
 10
4650.251788454331
 20
8848.759565935578
 30
0.0
 11
4670.251788454331
 21
8848.759565935578
 31
0.0
  0
POLYLINE
  8
DIK
 66
     1
 10
0.0
 20
0.0
 30
0.0
  0
VERTEX
  8
DIK
 10
4650.251788454331
 20
8835.259565935579
 30
0.0
  0
VERTEX
  8
DIK
 10
4670.251788454331
 20
8835.259565935579
 30
0.0
  0
SEQEND
  8
DIK
  0
LINE
  8
DIK
 10
4651.251788454331
 20
8835.259565935579
 30
0.0
 11
4669.251788454332
 21
8835.259565935579
 31
0.0
  0
POLYLINE
  8
DIK
 66
     1
 10
0.0
 20
0.0
 30
0.0
 70
     1
  0
VERTEX
  8
DIK
 10
4646.251788454331
 20
8843.759565935579
 30
0.0
  0
VERTEX
  8
DIK
 10
4646.251788454331
 20
8833.259565935579
 30
0.0
  0
VERTEX
  8
DIK
 10
4674.251788454331
 20
8833.259565935579
 30
0.0
  0
VERTEX
  8
DIK
 10
4674.251788454331
 20
8843.759565935579
 30
0.0
  0
SEQEND
  8
DIK
  0
LINE
  8
DUN
 10
4655.251788454331
 20
8860.759565935579
 30
0.0
 11
4665.251788454331
 21
8860.759565935579
 31
0.0
  0
LINE
  8
DIK
 10
4656.251788454331
 20
8861.75956593558
 30
0.0
 11
4664.251788454331
 21
8861.75956593558
 31
0.0
  0
ARC
  8
DIK
 10
4644.251788454331
 20
8892.740002151125
 30
0.0
 40
1.0
 50
90.0
 51
180.0
  0
LINE
  8
DIK
 10
4652.251788454331
 20
8893.740002151124
 30
0.0
 11
4644.251788454331
 21
8893.740002151124
 31
0.0
  0
ARC
  8
DIK
 10
4652.251788454331
 20
8892.740002151125
 30
0.0
 40
1.0
 50
0.0
 51
90.000000000001
  0
ARC
  8
DIK
 10
4644.251788454331
 20
8876.723282856977
 30
0.0
 40
1.0
 50
90.0
 51
180.0
  0
ARC
  8
DIK
 10
4644.251788454331
 20
8874.740002151124
 30
0.0
 40
1.0
 50
180.0
 51
270.0
  0
ARC
  8
DIK
 10
4644.251788454331
 20
8878.723282856975
 30
0.0
 40
1.0
 50
180.000000000001
 51
270.0
  0
LINE
  8
DIK
 10
4652.251788454331
 20
8873.740002151123
 30
0.0
 11
4644.251788454331
 21
8873.740002151123
 31
0.0
  0
LINE
  8
DIK
 10
4652.251788454331
 20
8877.723282856976
 30
0.0
 11
4644.251788454331
 21
8877.723282856976
 31
0.0
  0
ARC
  8
DIK
 10
4652.251788454331
 20
8878.723282856975
 30
0.0
 40
1.0
 50
270.0
 51
0.0
  0
ARC
  8
DIK
 10
4652.251788454331
 20
8876.723282856977
 30
0.0
 40
1.0
 50
0.0
 51
90.0
  0
ARC
  8
DIK
 10
4652.251788454331
 20
8874.740002151124
 30
0.0
 40
1.0
 50
270.0
 51
0.0
  0
ARC
  8
DIK
 10
4644.251788454331
 20
8888.756721445274
 30
0.0
 40
1.0
 50
90.0
 51
180.000000000001
  0
ARC
  8
DIK
 10
4652.251788454331
 20
8888.756721445274
 30
0.0
 40
1.0
 50
0.0
 51
90.0
  0
LINE
  8
DIK
 10
4652.251788454331
 20
8889.756721445273
 30
0.0
 11
4644.251788454331
 21
8889.756721445273
 31
0.0
  0
ARC
  8
DIK
 10
4644.251788454331
 20
8890.756721445274
 30
0.0
 40
1.0
 50
180.0
 51
270.0
  0
ARC
  8
DIK
 10
4652.251788454331
 20
8890.756721445274
 30
0.0
 40
1.0
 50
270.0
 51
0.0
  0
LINE
  8
DIK
 10
4653.251788454331
 20
8892.740002151125
 30
0.0
 11
4653.251788454331
 21
8874.740002151124
 31
0.0
  0
LINE
  8
DIK
 10
4643.251788454331
 20
8874.740002151124
 30
0.0
 11
4643.251788454331
 21
8892.740002151125
 31
0.0
  0
LINE
  8
DUN
 10
4664.251788454331
 20
8793.759565935578
 30
0.0
 11
4665.251788454331
 21
8790.955399649545
 31
0.0
  0
LINE
  8
DUN
 10
4656.251788454331
 20
8793.759565935578
 30
0.0
 11
4655.251788454331
 21
8790.955399649545
 31
0.0
  0
POLYLINE
  8
DIK
 66
     1
 10
0.0
 20
0.0
 30
0.0
  0
VERTEX
  8
DIK
 10
4655.251788454331
 20
8793.759565935578
 30
0.0
  0
VERTEX
  8
DIK
 10
4665.251788454331
 20
8793.759565935578
 30
0.0
  0
SEQEND
  8
DIK
  0
LINE
  8
DIK
 10
4685.251788454331
 20
8760.759565935579
 30
0.0
 11
4685.251788454331
 21
8763.759565935579
 31
0.0
  0
ARC
  8
DIK
 10
4660.251788454331
 20
8764.565550273367
 30
0.0
 40
10.699790501663
 50
200.836746373359
 51
339.163253626641
  0
LINE
  8
DIK
 10
4635.251788454331
 20
8760.759565935579
 30
0.0
 11
4635.251788454331
 21
8763.759565935579
 31
0.0
  0
LINE
  8
DIK
 10
4685.251788454331
 20
8760.759565935579
 30
0.0
 11
4635.251788454331
 21
8760.759565935579
 31
0.0
  0
LINE
  8
HARTLIJN
 10
4660.251788454331
 20
8726.883523583799
 30
0.0
 11
4660.251788454331
 21
8863.502492119557
 31
0.0
  0
LINE
  8
DUN
 10
4656.251788454331
 20
8793.759565935578
 30
0.0
 11
4656.251788454331
 21
8833.259565935579
 31
0.0
  0
LINE
  8
DUN
 10
4664.251788454331
 20
8793.759565935578
 30
0.0
 11
4664.251788454331
 21
8833.259565935579
 31
0.0
  0
LINE
  8
DIK
 10
4665.251788454331
 20
8763.759565935579
 30
0.0
 11
4665.251788454331
 21
8833.259565935579
 31
0.0
  0
LINE
  8
DIK
 10
4655.251788454331
 20
8763.759565935579
 30
0.0
 11
4655.251788454331
 21
8833.259565935579
 31
0.0
  0
LINE
  8
STREEPLIJN
 62
     1
 10
4596.251788454331
 20
8830.759565935579
 30
0.0
 11
4596.251788454331
 21
8763.759565935579
 31
0.0
  0
LINE
  8
STREEPLIJN
 10
4540.251788454331
 20
9058.759565935574
 30
0.0
 11
4640.251788454332
 21
9058.759565935574
 31
0.0
  0
LINE
  8
STREEPLIJN
 10
4540.251788454331
 20
9068.759565935573
 30
0.0
 11
4640.251788454332
 21
9068.759565935573
 31
0.0
  0
LINE
  8
HARTLIJN
 10
4484.358820267022
 20
9063.759565935574
 30
0.0
 11
4696.14475664164
 21
9063.759565935574
 31
0.0
  0
LINE
  8
DIK
 10
4540.251788454331
 20
9090.259565935575
 30
0.0
 11
4537.251788454331
 21
9090.259565935575
 31
0.0
  0
ARC
  8
DIK
 10
4536.215272949149
 20
9070.776285229722
 30
0.0
 40
1.0
 50
270.0
 51
0.0
  0
ARC
  8
DIK
 10
4530.215272949149
 20
9070.776285229722
 30
0.0
 40
1.0
 50
180.0
 51
270.0
  0
LINE
  8
DIK
 10
4536.215272949149
 20
9069.776285229721
 30
0.0
 11
4530.215272949149
 21
9069.776285229721
 31
0.0
  0
LINE
  8
DIK
 10
4529.215272949149
 20
9068.759565935573
 30
0.0
 11
4525.215272949149
 21
9068.759565935573
 31
0.0
  0
LINE
  8
DIK
 10
4525.215272949149
 20
9068.759565935573
 30
0.0
 11
4524.215272949149
 21
9067.759565935574
 31
0.0
  0
LINE
  8
DUN
 10
4529.215272949149
 20
9067.759565935574
 30
0.0
 11
4524.215272949149
 21
9067.759565935574
 31
0.0
  0
ARC
  8
DIK
 10
4530.215272949149
 20
9068.776285229722
 30
0.0
 40
1.0
 50
90.0
 51
180.000000000001
  0
ARC
  8
DIK
 10
4536.215272949149
 20
9068.776285229722
 30
0.0
 40
1.0
 50
0.0
 51
90.0
  0
LINE
  8
DIK
 10
4536.215272949149
 20
9073.759565935572
 30
0.0
 11
4530.215272949149
 21
9073.759565935572
 31
0.0
  0
ARC
  8
DIK
 10
4530.215272949149
 20
9072.759565935575
 30
0.0
 40
1.0
 50
90.0
 51
180.0
  0
ARC
  8
DIK
 10
4536.215272949149
 20
9072.759565935575
 30
0.0
 40
1.0
 50
0.0
 51
90.000000000001
  0
LINE
  8
DIK
 10
4536.215272949149
 20
9057.742846641426
 30
0.0
 11
4530.215272949149
 21
9057.742846641426
 31
0.0
  0
LINE
  8
DIK
 10
4536.215272949149
 20
9053.759565935575
 30
0.0
 11
4530.215272949149
 21
9053.759565935575
 31
0.0
  0
ARC
  8
DIK
 10
4530.215272949149
 20
9054.759565935574
 30
0.0
 40
1.0
 50
180.000000000001
 51
270.0
  0
LINE
  8
DUN
 10
4529.215272949149
 20
9059.759565935575
 30
0.0
 11
4524.215272949149
 21
9059.759565935575
 31
0.0
  0
LINE
  8
DIK
 10
4529.215272949149
 20
9058.759565935574
 30
0.0
 11
4525.215272949149
 21
9058.759565935574
 31
0.0
  0
ARC
  8
DIK
 10
4530.215272949149
 20
9056.742846641425
 30
0.0
 40
1.0
 50
90.0
 51
180.0
  0
ARC
  8
DIK
 10
4530.215272949149
 20
9058.742846641427
 30
0.0
 40
1.0
 50
180.000000000001
 51
270.0
  0
LINE
  8
DIK
 10
4525.215272949149
 20
9058.759565935574
 30
0.0
 11
4524.215272949149
 21
9059.759565935575
 31
0.0
  0
ARC
  8
DIK
 10
4536.215272949149
 20
9056.742846641425
 30
0.0
 40
1.0
 50
0.0
 51
90.0
  0
ARC
  8
DIK
 10
4536.215272949149
 20
9054.759565935574
 30
0.0
 40
1.0
 50
270.0
 51
0.0
  0
ARC
  8
DIK
 10
4536.215272949149
 20
9058.742846641427
 30
0.0
 40
1.0
 50
270.0
 51
0.0
  0
LINE
  8
DIK
 10
4529.215272949149
 20
9054.759565935574
 30
0.0
 11
4529.215272949149
 21
9072.759565935575
 31
0.0
  0
LINE
  8
DIK
 10
4524.215272949149
 20
9059.759565935575
 30
0.0
 11
4524.215272949149
 21
9067.759565935574
 31
0.0
  0
LINE
  8
DUN
 10
4525.215272949149
 20
9058.759565935574
 30
0.0
 11
4525.215272949149
 21
9068.759565935573
 31
0.0
  0
LINE
  8
DIK
 10
4537.215272949149
 20
9068.776285229722
 30
0.0
 11
4537.215272949149
 21
9058.742846641427
 31
0.0
  0
LINE
  8
DIK
 10
4640.251788454332
 20
9090.259565935575
 30
0.0
 11
4643.251788454331
 21
9090.259565935575
 31
0.0
  0
ARC
  8
DIK
 10
4652.251788454331
 20
9070.756721445274
 30
0.0
 40
1.0
 50
270.0
 51
0.0
  0
ARC
  8
DIK
 10
4644.251788454331
 20
9070.756721445274
 30
0.0
 40
1.0
 50
180.0
 51
270.0
  0
LINE
  8
DIK
 10
4652.251788454331
 20
9069.756721445275
 30
0.0
 11
4644.251788454331
 21
9069.756721445275
 31
0.0
  0
ARC
  8
DIK
 10
4652.251788454331
 20
9068.756721445273
 30
0.0
 40
1.0
 50
0.0
 51
90.0
  0
ARC
  8
DIK
 10
4644.251788454331
 20
9068.756721445273
 30
0.0
 40
1.0
 50
90.0
 51
180.000000000001
  0
ARC
  8
DIK
 10
4652.251788454331
 20
9072.740002151125
 30
0.0
 40
1.0
 50
0.0
 51
90.000000000001
  0
LINE
  8
DIK
 10
4652.251788454331
 20
9073.740002151124
 30
0.0
 11
4644.251788454331
 21
9073.740002151124
 31
0.0
  0
ARC
  8
DIK
 10
4644.251788454331
 20
9072.740002151125
 30
0.0
 40
1.0
 50
90.0
 51
180.0
  0
ARC
  8
DIK
 10
4652.251788454331
 20
9054.740002151124
 30
0.0
 40
1.0
 50
270.0
 51
0.0
  0
ARC
  8
DIK
 10
4652.251788454331
 20
9056.723282856976
 30
0.0
 40
1.0
 50
0.0
 51
90.0
  0
ARC
  8
DIK
 10
4652.251788454331
 20
9058.723282856975
 30
0.0
 40
1.0
 50
270.0
 51
0.0
  0
LINE
  8
DIK
 10
4652.251788454331
 20
9057.723282856976
 30
0.0
 11
4644.251788454331
 21
9057.723282856976
 31
0.0
  0
LINE
  8
DIK
 10
4652.251788454331
 20
9053.740002151124
 30
0.0
 11
4644.251788454331
 21
9053.740002151124
 31
0.0
  0
ARC
  8
DIK
 10
4644.251788454331
 20
9058.723282856975
 30
0.0
 40
1.0
 50
180.000000000001
 51
270.0
  0
ARC
  8
DIK
 10
4644.251788454331
 20
9054.740002151124
 30
0.0
 40
1.0
 50
180.0
 51
270.0
  0
ARC
  8
DIK
 10
4644.251788454331
 20
9056.723282856976
 30
0.0
 40
1.0
 50
90.0
 51
180.0
  0
LINE
  8
DIK
 10
4643.251788454331
 20
9054.740002151124
 30
0.0
 11
4643.251788454331
 21
9072.740002151125
 31
0.0
  0
LINE
  8
DIK
 10
4653.251788454331
 20
9072.740002151125
 30
0.0
 11
4653.251788454331
 21
9054.740002151124
 31
0.0
  0
ENDBLK
  8
0
  0
BLOCK
  8
0
  2
*X12
 70
    65
 10
0.0
 20
0.0
 30
0.0
  3
*X
  0
LINE
  8
0
 62
     0
 10
1080.316547765805
 20
1334.082790804968
 30
0.0
 11
1082.765568558711
 21
1337.001420133252
 31
0.0
  0
LINE
  8
0
 62
     0
 10
1110.238307014886
 20
1369.7421548868
 30
0.0
 11
1112.15381807358
 21
1372.024972072651
 31
0.0
  0
LINE
  8
0
 62
     0
 10
1139.093046795542
 20
1404.129894683768
 30
0.0
 11
1139.945175959898
 21
1405.145422676743
 31
0.0
  0
LINE
  8
0
 62
     0
 10
1116.753481565006
 20
1330.894973697188
 30
0.0
 11
1119.202502357912
 21
1333.813603025471
 31
0.0
  0
LINE
  8
0
 62
     0
 10
1146.141731079875
 20
1365.918525636587
 30
0.0
 11
1148.59075187278
 21
1368.837154964871
 31
0.0
  0
LINE
  8
0
 62
     0
 10
1153.190415364207
 20
1327.707156589407
 30
0.0
 11
1155.639436157113
 21
1330.62578591769
 31
0.0
  0
LINE
  8
0
 62
     0
 10
1182.578664879076
 20
1362.730708528807
 30
0.0
 11
1185.027685671981
 21
1365.64933785709
 31
0.0
  0
LINE
  8
0
 62
     0
 10
1211.966914393944
 20
1397.754260468206
 30
0.0
 11
1214.41593518685
 21
1400.672889796489
 31
0.0
  0
LINE
  8
0
 62
     0
 10
1190.152695341516
 20
1325.145422676742
 30
0.0
 11
1192.076369956313
 21
1327.43796880991
 31
0.0
  0
LINE
  8
0
 62
     0
 10
1219.015598678276
 20
1359.542891421026
 30
0.0
 11
1221.464619471182
 21
1362.461520749309
 31
0.0
  0
LINE
  8
0
 62
     0
 10
1043.879613966604
 20
1337.270607912749
 30
0.0
 11
1046.32863475951
 21
1340.189237241032
 31
0.0
  0
LINE
  8
0
 62
     0
 10
1073.267863481473
 20
1372.294159852148
 30
0.0
 11
1075.716884274379
 21
1375.212789180432
 31
0.0
  0
LINE
  8
0
 62
     0
 10
1007.442680167404
 20
1340.45842502053
 30
0.0
 11
1009.89170096031
 21
1343.377054348813
 31
0.0
  0
LINE
  8
0
 62
     0
 10
1039.238307014886
 20
1378.350977544802
 30
0.0
 11
1039.279950475178
 21
1378.400606288213
 31
0.0
  0
LINE
  8
0
 62
     0
 10
971.005746368203
 20
1343.64624212831
 30
0.0
 11
973.454767161109
 21
1346.564871456593
 31
0.0
  0
LINE
  8
0
 62
     0
 10
1000.393995883072
 20
1378.66979406771
 30
0.0
 11
1002.843016675977
 21
1381.588423395993
 31
0.0
  0
LINE
  8
0
 62
     0
 10
971.006310016656
 20
1343.644998715464
 30
0.0
 11
974.04271145644
 21
1343.379348011569
 31
0.0
  0
LINE
  8
0
 62
     0
 10
1007.44312729406
 20
1340.457190268726
 30
0.0
 11
1010.479528733843
 21
1340.191539564831
 31
0.0
  0
LINE
  8
0
 62
     0
 10
1043.879944571463
 20
1337.269381821987
 30
0.0
 11
1046.916346011247
 21
1337.003731118092
 31
0.0
  0
LINE
  8
0
 62
     0
 10
1080.316761848867
 20
1334.081573375249
 30
0.0
 11
1083.353163288651
 21
1333.815922671354
 31
0.0
  0
LINE
  8
0
 62
     0
 10
1116.753579126271
 20
1330.893764928511
 30
0.0
 11
1119.789980566054
 21
1330.628114224616
 31
0.0
  0
LINE
  8
0
 62
     0
 10
1153.190396403674
 20
1327.705956481773
 30
0.0
 11
1156.226797843458
 21
1327.440305777878
 31
0.0
  0
LINE
  8
0
 62
     0
 10
1000.394562098926
 20
1378.668518845162
 30
0.0
 11
1003.43096353871
 21
1378.402868141267
 31
0.0
  0
LINE
  8
0
 62
     0
 10
1182.578648485945
 20
1362.72947661147
 30
0.0
 11
1185.615049925728
 21
1362.463825907575
 31
0.0
  0
LINE
  8
0
 62
     0
 10
1219.015465763348
 20
1359.541668164732
 30
0.0
 11
1222.051867203132
 21
1359.276017460837
 31
0.0
  0
LINE
  8
0
 62
     0
 10
1039.238307014887
 20
1375.270131516122
 30
0.0
 11
1039.867780816114
 21
1375.215059694528
 31
0.0
  0
LINE
  8
0
 62
     0
 10
1073.268196653734
 20
1372.292901951685
 30
0.0
 11
1076.304598093517
 21
1372.02725124779
 31
0.0
  0
LINE
  8
0
 62
     0
 10
1110.238307014886
 20
1369.058436405782
 30
0.0
 11
1112.741415370921
 21
1368.839442801052
 31
0.0
  0
LINE
  8
0
 62
     0
 10
1146.141831208541
 20
1365.917285058208
 30
0.0
 11
1149.178232648325
 21
1365.651634354314
 31
0.0
  0
LINE
  8
0
 62
     0
 10
1139.093266013407
 20
1404.128613634644
 30
0.0
 11
1142.129667453191
 21
1403.862962930749
 31
0.0
  0
LINE
  8
0
 62
     0
 10
1211.966900568215
 20
1397.752996741168
 30
0.0
 11
1215.003302007999
 21
1397.487346037273
 31
0.0
  0
LINE
  8
0
 62
     0
 10
1083.362644985665
 20
1333.80923428949
 30
0.0
 11
1082.775289373795
 21
1336.993517157767
 31
0.0
  0
LINE
  8
0
 62
     0
 10
1076.31437764323
 20
1372.020628708819
 30
0.0
 11
1075.727022031361
 21
1375.204911577097
 31
0.0
  0
LINE
  8
0
 62
     0
 10
1119.79941266129
 20
1330.621177434218
 30
0.0
 11
1119.212057049421
 21
1333.805460302496
 31
0.0
  0
LINE
  8
0
 62
     0
 10
1112.751145318856
 20
1368.832571853548
 30
0.0
 11
1112.163789706987
 21
1372.016854721825
 31
0.0
  0
LINE
  8
0
 62
     0
 10
1156.236180336917
 20
1327.433120578948
 30
0.0
 11
1155.648824725047
 21
1330.617403447225
 31
0.0
  0
LINE
  8
0
 62
     0
 10
1149.187912994483
 20
1365.644514998277
 30
0.0
 11
1148.600557382613
 21
1368.828797866554
 31
0.0
  0
LINE
  8
0
 62
     0
 10
1142.139645652048
 20
1403.855909417607
 30
0.0
 11
1141.901789004048
 21
1405.145422676743
 31
0.0
  0
LINE
  8
0
 62
     0
 10
1192.506872665077
 20
1325.145422676742
 30
0.0
 11
1192.085592400674
 21
1327.429346591954
 31
0.0
  0
LINE
  8
0
 62
     0
 10
1185.624680670109
 20
1362.456458143006
 30
0.0
 11
1185.037325058239
 21
1365.640741011283
 31
0.0
  0
LINE
  8
0
 62
     0
 10
1222.061448345735
 20
1359.268401287734
 30
0.0
 11
1221.474092733865
 21
1362.452684156012
 31
0.0
  0
LINE
  8
0
 62
     0
 10
1215.013181003301
 20
1397.479795707064
 30
0.0
 11
1214.425825391431
 21
1400.664078575341
 31
0.0
  0
LINE
  8
0
 62
     0
 10
1046.925877310038
 20
1336.997291144761
 30
0.0
 11
1046.338521698169
 21
1340.181574013038
 31
0.0
  0
LINE
  8
0
 62
     0
 10
1039.877609967604
 20
1375.208685564091
 30
0.0
 11
1039.290254355735
 21
1378.392968432368
 31
0.0
  0
LINE
  8
0
 62
     0
 10
1010.489109634412
 20
1340.185348000032
 30
0.0
 11
1009.901754022542
 21
1343.36963086831
 31
0.0
  0
LINE
  8
0
 62
     0
 10
1003.440842291978
 20
1378.396742419362
 30
0.0
 11
1002.853486680108
 21
1381.581025287639
 31
0.0
  0
LINE
  8
0
 62
     0
 10
974.052341958786
 20
1343.373404855303
 30
0.0
 11
973.464986346917
 21
1346.557687723581
 31
0.0
  0
LINE
  8
0
 62
     0
 10
1074.870895880276
 20
1325.145422676742
 30
0.0
 11
1075.810808219111
 21
1326.125013315925
 31
0.0
  0
LINE
  8
0
 62
     0
 10
1119.33489946607
 20
1371.48646948883
 30
0.0
 11
1123.291635033976
 21
1375.610238231821
 31
0.0
  0
LINE
  8
0
 62
     0
 10
1227.766515822922
 20
1354.669538315739
 30
0.0
 11
1231.723251390828
 21
1358.79330705873
 31
0.0
  0
LINE
  8
0
 62
     0
 10
1017.63826447278
 20
1330.409710159479
 30
0.0
 11
1021.595000040685
 21
1334.53347890247
 31
0.0
  0
LINE
  8
0
 62
     0
 10
1065.119091287644
 20
1379.894935075375
 30
0.0
 11
1069.07582685555
 21
1384.018703818366
 31
0.0
  0
LINE
  8
0
 62
     0
 10
1010.903283109218
 20
1388.303400661921
 30
0.0
 11
1014.860018677124
 21
1392.427169404912
 31
0.0
  0
LINE
  8
0
 62
     0
 10
1075.924912827379
 20
1325.145422676742
 30
0.0
 11
1075.811302267907
 21
1326.122015099501
 31
0.0
  0
LINE
  8
0
 62
     0
 10
1069.637580131566
 20
1379.191116128097
 30
0.0
 11
1069.076332664625
 21
1384.015579857969
 31
0.0
  0
LINE
  8
0
 62
     0
 10
1123.853396628095
 20
1370.782662547639
 30
0.0
 11
1123.292149161154
 21
1375.607126277512
 31
0.0
  0
LINE
  8
0
 62
     0
 10
1232.285029621152
 20
1353.965755386724
 30
0.0
 11
1231.723782154212
 21
1358.790219116596
 31
0.0
  0
LINE
  8
0
 62
     0
 10
1022.156733238318
 20
1329.706004950087
 30
0.0
 11
1021.595485771378
 21
1334.530468679959
 31
0.0
  0
LINE
  8
0
 62
     0
 10
1015.421763635037
 20
1387.599569708555
 30
0.0
 11
1014.860516168097
 21
1392.424033438427
 31
0.0
  0
LINE
  8
0
 62
     0
 10
1017.640686544143
 20
1330.404833520952
 30
0.0
 11
1022.158671204316
 21
1329.70412059083
 31
0.0
  0
LINE
  8
0
 62
     0
 10
1010.905791784852
 20
1388.298412254532
 30
0.0
 11
1015.423776445025
 21
1387.597699324411
 31
0.0
  0
LINE
  8
0
 62
     0
 10
1227.769055473165
 20
1354.664191608689
 30
0.0
 11
1232.287040133338
 21
1353.963478678567
 31
0.0
  0
LINE
  8
0
 62
     0
 10
1065.12160770693
 20
1379.889857093071
 30
0.0
 11
1069.639592367103
 21
1379.18914416295
 31
0.0
  0
LINE
  8
0
 62
     0
 10
1119.337423629008
 20
1371.481301931611
 30
0.0
 11
1123.855408289181
 21
1370.780589001489
 31
0.0
  0
LINE
  8
0
 62
     0
 10
1217.195254827928
 20
1403.604557404568
 30
0.0
 11
1220.752196252883
 21
1404.969939292336
 31
0.0
  0
LINE
  8
0
 62
     0
 10
1046.46206643012
 20
1338.066226791723
 30
0.0
 11
1050.019007855074
 21
1339.431608679491
 31
0.0
  0
LINE
  8
0
 62
     0
 10
1089.145363529572
 20
1354.450809444934
 30
0.0
 11
1092.702304954527
 21
1355.816191332702
 31
0.0
  0
LINE
  8
0
 62
     0
 10
1131.828660629024
 20
1370.835392098145
 30
0.0
 11
1135.385602053978
 21
1372.200773985913
 31
0.0
  0
LINE
  8
0
 62
     0
 10
1204.834933695553
 20
1366.766871048004
 30
0.0
 11
1208.391875120507
 21
1368.132252935772
 31
0.0
  0
LINE
  8
0
 62
     0
 10
1119.468339496649
 20
1333.997705741582
 30
0.0
 11
1123.025280921603
 21
1335.36308762935
 31
0.0
  0
LINE
  8
0
 62
     0
 10
1162.151636596101
 20
1350.382288394793
 30
0.0
 11
1165.708578021055
 21
1351.747670282561
 31
0.0
  0
LINE
  8
0
 62
     0
 10
1192.474612563177
 20
1329.929184691441
 30
0.0
 11
1196.031553988132
 21
1331.294566579208
 31
0.0
  0
LINE
  8
0
 62
     0
 10
1235.15790966263
 20
1346.313767344652
 30
0.0
 11
1238.714851087584
 21
1347.679149232419
 31
0.0
  0
LINE
  8
0
 62
     0
 10
973.455793363591
 20
1342.134747841865
 30
0.0
 11
977.012734788546
 21
1343.500129729632
 31
0.0
  0
LINE
  8
0
 62
     0
 10
1016.139090463043
 20
1358.519330495076
 30
0.0
 11
1019.696031887997
 21
1359.884712382843
 31
0.0
  0
LINE
  8
0
 62
     0
 10
1058.822387562495
 20
1374.903913148287
 30
0.0
 11
1062.379328987449
 21
1376.269295036055
 31
0.0
  0
LINE
  8
0
 62
     0
 10
985.816114495967
 20
1378.972434198428
 30
0.0
 11
989.373055920921
 21
1380.337816086196
 31
0.0
  0
LINE
  8
0
 62
     0
 10
1028.499411595419
 20
1395.35701685164
 30
0.0
 11
1029.238307014886
 21
1395.640652228826
 31
0.0
  0
LINE
  8
0
 62
     0
 10
1028.501834604951
 20
1395.353693765147
 30
0.0
 11
1029.238307014887
 21
1394.856936852225
 31
0.0
  0
LINE
  8
0
 62
     0
 10
1119.47046936627
 20
1333.994574853109
 30
0.0
 11
1121.997375887418
 21
1332.29015488333
 31
0.0
  0
LINE
  8
0
 62
     0
 10
1058.824712858724
 20
1374.900654127801
 30
0.0
 11
1061.351619379872
 21
1373.196234158022
 31
0.0
  0
LINE
  8
0
 62
     0
 10
1089.147591112497
 20
1354.447614490455
 30
0.0
 11
1091.674497633645
 21
1352.743194520676
 31
0.0
  0
LINE
  8
0
 62
     0
 10
1192.476631543346
 20
1329.926088802881
 30
0.0
 11
1195.003538064494
 21
1328.221668833102
 31
0.0
  0
LINE
  8
0
 62
     0
 10
1131.8308750358
 20
1370.832168077573
 30
0.0
 11
1134.357781556948
 21
1369.127748107794
 31
0.0
  0
LINE
  8
0
 62
     0
 10
1162.153753289573
 20
1350.379128440227
 30
0.0
 11
1164.680659810721
 21
1348.674708470448
 31
0.0
  0
LINE
  8
0
 62
     0
 10
1204.837037212876
 20
1366.763682027344
 30
0.0
 11
1207.363943734024
 21
1365.059262057566
 31
0.0
  0
LINE
  8
0
 62
     0
 10
1235.159915466649
 20
1346.310642389998
 30
0.0
 11
1237.686821987797
 21
1344.606222420219
 31
0.0
  0
LINE
  8
0
 62
     0
 10
1217.197442882405
 20
1403.601275251809
 30
0.0
 11
1219.724349403553
 21
1401.89685528203
 31
0.0
  0
LINE
  8
0
 62
     0
 10
985.818550681648
 20
1378.969140178029
 30
0.0
 11
988.345457202796
 21
1377.26472020825
 31
0.0
  0
LINE
  8
0
 62
     0
 10
1016.141428935421
 20
1358.516100540683
 30
0.0
 11
1018.668335456569
 21
1356.811680570904
 31
0.0
  0
LINE
  8
0
 62
     0
 10
1046.464307189195
 20
1338.063060903337
 30
0.0
 11
1048.991213710342
 21
1336.358640933558
 31
0.0
  0
LINE
  8
0
 62
     0
 10
973.458145012119
 20
1342.131546953565
 30
0.0
 11
975.985051533267
 21
1340.427126983786
 31
0.0
  0
LINE
  8
0
 62
     0
 10
1091.675755415201
 20
1352.743484626132
 30
0.0
 11
1092.70579215887
 21
1355.813284018062
 31
0.0
  0
LINE
  8
0
 62
     0
 10
1121.998612645199
 20
1332.290463466187
 30
0.0
 11
1123.028649388868
 21
1335.360262858117
 31
0.0
  0
LINE
  8
0
 62
     0
 10
1134.359053569226
 20
1369.128056169343
 30
0.0
 11
1135.389090312895
 21
1372.197855561273
 31
0.0
  0
LINE
  8
0
 62
     0
 10
1164.681910799224
 20
1348.675035009399
 30
0.0
 11
1165.711947542893
 21
1351.744834401328
 31
0.0
  0
LINE
  8
0
 62
     0
 10
1195.004768029222
 20
1328.222013849454
 30
0.0
 11
1196.034804772891
 21
1331.291813241384
 31
0.0
  0
LINE
  8
0
 62
     0
 10
1207.365208953249
 20
1365.05960655261
 30
0.0
 11
1208.395245696918
 21
1368.12940594454
 31
0.0
  0
LINE
  8
0
 62
     0
 10
1219.725649877276
 20
1401.897199255767
 30
0.0
 11
1220.755686620945
 21
1404.966998647697
 31
0.0
  0
LINE
  8
0
 62
     0
 10
1237.688066183247
 20
1344.606585392665
 30
0.0
 11
1238.718102926916
 21
1347.676384784595
 31
0.0
  0
LINE
  8
0
 62
     0
 10
1048.992457261176
 20
1336.35891308292
 30
0.0
 11
1050.022494004845
 21
1339.42871247485
 31
0.0
  0
LINE
  8
0
 62
     0
 10
1061.352898185203
 20
1373.196505786077
 30
0.0
 11
1062.382934928872
 21
1376.266305178007
 31
0.0
  0
LINE
  8
0
 62
     0
 10
1018.669600031178
 20
1356.811934242865
 30
0.0
 11
1019.699636774847
 21
1359.881733634795
 31
0.0
  0
LINE
  8
0
 62
     0
 10
975.986301877154
 20
1340.427362699654
 30
0.0
 11
977.016338620822
 21
1343.497162091584
 31
0.0
  0
LINE
  8
0
 62
     0
 10
988.34674280118
 20
1377.26495540281
 30
0.0
 11
989.376779544849
 21
1380.33475479474
 31
0.0
  0
LINE
  8
0
 62
     0
 10
1085.166640544233
 20
1342.225085255704
 30
0.0
 11
1085.166640544233
 21
1342.225085255704
 31
0.0
  0
LINE
  8
0
 62
     0
 10
1112.169214834386
 20
1362.944889253445
 30
0.0
 11
1112.169214834386
 21
1362.944889253445
 31
0.0
  0
LINE
  8
0
 62
     0
 10
1138.869521501888
 20
1383.432755146733
 30
0.0
 11
1138.869521501888
 21
1383.432755146733
 31
0.0
  0
LINE
  8
0
 62
     0
 10
1165.146653497678
 20
1403.595907693788
 30
0.0
 11
1165.146653497678
 21
1403.595907693788
 31
0.0
  0
LINE
  8
0
 62
     0
 10
1059.507229198562
 20
1338.972940483279
 30
0.0
 11
1059.507229198562
 21
1338.972940483279
 31
0.0
  0
LINE
  8
0
 62
     0
 10
1085.784361194352
 20
1359.136093030335
 30
0.0
 11
1085.784361194352
 21
1359.136093030335
 31
0.0
  0
LINE
  8
0
 62
     0
 10
1112.786935484505
 20
1379.855897028075
 30
0.0
 11
1112.786935484505
 21
1379.855897028075
 31
0.0
  0
LINE
  8
0
 62
     0
 10
1139.487242152006
 20
1400.343762921364
 30
0.0
 11
1139.487242152006
 21
1400.343762921364
 31
0.0
  0
LINE
  8
0
 62
     0
 10
1113.404656134623
 20
1396.766904802706
 30
0.0
 11
1113.404656134623
 21
1396.766904802706
 31
0.0
  0
LINE
  8
0
 62
     0
 10
1060.12494984868
 20
1355.88394825791
 30
0.0
 11
1060.12494984868
 21
1355.88394825791
 31
0.0
  0
LINE
  8
0
 62
     0
 10
1086.40208184447
 20
1376.047100804965
 30
0.0
 11
1086.40208184447
 21
1376.047100804965
 31
0.0
  0
LINE
  8
0
 62
     0
 10
1007.039789541145
 20
1331.587286141511
 30
0.0
 11
1007.039789541145
 21
1331.587286141511
 31
0.0
  0
LINE
  8
0
 62
     0
 10
1060.742670498799
 20
1372.794956032541
 30
0.0
 11
1060.742670498799
 21
1372.794956032541
 31
0.0
  0
LINE
  8
0
 62
     0
 10
1087.019802494589
 20
1392.958108579596
 30
0.0
 11
1087.019802494589
 21
1392.958108579596
 31
0.0
  0
LINE
  8
0
 62
     0
 10
981.380378195473
 20
1328.335141369086
 30
0.0
 11
981.380378195473
 21
1328.335141369086
 31
0.0
  0
LINE
  8
0
 62
     0
 10
1007.657510191263
 20
1348.498293916142
 30
0.0
 11
1007.657510191263
 21
1348.498293916142
 31
0.0
  0
LINE
  8
0
 62
     0
 10
1061.360391148917
 20
1389.705963807171
 30
0.0
 11
1061.360391148917
 21
1389.705963807171
 31
0.0
  0
LINE
  8
0
 62
     0
 10
981.998098845591
 20
1345.246149143717
 30
0.0
 11
981.998098845591
 21
1345.246149143717
 31
0.0
  0
LINE
  8
0
 62
     0
 10
1008.275230841382
 20
1365.409301690772
 30
0.0
 11
1008.275230841382
 21
1365.409301690772
 31
0.0
  0
LINE
  8
0
 62
     0
 10
982.61581949571
 20
1362.157156918348
 30
0.0
 11
982.61581949571
 21
1362.157156918348
 31
0.0
  0
LINE
  8
0
 62
     0
 10
1008.8929514915
 20
1382.320309465403
 30
0.0
 11
1008.8929514915
 21
1382.320309465403
 31
0.0
  0
LINE
  8
0
 62
     0
 10
983.233540145828
 20
1379.068164692978
 30
0.0
 11
983.233540145828
 21
1379.068164692978
 31
0.0
  0
LINE
  8
0
 62
     0
 10
1009.510672141618
 20
1399.231317240034
 30
0.0
 11
1009.510672141618
 21
1399.231317240034
 31
0.0
  0
LINE
  8
0
 62
     0
 10
983.851260795946
 20
1395.979172467609
 30
0.0
 11
983.851260795946
 21
1395.979172467609
 31
0.0
  0
LINE
  8
0
 62
     0
 10
1084.548919894115
 20
1325.314077481073
 30
0.0
 11
1084.548919894115
 21
1325.314077481073
 31
0.0
  0
LINE
  8
0
 62
     0
 10
1111.551494184268
 20
1346.033881478814
 30
0.0
 11
1111.551494184268
 21
1346.033881478814
 31
0.0
  0
LINE
  8
0
 62
     0
 10
1138.251800851769
 20
1366.521747372102
 30
0.0
 11
1138.251800851769
 21
1366.521747372102
 31
0.0
  0
LINE
  8
0
 62
     0
 10
1164.52893284756
 20
1386.684899919158
 30
0.0
 11
1164.52893284756
 21
1386.684899919158
 31
0.0
  0
LINE
  8
0
 62
     0
 10
1110.93377353415
 20
1329.122873704184
 30
0.0
 11
1110.93377353415
 21
1329.122873704184
 31
0.0
  0
LINE
  8
0
 62
     0
 10
1137.634080201651
 20
1349.610739597472
 30
0.0
 11
1137.634080201651
 21
1349.610739597472
 31
0.0
  0
LINE
  8
0
 62
     0
 10
1163.911212197441
 20
1369.773892144527
 30
0.0
 11
1163.911212197441
 21
1369.773892144527
 31
0.0
  0
LINE
  8
0
 62
     0
 10
1190.913786487594
 20
1390.493696142268
 30
0.0
 11
1190.913786487594
 21
1390.493696142268
 31
0.0
  0
LINE
  8
0
 62
     0
 10
1137.016359551533
 20
1332.699731822841
 30
0.0
 11
1137.016359551533
 21
1332.699731822841
 31
0.0
  0
LINE
  8
0
 62
     0
 10
1163.293491547323
 20
1352.862884369897
 30
0.0
 11
1163.293491547323
 21
1352.862884369897
 31
0.0
  0
LINE
  8
0
 62
     0
 10
1190.296065837475
 20
1373.582688367637
 30
0.0
 11
1190.296065837475
 21
1373.582688367637
 31
0.0
  0
LINE
  8
0
 62
     0
 10
1216.996372504977
 20
1394.070554260926
 30
0.0
 11
1216.996372504977
 21
1394.070554260926
 31
0.0
  0
LINE
  8
0
 62
     0
 10
1162.675770897205
 20
1335.951876595266
 30
0.0
 11
1162.675770897205
 21
1335.951876595266
 31
0.0
  0
LINE
  8
0
 62
     0
 10
1189.678345187357
 20
1356.671680593007
 30
0.0
 11
1189.678345187357
 21
1356.671680593007
 31
0.0
  0
LINE
  8
0
 62
     0
 10
1216.378651854858
 20
1377.159546486295
 30
0.0
 11
1216.378651854858
 21
1377.159546486295
 31
0.0
  0
LINE
  8
0
 62
     0
 10
1189.060624537239
 20
1339.760672818376
 30
0.0
 11
1189.060624537239
 21
1339.760672818376
 31
0.0
  0
LINE
  8
0
 62
     0
 10
1215.76093120474
 20
1360.248538711665
 30
0.0
 11
1215.76093120474
 21
1360.248538711665
 31
0.0
  0
LINE
  8
0
 62
     0
 10
1215.143210554622
 20
1343.337530937034
 30
0.0
 11
1215.143210554622
 21
1343.337530937034
 31
0.0
  0
LINE
  8
0
 62
     0
 10
1214.525489904503
 20
1326.426523162403
 30
0.0
 11
1214.525489904503
 21
1326.426523162403
 31
0.0
  0
LINE
  8
0
 62
     0
 10
997.381491448853
 20
1337.571275957803
 30
0.0
 11
997.381491448853
 21
1337.571275957803
 31
0.0
  0
LINE
  8
0
 62
     0
 10
1010.098754685695
 20
1339.24553542541
 30
0.0
 11
1010.098754685695
 21
1339.24553542541
 31
0.0
  0
LINE
  8
0
 62
     0
 10
1189.500305773341
 20
1362.864197697151
 30
0.0
 11
1189.500305773341
 21
1362.864197697151
 31
0.0
  0
LINE
  8
0
 62
     0
 10
1202.217569010184
 20
1364.538457164758
 30
0.0
 11
1202.217569010184
 21
1364.538457164758
 31
0.0
  0
LINE
  8
0
 62
     0
 10
1221.457151412059
 20
1367.071396240503
 30
0.0
 11
1221.457151412059
 21
1367.071396240503
 31
0.0
  0
LINE
  8
0
 62
     0
 10
1061.421096223683
 20
1346.002249870919
 30
0.0
 11
1061.421096223683
 21
1346.002249870919
 31
0.0
  0
LINE
  8
0
 62
     0
 10
1074.138359460525
 20
1347.676509338525
 30
0.0
 11
1074.138359460525
 21
1347.676509338525
 31
0.0
  0
LINE
  8
0
 62
     0
 10
1093.3779418624
 20
1350.209448414271
 30
0.0
 11
1093.3779418624
 21
1350.209448414271
 31
0.0
  0
LINE
  8
0
 62
     0
 10
1125.460700998512
 20
1354.433223784035
 30
0.0
 11
1125.460700998512
 21
1354.433223784035
 31
0.0
  0
LINE
  8
0
 62
     0
 10
1138.177964235354
 20
1356.107483251642
 30
0.0
 11
1138.177964235354
 21
1356.107483251642
 31
0.0
  0
LINE
  8
0
 62
     0
 10
1157.41754663723
 20
1358.640422327387
 30
0.0
 11
1157.41754663723
 21
1358.640422327387
 31
0.0
  0
LINE
  8
0
 62
     0
 10
978.662664814802
 20
1353.383615551663
 30
0.0
 11
978.662664814802
 21
1353.383615551663
 31
0.0
  0
LINE
  8
0
 62
     0
 10
1010.745423950914
 20
1357.607390921427
 30
0.0
 11
1010.745423950914
 21
1357.607390921427
 31
0.0
  0
LINE
  8
0
 62
     0
 10
1023.462687187756
 20
1359.281650389033
 30
0.0
 11
1023.462687187756
 21
1359.281650389033
 31
0.0
  0
LINE
  8
0
 62
     0
 10
1202.864238275403
 20
1382.900312660775
 30
0.0
 11
1202.864238275403
 21
1382.900312660775
 31
0.0
  0
LINE
  8
0
 62
     0
 10
1215.581501512245
 20
1384.574572128382
 30
0.0
 11
1215.581501512245
 21
1384.574572128382
 31
0.0
  0
LINE
  8
0
 62
     0
 10
1234.82108391412
 20
1387.107511204127
 30
0.0
 11
1234.82108391412
 21
1387.107511204127
 31
0.0
  0
LINE
  8
0
 62
     0
 10
1042.702269589632
 20
1361.814589464779
 30
0.0
 11
1042.702269589632
 21
1361.814589464779
 31
0.0
  0
LINE
  8
0
 62
     0
 10
1074.785028725744
 20
1366.038364834543
 30
0.0
 11
1074.785028725744
 21
1366.038364834543
 31
0.0
  0
LINE
  8
0
 62
     0
 10
1087.502291962586
 20
1367.71262430215
 30
0.0
 11
1087.502291962586
 21
1367.71262430215
 31
0.0
  0
LINE
  8
0
 62
     0
 10
1138.824633500573
 20
1374.469338747659
 30
0.0
 11
1138.824633500573
 21
1374.469338747659
 31
0.0
  0
LINE
  8
0
 62
     0
 10
1151.541896737415
 20
1376.143598215266
 30
0.0
 11
1151.541896737415
 21
1376.143598215266
 31
0.0
  0
LINE
  8
0
 62
     0
 10
972.787014914988
 20
1370.886791439541
 30
0.0
 11
972.787014914988
 21
1370.886791439541
 31
0.0
  0
LINE
  8
0
 62
     0
 10
992.026597316864
 20
1373.419730515287
 30
0.0
 11
992.026597316864
 21
1373.419730515287
 31
0.0
  0
LINE
  8
0
 62
     0
 10
1024.109356452975
 20
1377.643505885051
 30
0.0
 11
1024.109356452975
 21
1377.643505885051
 31
0.0
  0
LINE
  8
0
 62
     0
 10
1184.145411641352
 20
1398.712652254635
 30
0.0
 11
1184.145411641352
 21
1398.712652254635
 31
0.0
  0
LINE
  8
0
 62
     0
 10
1216.228170777464
 20
1402.936427624399
 30
0.0
 11
1216.228170777464
 21
1402.936427624399
 31
0.0
  0
LINE
  8
0
 62
     0
 10
1228.945434014306
 20
1404.610687092005
 30
0.0
 11
1228.945434014306
 21
1404.610687092005
 31
0.0
  0
LINE
  8
0
 62
     0
 10
1056.066202091693
 20
1381.850704428403
 30
0.0
 11
1056.066202091693
 21
1381.850704428403
 31
0.0
  0
LINE
  8
0
 62
     0
 10
1088.148961227805
 20
1386.074479798167
 30
0.0
 11
1088.148961227805
 21
1386.074479798167
 31
0.0
  0
LINE
  8
0
 62
     0
 10
1120.105806866522
 20
1390.281678341519
 30
0.0
 11
1120.105806866522
 21
1390.281678341519
 31
0.0
  0
LINE
  8
0
 62
     0
 10
1152.188566002634
 20
1394.505453711283
 30
0.0
 11
1152.188566002634
 21
1394.505453711283
 31
0.0
  0
LINE
  8
0
 62
     0
 10
1164.905829239476
 20
1396.17971317889
 30
0.0
 11
1164.905829239476
 21
1396.17971317889
 31
0.0
  0
LINE
  8
0
 62
     0
 10
973.433684180207
 20
1389.248646935559
 30
0.0
 11
973.433684180207
 21
1389.248646935559
 31
0.0
  0
LINE
  8
0
 62
     0
 10
986.150947417049
 20
1390.922906403165
 30
0.0
 11
986.150947417049
 21
1390.922906403165
 31
0.0
  0
LINE
  8
0
 62
     0
 10
1005.390529818925
 20
1393.455845478911
 30
0.0
 11
1005.390529818925
 21
1393.455845478911
 31
0.0
  0
LINE
  8
0
 62
     0
 10
1050.190552191878
 20
1399.353880316281
 30
0.0
 11
1050.190552191878
 21
1399.353880316281
 31
0.0
  0
LINE
  8
0
 62
     0
 10
1069.430134593754
 20
1401.886819392027
 30
0.0
 11
1069.430134593754
 21
1401.886819392027
 31
0.0
  0
LINE
  8
0
 62
     0
 10
1048.057163721622
 20
1325.966134907295
 30
0.0
 11
1048.057163721622
 21
1325.966134907295
 31
0.0
  0
LINE
  8
0
 62
     0
 10
1060.774426958463
 20
1327.640394374902
 30
0.0
 11
1060.774426958463
 21
1327.640394374902
 31
0.0
  0
LINE
  8
0
 62
     0
 10
1080.014009360339
 20
1330.173333450647
 30
0.0
 11
1080.014009360339
 21
1330.173333450647
 31
0.0
  0
LINE
  8
0
 62
     0
 10
1188.853636508122
 20
1344.502342201134
 30
0.0
 11
1188.853636508122
 21
1344.502342201134
 31
0.0
  0
LINE
  8
0
 62
     0
 10
1208.093218909998
 20
1347.035281276879
 30
0.0
 11
1208.093218909998
 21
1347.035281276879
 31
0.0
  0
LINE
  8
0
 62
     0
 10
1112.096768496451
 20
1334.397108820411
 30
0.0
 11
1112.096768496451
 21
1334.397108820411
 31
0.0
  0
LINE
  8
0
 62
     0
 10
1124.814031733293
 20
1336.071368288018
 30
0.0
 11
1124.814031733293
 21
1336.071368288018
 31
0.0
  0
LINE
  8
0
 62
     0
 10
1144.053614135168
 20
1338.604307363763
 30
0.0
 11
1144.053614135168
 21
1338.604307363763
 31
0.0
  0
LINE
  8
0
 62
     0
 10
1194.729286407937
 20
1326.999166313255
 30
0.0
 11
1194.729286407937
 21
1326.999166313255
 31
0.0
  0
LINE
  8
0
 62
     0
 10
1226.812045544049
 20
1331.222941683019
 30
0.0
 11
1226.812045544049
 21
1331.222941683019
 31
0.0
  0
LINE
  8
0
 62
     0
 10
1026.663865720047
 20
1403.416987494779
 30
0.0
 11
1026.663865720047
 21
1403.416987494779
 31
0.0
  0
LINE
  8
0
 62
     0
 10
1115.13731516871
 20
1347.053183979981
 30
0.0
 11
1115.13731516871
 21
1347.053183979981
 31
0.0
  0
LINE
  8
0
 62
     0
 10
1071.007701157997
 20
1375.16684868712
 30
0.0
 11
1071.007701157997
 21
1375.16684868712
 31
0.0
  0
LINE
  8
0
 62
     0
 10
1081.718772519821
 20
1368.343143661115
 30
0.0
 11
1081.718772519821
 21
1368.343143661115
 31
0.0
  0
LINE
  8
0
 62
     0
 10
1053.781984753422
 20
1402.271238696244
 30
0.0
 11
1053.781984753422
 21
1402.271238696244
 31
0.0
  0
LINE
  8
0
 62
     0
 10
1098.125820191372
 20
1374.021099888585
 30
0.0
 11
1098.125820191372
 21
1374.021099888585
 31
0.0
  0
LINE
  8
0
 62
     0
 10
1142.255434202085
 20
1345.907435181446
 30
0.0
 11
1142.255434202085
 21
1345.907435181446
 31
0.0
  0
LINE
  8
0
 62
     0
 10
1080.900103786796
 20
1401.12548989771
 30
0.0
 11
1080.900103786796
 21
1401.12548989771
 31
0.0
  0
LINE
  8
0
 62
     0
 10
1125.243939224746
 20
1372.875351090051
 30
0.0
 11
1125.243939224746
 21
1372.875351090051
 31
0.0
  0
LINE
  8
0
 62
     0
 10
1135.955010586569
 20
1366.051646064046
 30
0.0
 11
1135.955010586569
 21
1366.051646064046
 31
0.0
  0
LINE
  8
0
 62
     0
 10
1152.36205825812
 20
1371.729602291516
 30
0.0
 11
1152.36205825812
 21
1371.729602291516
 31
0.0
  0
LINE
  8
0
 62
     0
 10
1163.073129619943
 20
1364.905897265511
 30
0.0
 11
1163.073129619943
 21
1364.905897265511
 31
0.0
  0
LINE
  8
0
 62
     0
 10
1196.491672268833
 20
1343.615937584377
 30
0.0
 11
1196.491672268833
 21
1343.615937584377
 31
0.0
  0
LINE
  8
0
 62
     0
 10
1135.136341853544
 20
1398.83399230064
 30
0.0
 11
1135.136341853544
 21
1398.83399230064
 31
0.0
  0
LINE
  8
0
 62
     0
 10
1179.480177291494
 20
1370.583853492981
 30
0.0
 11
1179.480177291494
 21
1370.583853492981
 31
0.0
  0
LINE
  8
0
 62
     0
 10
1190.191248653318
 20
1363.760148466976
 30
0.0
 11
1190.191248653318
 21
1363.760148466976
 31
0.0
  0
LINE
  8
0
 62
     0
 10
1223.609791302208
 20
1342.470188785842
 30
0.0
 11
1223.609791302208
 21
1342.470188785842
 31
0.0
  0
LINE
  8
0
 62
     0
 10
1162.254460886918
 20
1397.688243502106
 30
0.0
 11
1162.254460886918
 21
1397.688243502106
 31
0.0
  0
LINE
  8
0
 62
     0
 10
1206.598296324868
 20
1369.438104694447
 30
0.0
 11
1206.598296324868
 21
1369.438104694447
 31
0.0
  0
LINE
  8
0
 62
     0
 10
1217.309367686692
 20
1362.614399668442
 30
0.0
 11
1217.309367686692
 21
1362.614399668442
 31
0.0
  0
LINE
  8
0
 62
     0
 10
1189.372579920292
 20
1396.542494703571
 30
0.0
 11
1189.372579920292
 21
1396.542494703571
 31
0.0
  0
LINE
  8
0
 62
     0
 10
1233.716415358242
 20
1368.292355895912
 30
0.0
 11
1233.716415358242
 21
1368.292355895912
 31
0.0
  0
LINE
  8
0
 62
     0
 10
1216.490698953667
 20
1395.396745905036
 30
0.0
 11
1216.490698953667
 21
1395.396745905036
 31
0.0
  0
LINE
  8
0
 62
     0
 10
999.545746686673
 20
1404.562736293314
 30
0.0
 11
999.545746686673
 21
1404.562736293314
 31
0.0
  0
LINE
  8
0
 62
     0
 10
1043.889582124623
 20
1376.312597485655
 30
0.0
 11
1043.889582124623
 21
1376.312597485655
 31
0.0
  0
LINE
  8
0
 62
     0
 10
1054.600653486447
 20
1369.48889245965
 30
0.0
 11
1054.600653486447
 21
1369.48889245965
 31
0.0
  0
LINE
  8
0
 62
     0
 10
1088.019196135336
 20
1348.198932778515
 30
0.0
 11
1088.019196135336
 21
1348.198932778515
 31
0.0
  0
LINE
  8
0
 62
     0
 10
1016.771463091248
 20
1377.45834628419
 30
0.0
 11
1016.771463091248
 21
1377.45834628419
 31
0.0
  0
LINE
  8
0
 62
     0
 10
1027.482534453072
 20
1370.634641258185
 30
0.0
 11
1027.482534453072
 21
1370.634641258185
 31
0.0
  0
LINE
  8
0
 62
     0
 10
1060.901077101962
 20
1349.34468157705
 30
0.0
 11
1060.901077101962
 21
1349.34468157705
 31
0.0
  0
LINE
  8
0
 62
     0
 10
989.653344057874
 20
1378.604095082724
 30
0.0
 11
989.653344057874
 21
1378.604095082724
 31
0.0
  0
LINE
  8
0
 62
     0
 10
1000.364415419698
 20
1371.780390056719
 30
0.0
 11
1000.364415419698
 21
1371.780390056719
 31
0.0
  0
LINE
  8
0
 62
     0
 10
973.246296386324
 20
1372.926138855254
 30
0.0
 11
973.246296386324
 21
1372.926138855254
 31
0.0
  0
LINE
  8
0
 62
     0
 10
1006.664839035213
 20
1351.63617917412
 30
0.0
 11
1006.664839035213
 21
1351.63617917412
 31
0.0
  0
LINE
  8
0
 62
     0
 10
979.546720001839
 20
1352.781927972654
 30
0.0
 11
979.546720001839
 21
1352.781927972654
 31
0.0
  0
LINE
  8
0
 62
     0
 10
996.772436406415
 20
1325.677537963529
 30
0.0
 11
996.772436406415
 21
1325.677537963529
 31
0.0
  0
LINE
  8
0
 62
     0
 10
969.654317373041
 20
1326.823286762064
 30
0.0
 11
969.654317373041
 21
1326.823286762064
 31
0.0
  0
LINE
  8
0
 62
     0
 10
1065.139438441953
 20
1394.139789686017
 30
0.0
 11
1065.139438441953
 21
1394.139789686017
 31
0.0
  0
LINE
  8
0
 62
     0
 10
1084.540449193709
 20
1376.362038726735
 30
0.0
 11
1084.540449193709
 21
1376.362038726735
 31
0.0
  0
LINE
  8
0
 62
     0
 10
1112.068910395525
 20
1351.136851554782
 30
0.0
 11
1112.068910395525
 21
1351.136851554782
 31
0.0
  0
LINE
  8
0
 62
     0
 10
1124.241359226261
 20
1339.982857227047
 30
0.0
 11
1124.241359226261
 21
1339.982857227047
 31
0.0
  0
LINE
  8
0
 62
     0
 10
1094.765274719156
 20
1399.225087892683
 30
0.0
 11
1094.765274719156
 21
1399.225087892683
 31
0.0
  0
LINE
  8
0
 62
     0
 10
1114.166285470913
 20
1381.447336933402
 30
0.0
 11
1114.166285470913
 21
1381.447336933402
 31
0.0
  0
LINE
  8
0
 62
     0
 10
1141.694746672729
 20
1356.222149761448
 30
0.0
 11
1141.694746672729
 21
1356.222149761448
 31
0.0
  0
LINE
  8
0
 62
     0
 10
1153.867195503464
 20
1345.068155433714
 30
0.0
 11
1153.867195503464
 21
1345.068155433714
 31
0.0
  0
LINE
  8
0
 62
     0
 10
1124.39111099636
 20
1404.31038609935
 30
0.0
 11
1124.39111099636
 21
1404.31038609935
 31
0.0
  0
LINE
  8
0
 62
     0
 10
1143.792121748116
 20
1386.532635140068
 30
0.0
 11
1143.792121748116
 21
1386.532635140068
 31
0.0
  0
LINE
  8
0
 62
     0
 10
1183.493031780668
 20
1350.15345364038
 30
0.0
 11
1183.493031780668
 21
1350.15345364038
 31
0.0
  0
LINE
  8
0
 62
     0
 10
1202.894042532424
 20
1332.375702681099
 30
0.0
 11
1202.894042532424
 21
1332.375702681099
 31
0.0
  0
LINE
  8
0
 62
     0
 10
1200.946419227136
 20
1366.392746174782
 30
0.0
 11
1200.946419227136
 21
1366.392746174782
 31
0.0
  0
LINE
  8
0
 62
     0
 10
1213.118868057871
 20
1355.238751847047
 30
0.0
 11
1213.118868057871
 21
1355.238751847047
 31
0.0
  0
LINE
  8
0
 62
     0
 10
1232.519878809628
 20
1337.461000887766
 30
0.0
 11
1232.519878809628
 21
1337.461000887766
 31
0.0
  0
LINE
  8
0
 62
     0
 10
1203.043794302523
 20
1396.703231553402
 30
0.0
 11
1203.043794302523
 21
1396.703231553402
 31
0.0
  0
LINE
  8
0
 62
     0
 10
1230.57225550434
 20
1371.478044381448
 30
0.0
 11
1230.57225550434
 21
1371.478044381448
 31
0.0
  0
LINE
  8
0
 62
     0
 10
1232.669630579727
 20
1401.788529760068
 30
0.0
 11
1232.669630579727
 21
1401.788529760068
 31
0.0
  0
LINE
  8
0
 62
     0
 10
1023.341153334013
 20
1400.208485807085
 30
0.0
 11
1023.341153334013
 21
1400.208485807085
 31
0.0
  0
LINE
  8
0
 62
     0
 10
1054.914612916505
 20
1371.276740520069
 30
0.0
 11
1054.914612916505
 21
1371.276740520069
 31
0.0
  0
LINE
  8
0
 62
     0
 10
1082.443074118322
 20
1346.051553348115
 30
0.0
 11
1082.443074118322
 21
1346.051553348115
 31
0.0
  0
LINE
  8
0
 62
     0
 10
1094.615522949057
 20
1334.897559020381
 30
0.0
 11
1094.615522949057
 21
1334.897559020381
 31
0.0
  0
LINE
  8
0
 62
     0
 10
993.71531705681
 20
1395.123187600418
 30
0.0
 11
993.71531705681
 21
1395.123187600418
 31
0.0
  0
LINE
  8
0
 62
     0
 10
1005.887765887545
 20
1383.969193272684
 30
0.0
 11
1005.887765887545
 21
1383.969193272684
 31
0.0
  0
LINE
  8
0
 62
     0
 10
1025.288776639301
 20
1366.191442313402
 30
0.0
 11
1025.288776639301
 21
1366.191442313402
 31
0.0
  0
LINE
  8
0
 62
     0
 10
1052.817237841118
 20
1340.966255141448
 30
0.0
 11
1052.817237841118
 21
1340.966255141448
 31
0.0
  0
LINE
  8
0
 62
     0
 10
1064.989686671853
 20
1329.812260813714
 30
0.0
 11
1064.989686671853
 21
1329.812260813714
 31
0.0
  0
LINE
  8
0
 62
     0
 10
976.261929610342
 20
1378.883895066017
 30
0.0
 11
976.261929610342
 21
1378.883895066017
 31
0.0
  0
LINE
  8
0
 62
     0
 10
995.662940362098
 20
1361.106144106736
 30
0.0
 11
995.662940362098
 21
1361.106144106736
 31
0.0
  0
LINE
  8
0
 62
     0
 10
1023.191401563914
 20
1335.880956934782
 30
0.0
 11
1023.191401563914
 21
1335.880956934782
 31
0.0
  0
LINE
  8
0
 62
     0
 10
993.565565286711
 20
1330.795658728115
 30
0.0
 11
993.565565286711
 21
1330.795658728115
 31
0.0
  0
ENDBLK
  8
0
  0
BLOCK
  8
0
  2
ACAD171A
 70
     0
 10
0.0
 20
0.0
 30
0.0
  3
ACAD171A
  0
INSERT
  8
DIK
 66
     1
  2
A4S
 10
-570003.1468991177
 20
-445142.8802396684
 30
0.0
 41
100.0
 42
100.0
 43
100.0
  0
ATTRIB
  8
DUN
 10
-555216.5797683281
 20
-442899.4794002723
 30
0.0
 40
250.0
  1
1:100
  2
SCHAAL
 70
     0
  7
ROMANS
  0
ATTRIB
  8
DUN
 10
-555439.5091384869
 20
-444272.8688738647
 30
0.0
 40
250.0
  1
dec. 1997
  2
DATUM
 70
     0
  7
ROMANS
  0
ATTRIB
  8
DUN
 10
-554358.6028935841
 20
-444964.4409971883
 30
0.0
 40
250.0
  1
S. van Leeuwen
  2
GETEKEND
 70
     0
  7
ROMANS
  0
ATTRIB
  8
DUN
 10
-554188.4968665066
 20
-443573.1850935193
 30
0.0
 40
250.0
  1
mm
  2
MAATEENHEID
 70
     0
  7
ROMANS
  0
ATTRIB
  8
DUN
 10
-567704.1452095249
 20
-442849.2721435778
 30
0.0
 40
250.0
  1
Obst.vrije-ruimte KIKKERWIP
  2
BENAMING
 70
     0
  7
ROMANS
  0
ATTRIB
  8
DUN
 10
-562233.9773591945
 20
-444769.093483534
 30
0.0
 40
250.0
  1
AK 744
  2
TEK.NR.
 70
     0
  7
ROMANS
  0
SEQEND
  8
DIK
  0
ENDBLK
  8
0
  0
BLOCK
  8
0
  2
A4S
 70
    66
 10
0.0
 20
0.0
 30
0.0
  3
A4S
  0
LINE
  8
DIK
 62
     7
 10
200.0
 20
265.0
 30
0.0
 11
0.0
 21
265.0
 31
0.0
  0
LINE
  8
DIK
 62
     7
 10
200.0
 20
0.0
 30
0.0
 11
200.0
 21
265.0
 31
0.0
  0
LINE
  8
DIK
 62
     7
 10
0.0
 20
265.0
 30
0.0
 11
0.0
 21
0.0
 31
0.0
  0
LINE
  8
DIK
 62
     7
 10
0.0
 20
0.0
 30
0.0
 11
200.0
 21
0.0
 31
0.0
  0
ATTDEF
  8
DUN
 10
147.865671307955
 20
22.434008393964
 30
0.0
 40
2.5
  1

  3
ENTER SCHAAL
  2
SCHAAL
 70
     0
  7
ROMANS
  0
ATTDEF
  8
DUN
 10
145.636377606345
 20
8.700113658062
 30
0.0
 40
2.5
  1

  3
ENTER DATUM
  2
DATUM
 70
     0
  7
ROMANS
  0
ATTDEF
  8
DUN
 10
156.445440055308
 20
1.78439242479
 30
0.0
 40
2.5
  1

  3
ENTER GETEKEND
  2
GETEKEND
 70
     0
  7
ROMANS
  0
ATTDEF
  8
DUN
 10
158.146500326126
 20
15.696951461516
 30
0.0
 40
2.5
  1

  3
ENTER MAATEENHEID
  2
MAATEENHEID
 70
     0
  7
ROMANS
  0
LINE
  8
DUN
 10
175.484930200881
 20
7.0
 30
0.0
 11
175.484930200888
 21
28.086824045226
 31
0.0
  0
TEXT
  8
DUN
 10
183.535447511735
 20
14.274654940444
 30
0.0
 40
6.0
  1
A4
 72
     2
 11
193.535447511735
 21
14.274654940444
 31
0.0
  0
LINE
  8
HARTLIJN
 10
99.397680541595
 20
9.205368291648
 30
0.0
 11
129.463468913906
 21
9.205368291648
 31
0.0
  0
TEXT
  8
DUN
 10
97.533769335721
 20
17.224758628468
 30
0.0
 40
2.5
  1
Amerik. proj.
  7
ROMANS
  0
LINE
  8
HARTLIJN
 10
104.272293720125
 20
14.279512514899
 30
0.0
 11
104.272293720125
 21
4.131224068395
 31
0.0
  0
LINE
  8
DIK
 10
123.833626955384
 20
12.705368291648
 30
0.0
 11
123.833626955384
 21
5.705368291648
 31
0.0
  0
LINE
  8
DIK
 10
113.833626955384
 20
9.205368291648
 30
0.0
 11
113.833626955384
 21
7.705368291648
 31
0.0
  0
CIRCLE
  8
DIK
 10
104.272293720125
 20
9.205368291648
 30
0.0
 40
1.5
  0
CIRCLE
  8
DIK
 10
104.272293720125
 20
9.205368291648
 30
0.0
 40
3.5
  0
LINE
  8
DIK
 10
123.833626955384
 20
5.705368291648
 30
0.0
 11
113.833626955384
 21
7.705368291648
 31
0.0
  0
LINE
  8
DIK
 10
113.833626955384
 20
10.705368291648
 30
0.0
 11
123.833626955384
 21
12.705368291648
 31
0.0
  0
LINE
  8
DIK
 10
113.833626955384
 20
9.205368291648
 30
0.0
 11
113.833626955384
 21
10.705368291648
 31
0.0
  0
ATTDEF
  8
DUN
 10
22.990016895914
 20
22.936080960895
 30
0.0
 40
2.5
  1

  3
ENTER BENAMING
  2
BENAMING
 70
     0
  7
ROMANS
  0
LINE
  8
DUN
 10
95.000000000007
 20
28.0
 30
0.0
 11
95.0
 21
0.0
 31
0.0
  0
LINE
  8
DIK
 10
72.961352999424
 20
21.0
 30
0.0
 11
75.000000000007
 21
15.11418104776
 31
0.0
  0
LINE
  8
DIK
 10
71.903066960927
 20
21.0
 30
0.0
 11
75.000000000007
 21
12.058782040262
 31
0.0
  0
LINE
  8
DIK
 10
70.844780922431
 20
21.0
 30
0.0
 11
75.000000000007
 21
9.003383032734
 31
0.0
  0
LINE
  8
DIK
 10
74.019639037913
 20
21.0
 30
0.0
 11
75.000000000007
 21
18.169580055273
 31
0.0
  0
LINE
  8
DUN
 10
75.000000000007
 20
21.0
 30
0.0
 11
65.55335072997
 21
21.0
 31
0.0
  0
LINE
  8
DIK
 10
68.728208845452
 20
21.0
 30
0.0
 11
75.000000000007
 21
2.8925850177
 31
0.0
  0
LINE
  8
DIK
 10
66.611636768466
 20
21.0
 30
0.0
 11
73.885320746791
 21
0.0
 31
0.0
  0
LINE
  8
DIK
 10
65.55335072997
 20
21.0
 30
0.0
 11
72.827034708302
 21
0.0
 31
0.0
  0
LINE
  8
DIK
 10
69.786494883942
 20
21.0
 30
0.0
 11
75.0
 21
5.947984025228
 31
0.0
  0
LINE
  8
DIK
 10
67.669922806963
 20
21.0
 30
0.0
 11
74.943606785295
 21
-0.000000000004
 31
0.0
  0
LINE
  8
DIK
 10
1.463804241401
 20
0.0
 30
0.0
 11
0.0
 21
5.316870944927
 31
0.0
  0
LINE
  8
DIK
 10
2.50101073242
 20
0.0
 30
0.0
 11
0.0
 21
9.084241540022
 31
0.0
  0
LINE
  8
DIK
 10
3.538217223446
 20
0.0
 30
0.0
 11
0.0
 21
12.851612135131
 31
0.0
  0
LINE
  8
DIK
 10
4.575423714472
 20
0.0
 30
0.0
 11
0.0
 21
16.618982730237
 31
0.0
  0
LINE
  8
DIK
 10
6.649836696524
 20
0.0
 30
0.0
 11
0.868261520503
 21
21.0
 31
0.0
  0
LINE
  8
DIK
 10
7.68704318755
 20
0.0
 30
0.0
 11
1.905468011537
 21
21.0
 31
0.0
  0
LINE
  8
DIK
 10
5.612630205498
 20
0.0
 30
0.0
 11
0.0
 21
20.38635332535
 31
0.0
  0
TEXT
  8
DIK
 10
2.433881911842
 20
11.266736841375
 30
0.0
 40
10.0
  1
WICO COMFA
  7
SANSSERIFBOLD
  0
TEXT
  8
DUN
 10
8.276180271525
 20
2.267660635709
 30
0.0
 40
2.5344
  1
SPEEL- EN SPORTTOESTELLEN
  7
ROMANS
  0
TEXT
  8
DUN
 10
1.851294722146
 20
23.170176683692
 30
0.0
 40
2.5
  1
Benaming
  7
ROMANS
  0
LINE
  8
DUN
 10
95.0
 20
21.0
 30
0.0
 11
0.0
 21
21.0
 31
0.0
  0
TEXT
  8
DUN
 10
78.169817738555
 20
15.777124798966
 30
0.0
 40
2.5
  1
Tek.nr
  7
ROMANS
  0
ATTDEF
  8
DUN
 10
77.691695399204
 20
3.737867561333
 30
0.0
 40
2.5
  1

  3
ENTER TEK.NR.
  2
TEK.NR.
 70
     0
  7
ROMANS
  0
LINE
  8
DUN
 10
75.0
 20
21.0
 30
0.0
 11
75.0
 21
0.0
 31
0.0
  0
LINE
  8
DUN
 10
131.283769335722
 20
28.086824045226
 30
0.0
 11
131.283769335722
 21
0.0
 31
0.0
  0
LINE
  8
0
 62
     7
 10
200.0
 20
28.0
 30
0.0
 11
0.0
 21
28.0
 31
0.0
  0
LINE
  8
DUN
 10
200.0
 20
7.0
 30
0.0
 11
131.283769335722
 21
7.0
 31
0.0
  0
TEXT
  8
DUN
 10
132.236321313925
 20
15.843244574979
 30
0.0
 40
2.5
  1
Maateenheid
  7
ROMANS
  0
TEXT
  8
DUN
 10
132.388336007127
 20
1.767244013554
 30
0.0
 40
2.5
  1
Getekend
  7
ROMANS
  0
TEXT
  8
DUN
 10
132.319605468445
 20
22.496726978341
 30
0.0
 40
2.5
  1
Schaal
  7
ROMANS
  0
TEXT
  8
DUN
 10
132.236321313925
 20
8.678189956896
 30
0.0
 40
2.5
  1
Datum
  7
ROMANS
  0
LINE
  8
DUN
 10
175.484930200888
 20
14.0
 30
0.0
 11
131.283769335722
 21
14.0
 31
0.0
  0
LINE
  8
DUN
 10
175.484930200888
 20
21.0
 30
0.0
 11
131.283769335722
 21
21.0
 31
0.0
  0
ENDBLK
  8
0
  0
BLOCK
  8
0
  2
ACAD030B
 70
     0
 10
0.0
 20
0.0
 30
0.0
  3
ACAD030B
  0
LINE
  8
DIK
 62
     1
 10
-1802.308978015451
 20
-1240.89604657143
 30
0.0
 11
-1202.308978015451
 21
-1240.89604657143
 31
0.0
  0
LINE
  8
DIK
 62
     1
 10
-1802.308978015451
 20
-1320.89604657143
 30
0.0
 11
-1202.308978015451
 21
-1320.89604657143
 31
0.0
  0
LINE
  8
HARTLIJN
 62
     1
 10
-1802.308978015451
 20
-1240.89604657143
 30
0.0
 11
-1802.308978015451
 21
-1320.89604657143
 31
0.0
  0
LINE
  8
HARTLIJN
 62
     1
 10
-1502.308978015451
 20
-972.289015946327
 30
0.0
 11
-1502.308978015451
 21
-1294.14053734943
 31
0.0
  0
ARC
  8
DIK
 62
     1
 10
-1726.695353896525
 20
-956.866015735795
 30
0.0
 40
17.5
 50
135.0
 51
315.0
  0
LINE
  8
DIK
 62
     1
 10
-1454.808978015452
 20
-1000.896046571431
 30
0.0
 11
-1378.466883654117
 21
-1240.896046571428
 31
0.0
  0
LINE
  8
DIK
 62
     1
 10
-1549.808978015459
 20
-1000.896046571433
 30
0.0
 11
-1626.151072376782
 21
-1240.896046571427
 31
0.0
  0
LINE
  8
HARTLIJN
 10
-1587.449807977795
 20
-1096.111561654519
 30
0.0
 11
-1516.739129859141
 21
-1025.400883535864
 31
0.0
  0
LINE
  8
DIK
 62
     1
 10
-1625.283661559755
 20
-1237.896046571427
 30
0.0
 11
-1379.334294471148
 21
-1237.896046571427
 31
0.0
  0
LINE
  8
DIK
 62
     1
 10
-1626.151072376782
 20
-1240.896046571427
 30
0.0
 11
-1378.466883654117
 21
-1240.896046571428
 31
0.0
  0
LINE
  8
DIK
  6
DASHEDX2
 62
     1
 10
-1443.852641421907
 20
-1098.287371973104
 30
0.0
 11
-1514.563319540557
 21
-1168.998050091756
 31
0.0
  0
CIRCLE
  8
DIK
 62
     1
 10
-1559.283405045455
 20
-1191.361797301312
 30
0.0
 40
5.25
  0
CIRCLE
  8
DIK
 62
     1
 10
-1559.283405045453
 20
-1191.361797301312
 30
0.0
 40
5.25
  0
CIRCLE
  8
DIK
 62
     1
 10
-1576.267173820073
 20
-1184.499909302846
 30
0.0
 40
5.25
  0
CIRCLE
  8
DIK
 62
     1
 10
-1532.697409107164
 20
-1198.237403348568
 30
0.0
 40
5.25
  0
CIRCLE
  8
DIK
 62
     1
 10
-1502.308978015451
 20
-1200.896046571432
 30
0.0
 40
5.25
  0
LINE
  8
HARTLIJN
 62
     1
 10
-1502.308978015451
 20
-1185.646046571432
 30
0.0
 11
-1502.308978015451
 21
-1216.146046571432
 31
0.0
  0
CIRCLE
  8
DIK
 62
     1
 10
-1502.308978015451
 20
-1200.896046571432
 30
0.0
 40
5.25
  0
LINE
  8
DIK
 62
     1
 10
-1449.563985646423
 20
-1233.997383985897
 30
0.0
 11
-1378.853307527768
 21
-1163.286705867243
 31
0.0
  0
CIRCLE
  8
DIK
 62
     1
 10
-1428.350782210828
 20
-1184.499909302839
 30
0.0
 40
5.25
  0
CIRCLE
  8
DIK
 62
     1
 10
-1445.334550985444
 20
-1191.361797301299
 30
0.0
 40
5.25
  0
CIRCLE
  8
DIK
 62
     1
 10
-1471.920546923739
 20
-1198.237403348568
 30
0.0
 40
5.25
  0
CIRCLE
  8
STREEPLIJN
 10
-1428.350782210828
 20
-1184.499909302839
 30
0.0
 40
5.25
  0
LINE
  8
HARTLIJN
 10
-1463.706121270154
 20
-1219.855248362167
 30
0.0
 11
-1392.9954431515
 21
-1149.144570243512
 31
0.0
  0
LINE
  8
DIK
 62
     1
 10
-1549.808978015452
 20
-1000.896046571432
 30
0.0
 11
-1454.808978015452
 21
-1000.896046571431
 31
0.0
  0
LINE
  8
DIK
 62
     1
 10
-1549.808978015452
 20
-1000.896046571432
 30
0.0
 11
-1454.808978015452
 21
-1000.896046571432
 31
0.0
  0
LINE
  8
DIK
 62
     1
 10
-1546.339944312531
 20
-1000.896046571431
 30
0.0
 11
-1456.339944312524
 21
-1000.896046571431
 31
0.0
  0
CIRCLE
  8
DIK
 62
     1
 10
-1552.094468918469
 20
-1060.756222595191
 30
0.0
 40
5.25
  0
CIRCLE
  8
DIK
 62
     1
 10
-1528.726658572256
 20
-1041.148301552265
 30
0.0
 40
5.25
  0
CIRCLE
  8
DIK
 62
     1
 10
-1502.308978015451
 20
-1025.896046571432
 30
0.0
 40
5.25
  0
CIRCLE
  8
DIK
 62
     1
 10
-1502.308978015451
 20
-1025.896046571432
 30
0.0
 40
5.25
  0
LINE
  8
HARTLIJN
 62
     1
 10
-1502.308978015451
 20
-1012.146046571432
 30
0.0
 11
-1502.308978015451
 21
-1042.646046571432
 31
0.0
  0
CIRCLE
  8
STREEPLIJN
 10
-1552.094468918471
 20
-1060.756222595195
 30
0.0
 40
5.25
  0
CIRCLE
  8
DIK
 62
     1
 10
-1452.523487112434
 20
-1060.756222595191
 30
0.0
 40
5.25
  0
CIRCLE
  8
DIK
 62
     1
 10
-1475.891297458649
 20
-1041.148301552265
 30
0.0
 40
5.25
  0
LINE
  8
HARTLIJN
 62
     1
 10
-1202.308978015451
 20
-1240.89604657143
 30
0.0
 11
-1202.308978015451
 21
-1320.89604657143
 31
0.0
  0
ENDBLK
  8
0
  0
BLOCK
  8
0
  2
ACAD1308
 70
     0
 10
0.0
 20
0.0
 30
0.0
  3
ACAD1308
  0
POLYLINE
  8
DUN
 62
     6
 66
     1
 10
0.0
 20
0.0
 30
0.0
 70
     1
  0
VERTEX
  8
DUN
 62
     6
 10
-5710.623133879049
 20
13636.32995329613
 30
0.0
  0
VERTEX
  8
DUN
 62
     6
 10
-5715.530611167158
 20
13627.82995329613
 30
0.0
  0
VERTEX
  8
DUN
 62
     6
 10
-5710.623133879049
 20
13619.32995329613
 30
0.0
  0
VERTEX
  8
DUN
 62
     6
 10
-5700.808179302824
 20
13619.32995329613
 30
0.0
  0
VERTEX
  8
DUN
 62
     6
 10
-5695.900702014713
 20
13627.82995329613
 30
0.0
  0
VERTEX
  8
DUN
 62
     6
 10
-5700.808179302824
 20
13636.32995329613
 30
0.0
  0
SEQEND
  8
DUN
 62
     6
  0
CIRCLE
  8
DUN
 62
     6
 10
-5705.715656590936
 20
13627.57995329613
 30
0.0
 40
5.25
  0
CIRCLE
  8
DUN
 62
     6
 10
-5705.715656590936
 20
13627.82995329613
 30
0.0
 40
8.5
  0
POLYLINE
  8
DUN
 66
     1
 10
0.0
 20
0.0
 30
0.0
 70
     1
  0
VERTEX
  8
DUN
 10
-5710.623133879049
 20
13816.32995329613
 30
0.0
  0
VERTEX
  8
DUN
 10
-5715.530611167158
 20
13807.82995329613
 30
0.0
  0
VERTEX
  8
DUN
 10
-5710.623133879049
 20
13799.32995329613
 30
0.0
  0
VERTEX
  8
DUN
 10
-5700.808179302824
 20
13799.32995329613
 30
0.0
  0
VERTEX
  8
DUN
 10
-5695.900702014713
 20
13807.82995329613
 30
0.0
  0
VERTEX
  8
DUN
 10
-5700.808179302824
 20
13816.32995329613
 30
0.0
  0
SEQEND
  8
DUN
  0
CIRCLE
  8
DUN
 10
-5705.715656590936
 20
13807.82995329613
 30
0.0
 40
8.5
  0
CIRCLE
  8
DUN
 10
-5705.715656590936
 20
13807.82995329613
 30
0.0
 40
5.25
  0
LINE
  8
DUN
 10
-5783.215656590937
 20
13600.82995329614
 30
0.0
 11
-5768.215656590936
 21
13600.82995329614
 31
0.0
  0
LINE
  8
DUN
 10
-5779.715656590936
 20
13605.82995329614
 30
0.0
 11
-5771.715656590936
 21
13605.82995329614
 31
0.0
  0
LINE
  8
DUN
 10
-5780.715656590936
 20
13604.82995329614
 30
0.0
 11
-5770.715656590937
 21
13604.82995329614
 31
0.0
  0
ARC
  8
DUN
 10
-5779.232375885084
 20
13599.82995329614
 30
0.0
 40
1.0
 50
90.0
 51
180.0
  0
LINE
  8
DUN
 10
-5780.715656590936
 20
13600.82995329614
 30
0.0
 11
-5780.715656590936
 21
13604.82995329614
 31
0.0
  0
LINE
  8
DUN
 10
-5779.715656590936
 20
13600.82995329614
 30
0.0
 11
-5779.715656590936
 21
13605.82995329614
 31
0.0
  0
LINE
  8
DUN
 10
-5780.715656590936
 20
13604.82995329614
 30
0.0
 11
-5779.715656590936
 21
13605.82995329614
 31
0.0
  0
ARC
  8
DUN
 10
-5783.215656590937
 20
13599.82995329614
 30
0.0
 40
1.0
 50
90.0
 51
180.0
  0
ARC
  8
DUN
 10
-5781.232375885084
 20
13599.82995329614
 30
0.0
 40
1.0
 50
0.0
 51
90.0
  0
LINE
  8
DUN
 10
-5784.215656590936
 20
13593.82995329613
 30
0.0
 11
-5784.215656590936
 21
13599.82995329614
 31
0.0
  0
LINE
  8
DUN
 10
-5780.232375885084
 20
13593.82995329613
 30
0.0
 11
-5780.232375885084
 21
13599.82995329614
 31
0.0
  0
ARC
  8
DUN
 10
-5772.198937296789
 20
13599.82995329614
 30
0.0
 40
1.0
 50
0.0
 51
90.0
  0
LINE
  8
DUN
 10
-5770.715656590937
 20
13600.82995329614
 30
0.0
 11
-5770.715656590937
 21
13604.82995329614
 31
0.0
  0
LINE
  8
DUN
 10
-5770.715656590937
 20
13604.82995329614
 30
0.0
 11
-5771.715656590936
 21
13605.82995329614
 31
0.0
  0
LINE
  8
DUN
 10
-5771.715656590936
 20
13600.82995329614
 30
0.0
 11
-5771.715656590936
 21
13605.82995329614
 31
0.0
  0
ARC
  8
DUN
 10
-5770.198937296788
 20
13599.82995329614
 30
0.0
 40
1.0
 50
90.0
 51
180.0
  0
ARC
  8
DUN
 10
-5768.215656590936
 20
13599.82995329614
 30
0.0
 40
1.0
 50
0.0
 51
90.0
  0
LINE
  8
DUN
 10
-5767.215656590936
 20
13593.82995329613
 30
0.0
 11
-5767.215656590936
 21
13599.82995329614
 31
0.0
  0
LINE
  8
DUN
 10
-5771.198937296788
 20
13593.82995329613
 30
0.0
 11
-5771.198937296788
 21
13599.82995329614
 31
0.0
  0
ARC
  8
DUN
 10
-5772.198937296789
 20
13593.82995329613
 30
0.0
 40
1.0
 50
270.0
 51
0.0
  0
ARC
  8
DUN
 10
-5781.232375885084
 20
13593.82995329613
 30
0.0
 40
1.0
 50
270.0
 51
0.0
  0
ARC
  8
DUN
 10
-5783.215656590937
 20
13593.82995329613
 30
0.0
 40
1.0
 50
180.0
 51
270.0
  0
ARC
  8
DUN
 10
-5779.232375885084
 20
13593.82995329613
 30
0.0
 40
1.0
 50
180.0
 51
270.0
  0
ARC
  8
DUN
 10
-5768.215656590936
 20
13593.82995329613
 30
0.0
 40
1.0
 50
270.0
 51
0.0
  0
ARC
  8
DUN
 10
-5770.198937296788
 20
13593.82995329613
 30
0.0
 40
1.0
 50
180.0
 51
270.0
  0
LINE
  8
DUN
 10
-5785.715656590936
 20
13592.82995329613
 30
0.0
 11
-5765.715656590936
 21
13592.82995329613
 31
0.0
  0
ARC
  8
DUN
 10
-5772.198937296789
 20
13580.32995329613
 30
0.0
 40
1.0
 50
270.0
 51
0.0
  0
ARC
  8
DUN
 10
-5772.198937296789
 20
13586.32995329613
 30
0.0
 40
1.0
 50
0.0
 51
90.0
  0
LINE
  8
DUN
 10
-5783.215656590937
 20
13587.32995329613
 30
0.0
 11
-5768.215656590936
 21
13587.32995329613
 31
0.0
  0
LINE
  8
DUN
 10
-5780.715656590936
 20
13587.82995329613
 30
0.0
 11
-5780.715656590936
 21
13587.32995329613
 31
0.0
  0
LINE
  8
DUN
 10
-5770.715656590937
 20
13587.82995329613
 30
0.0
 11
-5770.715656590937
 21
13587.32995329613
 31
0.0
  0
ARC
  8
DUN
 10
-5779.232375885084
 20
13580.32995329613
 30
0.0
 40
1.0
 50
180.0
 51
270.0
  0
ARC
  8
DUN
 10
-5783.215656590937
 20
13580.32995329613
 30
0.0
 40
1.0
 50
180.0
 51
270.0
  0
ARC
  8
DUN
 10
-5781.232375885084
 20
13580.32995329613
 30
0.0
 40
1.0
 50
270.0
 51
0.0
  0
LINE
  8
DUN
 10
-5784.215656590936
 20
13586.32995329613
 30
0.0
 11
-5784.215656590936
 21
13580.32995329613
 31
0.0
  0
LINE
  8
DUN
 10
-5780.232375885084
 20
13586.32995329613
 30
0.0
 11
-5780.232375885084
 21
13580.32995329613
 31
0.0
  0
ARC
  8
DUN
 10
-5781.232375885084
 20
13586.32995329613
 30
0.0
 40
1.0
 50
0.0
 51
90.0
  0
ARC
  8
DUN
 10
-5783.215656590937
 20
13586.32995329613
 30
0.0
 40
1.0
 50
90.0
 51
180.0
  0
ARC
  8
DUN
 10
-5779.232375885084
 20
13586.32995329613
 30
0.0
 40
1.0
 50
90.0
 51
180.0
  0
ARC
  8
DUN
 10
-5770.198937296788
 20
13580.32995329613
 30
0.0
 40
1.0
 50
180.0
 51
270.0
  0
ARC
  8
DUN
 10
-5768.215656590936
 20
13580.32995329613
 30
0.0
 40
1.0
 50
270.0
 51
0.0
  0
LINE
  8
DUN
 10
-5767.215656590936
 20
13586.32995329613
 30
0.0
 11
-5767.215656590936
 21
13580.32995329613
 31
0.0
  0
LINE
  8
DUN
 10
-5771.198937296788
 20
13586.32995329613
 30
0.0
 11
-5771.198937296788
 21
13580.32995329613
 31
0.0
  0
ARC
  8
DUN
 10
-5768.215656590936
 20
13586.32995329613
 30
0.0
 40
1.0
 50
0.0
 51
90.0
  0
ARC
  8
DUN
 10
-5770.198937296788
 20
13586.32995329613
 30
0.0
 40
1.0
 50
90.0
 51
180.0
  0
LINE
  8
DUN
 10
-5765.715656590936
 20
13577.32995329614
 30
0.0
 11
-5765.715656590936
 21
13579.32995329613
 31
0.0
  0
LINE
  8
DUN
 10
-5770.715656590937
 20
13577.32995329614
 30
0.0
 11
-5770.715656590937
 21
13575.82995329613
 31
0.0
  0
LINE
  8
DUN
 10
-5780.715656590936
 20
13577.32995329614
 30
0.0
 11
-5780.715656590936
 21
13575.82995329613
 31
0.0
  0
LINE
  8
DUN
 10
-5785.715656590936
 20
13577.32995329614
 30
0.0
 11
-5785.715656590936
 21
13579.32995329613
 31
0.0
  0
POLYLINE
  8
DUN
 66
     1
 10
0.0
 20
0.0
 30
0.0
 70
     1
  0
VERTEX
  8
DUN
 10
-5789.715656590936
 20
13587.82995329613
 30
0.0
  0
VERTEX
  8
DUN
 10
-5789.715656590936
 20
13577.32995329614
 30
0.0
  0
VERTEX
  8
DUN
 10
-5761.715656590936
 20
13577.32995329614
 30
0.0
  0
VERTEX
  8
DUN
 10
-5761.715656590936
 20
13587.82995329613
 30
0.0
  0
SEQEND
  8
DUN
  0
LINE
  8
DUN
 10
-5784.715656590937
 20
13579.32995329613
 30
0.0
 11
-5766.715656590936
 21
13579.32995329613
 31
0.0
  0
POLYLINE
  8
DUN
 66
     1
 10
0.0
 20
0.0
 30
0.0
  0
VERTEX
  8
DUN
 10
-5785.715656590936
 20
13579.32995329613
 30
0.0
  0
VERTEX
  8
DUN
 10
-5765.715656590936
 20
13579.32995329613
 30
0.0
  0
SEQEND
  8
DUN
  0
LINE
  8
DUN
 10
-5765.715656590936
 20
13592.82995329613
 30
0.0
 11
-5765.715656590936
 21
13590.82995329613
 31
0.0
  0
LINE
  8
DUN
 10
-5785.715656590936
 20
13592.82995329613
 30
0.0
 11
-5785.715656590936
 21
13590.82995329613
 31
0.0
  0
LINE
  8
DUN
 10
-5643.215656590936
 20
13600.82995329614
 30
0.0
 11
-5628.215656590936
 21
13600.82995329614
 31
0.0
  0
LINE
  8
DUN
 10
-5645.715656590937
 20
13592.82995329613
 30
0.0
 11
-5625.715656590936
 21
13592.82995329613
 31
0.0
  0
ARC
  8
DUN
 10
-5639.232375885084
 20
13599.82995329614
 30
0.0
 40
1.0
 50
90.0
 51
180.0
  0
ARC
  8
DUN
 10
-5643.215656590936
 20
13599.82995329614
 30
0.0
 40
1.0
 50
90.0
 51
180.0
  0
ARC
  8
DUN
 10
-5641.232375885085
 20
13599.82995329614
 30
0.0
 40
1.0
 50
0.0
 51
90.0
  0
LINE
  8
DUN
 10
-5644.215656590937
 20
13593.82995329613
 30
0.0
 11
-5644.215656590937
 21
13599.82995329614
 31
0.0
  0
LINE
  8
DUN
 10
-5640.232375885084
 20
13593.82995329613
 30
0.0
 11
-5640.232375885084
 21
13599.82995329614
 31
0.0
  0
ARC
  8
DUN
 10
-5641.232375885085
 20
13593.82995329613
 30
0.0
 40
1.0
 50
270.0
 51
0.0
  0
ARC
  8
DUN
 10
-5643.215656590936
 20
13593.82995329613
 30
0.0
 40
1.0
 50
180.0
 51
270.0
  0
ARC
  8
DUN
 10
-5639.232375885084
 20
13593.82995329613
 30
0.0
 40
1.0
 50
180.0
 51
270.0
  0
ARC
  8
DUN
 10
-5630.198937296788
 20
13599.82995329614
 30
0.0
 40
1.0
 50
90.0
 51
180.0
  0
LINE
  8
DUN
 10
-5631.198937296788
 20
13593.82995329613
 30
0.0
 11
-5631.198937296788
 21
13599.82995329614
 31
0.0
  0
ARC
  8
DUN
 10
-5630.198937296788
 20
13593.82995329613
 30
0.0
 40
1.0
 50
180.0
 51
270.0
  0
ARC
  8
DUN
 10
-5632.198937296789
 20
13599.82995329614
 30
0.0
 40
1.0
 50
0.0
 51
90.0
  0
ARC
  8
DUN
 10
-5632.198937296789
 20
13593.82995329613
 30
0.0
 40
1.0
 50
270.0
 51
0.0
  0
LINE
  8
DUN
 10
-5631.715656590936
 20
13600.82995329614
 30
0.0
 11
-5631.715656590936
 21
13605.82995329614
 31
0.0
  0
LINE
  8
DUN
 10
-5630.715656590936
 20
13604.82995329614
 30
0.0
 11
-5631.715656590936
 21
13605.82995329614
 31
0.0
  0
LINE
  8
DUN
 10
-5630.715656590936
 20
13600.82995329614
 30
0.0
 11
-5630.715656590936
 21
13604.82995329614
 31
0.0
  0
LINE
  8
DUN
 10
-5640.715656590936
 20
13604.82995329614
 30
0.0
 11
-5630.715656590936
 21
13604.82995329614
 31
0.0
  0
LINE
  8
DUN
 10
-5639.715656590936
 20
13605.82995329614
 30
0.0
 11
-5631.715656590936
 21
13605.82995329614
 31
0.0
  0
LINE
  8
DUN
 10
-5640.715656590936
 20
13604.82995329614
 30
0.0
 11
-5639.715656590936
 21
13605.82995329614
 31
0.0
  0
LINE
  8
DUN
 10
-5639.715656590936
 20
13600.82995329614
 30
0.0
 11
-5639.715656590936
 21
13605.82995329614
 31
0.0
  0
LINE
  8
DUN
 10
-5640.715656590936
 20
13600.82995329614
 30
0.0
 11
-5640.715656590936
 21
13604.82995329614
 31
0.0
  0
ARC
  8
DUN
 10
-5628.215656590936
 20
13599.82995329614
 30
0.0
 40
1.0
 50
0.0
 51
90.0
  0
LINE
  8
DUN
 10
-5627.215656590936
 20
13593.82995329613
 30
0.0
 11
-5627.215656590936
 21
13599.82995329614
 31
0.0
  0
ARC
  8
DUN
 10
-5628.215656590936
 20
13593.82995329613
 30
0.0
 40
1.0
 50
270.0
 51
0.0
  0
LINE
  8
DUN
 10
-5643.215656590936
 20
13587.32995329613
 30
0.0
 11
-5628.215656590936
 21
13587.32995329613
 31
0.0
  0
POLYLINE
  8
DUN
 66
     1
 10
0.0
 20
0.0
 30
0.0
  0
VERTEX
  8
DUN
 10
-5645.715656590937
 20
13579.32995329613
 30
0.0
  0
VERTEX
  8
DUN
 10
-5625.715656590936
 20
13579.32995329613
 30
0.0
  0
SEQEND
  8
DUN
  0
LINE
  8
DUN
 10
-5644.715656590936
 20
13579.32995329613
 30
0.0
 11
-5626.715656590936
 21
13579.32995329613
 31
0.0
  0
LINE
  8
DUN
 10
-5640.715656590936
 20
13587.82995329613
 30
0.0
 11
-5640.715656590936
 21
13587.32995329613
 31
0.0
  0
ARC
  8
DUN
 10
-5630.198937296788
 20
13580.32995329613
 30
0.0
 40
1.0
 50
180.0
 51
270.0
  0
ARC
  8
DUN
 10
-5630.198937296788
 20
13586.32995329613
 30
0.0
 40
1.0
 50
90.0
 51
180.0
  0
LINE
  8
DUN
 10
-5631.198937296788
 20
13586.32995329613
 30
0.0
 11
-5631.198937296788
 21
13580.32995329613
 31
0.0
  0
ARC
  8
DUN
 10
-5632.198937296789
 20
13580.32995329613
 30
0.0
 40
1.0
 50
270.0
 51
0.0
  0
ARC
  8
DUN
 10
-5632.198937296789
 20
13586.32995329613
 30
0.0
 40
1.0
 50
0.0
 51
90.0
  0
ARC
  8
DUN
 10
-5641.232375885085
 20
13580.32995329613
 30
0.0
 40
1.0
 50
270.0
 51
0.0
  0
ARC
  8
DUN
 10
-5643.215656590936
 20
13580.32995329613
 30
0.0
 40
1.0
 50
180.0
 51
270.0
  0
ARC
  8
DUN
 10
-5639.232375885084
 20
13580.32995329613
 30
0.0
 40
1.0
 50
180.0
 51
270.0
  0
ARC
  8
DUN
 10
-5639.232375885084
 20
13586.32995329613
 30
0.0
 40
1.0
 50
90.0
 51
180.0
  0
ARC
  8
DUN
 10
-5643.215656590936
 20
13586.32995329613
 30
0.0
 40
1.0
 50
90.0
 51
180.0
  0
ARC
  8
DUN
 10
-5641.232375885085
 20
13586.32995329613
 30
0.0
 40
1.0
 50
0.0
 51
90.0
  0
LINE
  8
DUN
 10
-5644.215656590937
 20
13586.32995329613
 30
0.0
 11
-5644.215656590937
 21
13580.32995329613
 31
0.0
  0
LINE
  8
DUN
 10
-5640.232375885084
 20
13586.32995329613
 30
0.0
 11
-5640.232375885084
 21
13580.32995329613
 31
0.0
  0
LINE
  8
DUN
 10
-5640.715656590936
 20
13577.32995329614
 30
0.0
 11
-5640.715656590936
 21
13575.82995329613
 31
0.0
  0
LINE
  8
DUN
 10
-5630.715656590936
 20
13577.32995329614
 30
0.0
 11
-5630.715656590936
 21
13575.82995329613
 31
0.0
  0
LINE
  8
DUN
 10
-5630.715656590936
 20
13587.82995329613
 30
0.0
 11
-5630.715656590936
 21
13587.32995329613
 31
0.0
  0
LINE
  8
DUN
 10
-5645.715656590937
 20
13577.32995329614
 30
0.0
 11
-5645.715656590937
 21
13579.32995329613
 31
0.0
  0
ARC
  8
DUN
 10
-5628.215656590936
 20
13580.32995329613
 30
0.0
 40
1.0
 50
270.0
 51
0.0
  0
ARC
  8
DUN
 10
-5628.215656590936
 20
13586.32995329613
 30
0.0
 40
1.0
 50
0.0
 51
90.0
  0
LINE
  8
DUN
 10
-5627.215656590936
 20
13586.32995329613
 30
0.0
 11
-5627.215656590936
 21
13580.32995329613
 31
0.0
  0
LINE
  8
DUN
 10
-5625.715656590936
 20
13577.32995329614
 30
0.0
 11
-5625.715656590936
 21
13579.32995329613
 31
0.0
  0
POLYLINE
  8
DUN
 66
     1
 10
0.0
 20
0.0
 30
0.0
 70
     1
  0
VERTEX
  8
DUN
 10
-5649.715656590936
 20
13587.82995329613
 30
0.0
  0
VERTEX
  8
DUN
 10
-5649.715656590936
 20
13577.32995329614
 30
0.0
  0
VERTEX
  8
DUN
 10
-5621.715656590937
 20
13577.32995329614
 30
0.0
  0
VERTEX
  8
DUN
 10
-5621.715656590937
 20
13587.82995329613
 30
0.0
  0
SEQEND
  8
DUN
  0
LINE
  8
DUN
 10
-5645.715656590937
 20
13592.82995329613
 30
0.0
 11
-5645.715656590937
 21
13590.82995329613
 31
0.0
  0
LINE
  8
DUN
 10
-5625.715656590936
 20
13592.82995329613
 30
0.0
 11
-5625.715656590936
 21
13590.82995329613
 31
0.0
  0
ENDBLK
  8
0
  0
BLOCK
  8
0
  2
ACAD2121
 70
     0
 10
0.0
 20
0.0
 30
0.0
  3
ACAD2121
  0
LINE
  8
DIK
 10
333.964751002267
 20
-8807.592006921204
 30
0.0
 11
1567.854982590503
 21
-8807.592006921204
 31
0.0
  0
LINE
  8
DUN
 10
307.371701114863
 20
-9647.510636950427
 30
0.0
 11
307.371701114863
 21
-8807.510636950427
 31
0.0
  0
LINE
  8
DUN
 10
17.371701114863
 20
-9813.510636950427
 30
0.0
 11
117.371701114863
 21
-9813.510636950427
 31
0.0
  0
ARC
  8
DUN
 10
67.371701114863
 20
-9805.898668274849
 30
0.0
 40
21.399581003327
 50
200.836746373359
 51
339.163253626641
  0
LINE
  8
DUN
 10
101.371701114863
 20
-9641.510636950428
 30
0.0
 11
34.371701114863
 21
-9641.510636950428
 31
0.0
  0
LINE
  8
DUN
 10
47.371701114867
 20
-9637.510636950427
 30
0.0
 11
87.371701114863
 21
-9637.510636950427
 31
0.0
  0
LINE
  8
DUN
 10
52.371701114863
 20
-9621.510636950427
 30
0.0
 11
82.371701114863
 21
-9621.510636950427
 31
0.0
  0
INSERT
  8
HARTLIJN
 62
     8
  2
*X18
 10
-2001.104912914909
 20
-12457.8014823039
 30
0.0
 41
2.0
 42
2.0
 43
2.0
1001
ACAD
1000
HATCH
1002
{
1070
    16
1000
AR-CONC
1040
0.2
1040
0.0
1002
}
  0
POLYLINE
  8
DUN
 66
     1
 10
0.0
 20
0.0
 30
0.0
 70
     1
  0
VERTEX
  8
DUN
 10
-62.628298885137
 20
-9647.510636950427
 30
0.0
  0
VERTEX
  8
DUN
 10
-62.628298885137
 20
-9807.510636950427
 30
0.0
  0
VERTEX
  8
DUN
 10
477.371701114863
 20
-9807.510636950427
 30
0.0
  0
VERTEX
  8
DUN
 10
477.371701114863
 20
-9647.510636950427
 30
0.0
  0
SEQEND
  8
DUN
  0
LINE
  8
DUN
 10
47.371701114867
 20
-9637.510636950427
 30
0.0
 11
47.371701114863
 21
-9641.510636950428
 31
0.0
  0
LINE
  8
DUN
 10
17.371701114863
 20
-9813.510636950427
 30
0.0
 11
17.371701114863
 21
-9807.510636950427
 31
0.0
  0
LINE
  8
DUN
 10
34.371701114863
 20
-9647.510636950427
 30
0.0
 11
34.371701114863
 21
-9641.510636950428
 31
0.0
  0
ARC
  8
DUN
 10
52.371701114863
 20
-9635.510636950428
 30
0.0
 40
2.0
 50
180.0
 51
270.0
  0
LINE
  8
DUN
 10
50.371701114863
 20
-9635.510636950428
 30
0.0
 11
50.371701114863
 21
-9623.510636950427
 31
0.0
  0
ARC
  8
DUN
 10
52.371701114863
 20
-9623.510636950427
 30
0.0
 40
2.0
 50
90.0
 51
180.0
  0
LINE
  8
DUN
 10
107.371701114863
 20
-9647.510636950427
 30
0.0
 11
107.371701114863
 21
-9164.510636950433
 31
0.0
  0
LINE
  8
DUN
 10
101.371701114863
 20
-9641.510636950428
 30
0.0
 11
101.371701114863
 21
-9154.510636950433
 31
0.0
  0
LINE
  8
DUN
 10
313.371701114863
 20
-9641.510636950428
 30
0.0
 11
313.371701114863
 21
-9154.510636950433
 31
0.0
  0
LINE
  8
DUN
 10
307.371701114863
 20
-9647.510636950427
 30
0.0
 11
307.371701114863
 21
-9164.510636950433
 31
0.0
  0
ARC
  8
DUN
 10
347.371701114863
 20
-9805.898668274849
 30
0.0
 40
21.399581003327
 50
200.836746373359
 51
339.163253626641
  0
LINE
  8
DUN
 10
339.371701114863
 20
-9611.510636950427
 30
0.0
 11
355.371701114863
 21
-9611.510636950427
 31
0.0
  0
LINE
  8
DUN
 10
337.371701114863
 20
-9613.510636950428
 30
0.0
 11
357.371701114863
 21
-9613.510636950428
 31
0.0
  0
LINE
  8
DUN
 10
327.371701114863
 20
-9637.510636950427
 30
0.0
 11
367.371701114863
 21
-9637.510636950427
 31
0.0
  0
LINE
  8
DUN
 10
332.371701114863
 20
-9621.510636950427
 30
0.0
 11
362.371701114863
 21
-9621.510636950427
 31
0.0
  0
LINE
  8
DUN
 10
313.371701114863
 20
-9641.510636950428
 30
0.0
 11
380.371701114863
 21
-9641.510636950428
 31
0.0
  0
LINE
  8
DUN
 10
397.371701114863
 20
-9813.510636950427
 30
0.0
 11
297.371701114863
 21
-9813.510636950427
 31
0.0
  0
LINE
  8
DUN
 10
327.371701114863
 20
-9637.510636950427
 30
0.0
 11
327.371701114863
 21
-9641.510636950428
 31
0.0
  0
LINE
  8
DUN
 10
337.371701114863
 20
-9621.510636950427
 30
0.0
 11
337.371701114863
 21
-9613.510636950428
 31
0.0
  0
LINE
  8
DUN
 10
339.371701114863
 20
-9621.510636950427
 30
0.0
 11
339.371701114863
 21
-9611.510636950427
 31
0.0
  0
LINE
  8
DUN
 10
337.371701114863
 20
-9613.510636950428
 30
0.0
 11
339.371701114863
 21
-9611.510636950427
 31
0.0
  0
ARC
  8
DUN
 10
340.338262526567
 20
-9635.510636950428
 30
0.0
 40
2.0
 50
180.0
 51
270.0
  0
ARC
  8
DUN
 10
332.371701114863
 20
-9635.510636950428
 30
0.0
 40
2.0
 50
180.0
 51
270.0
  0
ARC
  8
DUN
 10
336.338262526567
 20
-9635.510636950428
 30
0.0
 40
2.0
 50
270.0
 51
0.0
  0
LINE
  8
DUN
 10
338.338262526567
 20
-9635.510636950428
 30
0.0
 11
338.338262526567
 21
-9623.510636950427
 31
0.0
  0
LINE
  8
DUN
 10
330.371701114863
 20
-9635.510636950428
 30
0.0
 11
330.371701114863
 21
-9623.510636950427
 31
0.0
  0
ARC
  8
DUN
 10
336.338262526567
 20
-9623.510636950427
 30
0.0
 40
2.0
 50
0.0
 51
90.0
  0
ARC
  8
DUN
 10
332.371701114863
 20
-9623.510636950427
 30
0.0
 40
2.0
 50
90.0
 51
180.0
  0
ARC
  8
DUN
 10
340.338262526567
 20
-9623.510636950427
 30
0.0
 40
2.0
 50
90.0
 51
180.0
  0
ARC
  8
DUN
 10
331.371701114863
 20
-9530.325327144582
 30
0.0
 40
2.0
 50
0.0
 51
90.000000000001
  0
ARC
  8
DUN
 10
331.371701114863
 20
-9558.358765732879
 30
0.0
 40
2.0
 50
270.0
 51
0.0
  0
ARC
  8
DUN
 10
331.371701114863
 20
-9562.358765732879
 30
0.0
 40
2.0
 50
0.0
 51
90.0
  0
ARC
  8
DUN
 10
331.371701114863
 20
-9566.325327144582
 30
0.0
 40
2.0
 50
270.0
 51
0.0
  0
ARC
  8
DUN
 10
331.371701114863
 20
-9538.291888556283
 30
0.0
 40
2.0
 50
0.0
 51
90.0
  0
ARC
  8
DUN
 10
331.371701114863
 20
-9534.291888556284
 30
0.0
 40
2.0
 50
270.0
 51
0.0
  0
LINE
  8
DUN
 10
333.371701114863
 20
-9530.325327144582
 30
0.0
 11
333.371701114863
 21
-9566.325327144582
 31
0.0
  0
LINE
  8
DUN
 10
297.371701114863
 20
-9813.510636950427
 30
0.0
 11
297.371701114863
 21
-9807.510636950427
 31
0.0
  0
ARC
  8
DUN
 10
315.371701114863
 20
-9530.325327144582
 30
0.0
 40
2.0
 50
90.0
 51
180.0
  0
ARC
  8
DUN
 10
315.371701114863
 20
-9562.358765732879
 30
0.0
 40
2.0
 50
90.0
 51
180.0
  0
ARC
  8
DUN
 10
315.371701114863
 20
-9566.325327144582
 30
0.0
 40
2.0
 50
180.0
 51
270.0
  0
ARC
  8
DUN
 10
315.371701114863
 20
-9558.358765732879
 30
0.0
 40
2.0
 50
180.000000000001
 51
270.0
  0
ARC
  8
DUN
 10
315.371701114863
 20
-9538.291888556283
 30
0.0
 40
2.0
 50
90.0
 51
180.000000000001
  0
ARC
  8
DUN
 10
315.371701114863
 20
-9534.291888556284
 30
0.0
 40
2.0
 50
180.0
 51
270.0
  0
LINE
  8
DUN
 10
313.371701114863
 20
-9566.325327144582
 30
0.0
 11
313.371701114863
 21
-9530.325327144582
 31
0.0
  0
LINE
  8
DUN
 10
59.371701114863
 20
-9611.510636950427
 30
0.0
 11
75.371701114863
 21
-9611.510636950427
 31
0.0
  0
LINE
  8
DUN
 10
57.371701114863
 20
-9613.510636950428
 30
0.0
 11
77.371701114863
 21
-9613.510636950428
 31
0.0
  0
LINE
  8
DUN
 10
57.371701114863
 20
-9621.510636950427
 30
0.0
 11
57.371701114863
 21
-9613.510636950428
 31
0.0
  0
LINE
  8
DUN
 10
59.371701114863
 20
-9621.510636950427
 30
0.0
 11
59.371701114863
 21
-9611.510636950427
 31
0.0
  0
LINE
  8
DUN
 10
57.371701114863
 20
-9613.510636950428
 30
0.0
 11
59.371701114863
 21
-9611.510636950427
 31
0.0
  0
ARC
  8
DUN
 10
60.338262526567
 20
-9635.510636950428
 30
0.0
 40
2.0
 50
180.0
 51
270.0
  0
ARC
  8
DUN
 10
56.338262526567
 20
-9635.510636950428
 30
0.0
 40
2.0
 50
270.0
 51
0.0
  0
LINE
  8
DUN
 10
58.338262526567
 20
-9635.510636950428
 30
0.0
 11
58.338262526567
 21
-9623.510636950427
 31
0.0
  0
ARC
  8
DUN
 10
56.338262526567
 20
-9623.510636950427
 30
0.0
 40
2.0
 50
0.0
 51
90.0
  0
ARC
  8
DUN
 10
60.338262526567
 20
-9623.510636950427
 30
0.0
 40
2.0
 50
90.0
 51
180.0
  0
LINE
  8
DUN
 10
87.371701114863
 20
-9637.510636950427
 30
0.0
 11
87.371701114863
 21
-9641.510636950428
 31
0.0
  0
LINE
  8
DUN
 10
117.371701114863
 20
-9813.510636950427
 30
0.0
 11
117.371701114863
 21
-9807.510636950427
 31
0.0
  0
ARC
  8
DUN
 10
74.405139703159
 20
-9635.510636950428
 30
0.0
 40
2.0
 50
270.0
 51
0.0
  0
ARC
  8
DUN
 10
74.405139703159
 20
-9623.510636950427
 30
0.0
 40
2.0
 50
0.0
 51
90.0
  0
ARC
  8
DUN
 10
82.371701114863
 20
-9635.510636950428
 30
0.0
 40
2.0
 50
270.0
 51
0.0
  0
LINE
  8
DUN
 10
84.371701114863
 20
-9635.510636950428
 30
0.0
 11
84.371701114863
 21
-9623.510636950427
 31
0.0
  0
ARC
  8
DUN
 10
82.371701114863
 20
-9623.510636950427
 30
0.0
 40
2.0
 50
0.0
 51
90.0
  0
LINE
  8
DUN
 10
77.371701114863
 20
-9621.510636950427
 30
0.0
 11
77.371701114863
 21
-9613.510636950428
 31
0.0
  0
LINE
  8
DUN
 10
77.371701114863
 20
-9613.510636950428
 30
0.0
 11
75.371701114863
 21
-9611.510636950427
 31
0.0
  0
LINE
  8
DUN
 10
75.371701114863
 20
-9621.510636950427
 30
0.0
 11
75.371701114863
 21
-9611.510636950427
 31
0.0
  0
ARC
  8
DUN
 10
78.405139703159
 20
-9635.510636950428
 30
0.0
 40
2.0
 50
180.0
 51
270.0
  0
LINE
  8
DUN
 10
76.405139703159
 20
-9635.510636950428
 30
0.0
 11
76.405139703159
 21
-9623.510636950427
 31
0.0
  0
ARC
  8
DUN
 10
78.405139703159
 20
-9623.510636950427
 30
0.0
 40
2.0
 50
90.0
 51
180.0
  0
ARC
  8
DUN
 10
87.298670104499
 20
-9530.286199575682
 30
0.0
 40
2.0
 50
90.0
 51
180.0
  0
LINE
  8
DUN
 10
99.298670104499
 20
-9528.286199575683
 30
0.0
 11
87.298670104499
 21
-9528.286199575683
 31
0.0
  0
ARC
  8
DUN
 10
99.298670104499
 20
-9530.286199575682
 30
0.0
 40
2.0
 50
0.0
 51
90.000000000001
  0
LINE
  8
DUN
 10
101.298670104499
 20
-9538.252760987388
 30
0.0
 11
101.298670104499
 21
-9558.319638163979
 31
0.0
  0
LINE
  8
DUN
 10
75.298670104499
 20
-9556.286199575684
 30
0.0
 11
75.298670104499
 21
-9540.286199575684
 31
0.0
  0
LINE
  8
DUN
 10
77.298670104499
 20
-9558.286199575682
 30
0.0
 11
77.298670104499
 21
-9538.286199575683
 31
0.0
  0
ARC
  8
DUN
 10
87.298670104499
 20
-9566.286199575683
 30
0.0
 40
2.0
 50
180.000000000001
 51
270.0
  0
LINE
  8
DUN
 10
85.298670104499
 20
-9556.286199575684
 30
0.0
 11
75.298670104499
 21
-9556.286199575684
 31
0.0
  0
LINE
  8
DUN
 10
85.298670104499
 20
-9558.286199575682
 30
0.0
 11
77.298670104499
 21
-9558.286199575682
 31
0.0
  0
ARC
  8
DUN
 10
87.298670104499
 20
-9562.319638163979
 30
0.0
 40
2.0
 50
90.0
 51
180.0
  0
ARC
  8
DUN
 10
87.298670104499
 20
-9558.319638163979
 30
0.0
 40
2.0
 50
180.000000000001
 51
270.0
  0
LINE
  8
DUN
 10
77.298670104499
 20
-9558.286199575682
 30
0.0
 11
75.298670104499
 21
-9556.286199575684
 31
0.0
  0
LINE
  8
DUN
 10
99.298670104499
 20
-9560.31963816398
 30
0.0
 11
87.298670104499
 21
-9560.31963816398
 31
0.0
  0
LINE
  8
DUN
 10
99.298670104499
 20
-9568.286199575684
 30
0.0
 11
87.298670104499
 21
-9568.286199575684
 31
0.0
  0
ARC
  8
DUN
 10
99.298670104499
 20
-9562.319638163979
 30
0.0
 40
2.0
 50
0.0
 51
90.0
  0
ARC
  8
DUN
 10
99.298670104499
 20
-9566.286199575683
 30
0.0
 40
2.0
 50
270.0
 51
0.0
  0
ARC
  8
DUN
 10
99.298670104499
 20
-9558.319638163979
 30
0.0
 40
2.0
 50
270.0
 51
0.0
  0
ARC
  8
DUN
 10
87.298670104499
 20
-9534.252760987387
 30
0.0
 40
2.0
 50
180.0
 51
270.0
  0
LINE
  8
DUN
 10
85.298670104499
 20
-9538.286199575683
 30
0.0
 11
77.298670104499
 21
-9538.286199575683
 31
0.0
  0
LINE
  8
DUN
 10
77.298670104499
 20
-9538.286199575683
 30
0.0
 11
75.298670104499
 21
-9540.286199575684
 31
0.0
  0
LINE
  8
DUN
 10
85.298670104499
 20
-9540.286199575684
 30
0.0
 11
75.298670104499
 21
-9540.286199575684
 31
0.0
  0
ARC
  8
DUN
 10
87.298670104499
 20
-9538.252760987388
 30
0.0
 40
2.0
 50
90.0
 51
180.000000000001
  0
LINE
  8
DUN
 10
99.298670104499
 20
-9536.252760987386
 30
0.0
 11
87.298670104499
 21
-9536.252760987386
 31
0.0
  0
ARC
  8
DUN
 10
99.298670104499
 20
-9534.252760987387
 30
0.0
 40
2.0
 50
270.0
 51
0.0
  0
ARC
  8
DUN
 10
99.298670104499
 20
-9538.252760987388
 30
0.0
 40
2.0
 50
0.0
 51
90.0
  0
LINE
  8
DUN
 10
85.298670104499
 20
-9566.286199575683
 30
0.0
 11
85.298670104499
 21
-9530.286199575682
 31
0.0
  0
LINE
  8
DUN
 10
107.371701114863
 20
-9553.206065988421
 30
0.0
 11
307.371701114863
 21
-9553.206065988421
 31
0.0
  0
LINE
  8
DUN
 10
107.371701114863
 20
-9618.319696879852
 30
0.0
 11
307.371701114863
 21
-9618.319696879852
 31
0.0
  0
LINE
  8
DUN
 10
331.371701114863
 20
-9528.325327144584
 30
0.0
 11
315.371701114863
 21
-9528.325327144584
 31
0.0
  0
LINE
  8
DUN
 10
331.371701114863
 20
-9568.325327144583
 30
0.0
 11
315.371701114863
 21
-9568.325327144583
 31
0.0
  0
LINE
  8
DUN
 10
331.371701114863
 20
-9560.358765732878
 30
0.0
 11
315.371701114863
 21
-9560.358765732878
 31
0.0
  0
LINE
  8
DUN
 10
331.371701114863
 20
-9536.291888556283
 30
0.0
 11
315.371701114863
 21
-9536.291888556283
 31
0.0
  0
LINE
  8
DUN
 10
397.371701114863
 20
-9813.510636950427
 30
0.0
 11
397.371701114863
 21
-9807.510636950427
 31
0.0
  0
LINE
  8
DUN
 10
367.371701114863
 20
-9637.510636950427
 30
0.0
 11
367.371701114863
 21
-9641.510636950428
 31
0.0
  0
LINE
  8
DUN
 10
380.371701114863
 20
-9647.510636950427
 30
0.0
 11
380.371701114863
 21
-9641.510636950428
 31
0.0
  0
LINE
  8
DUN
 10
380.371701114863
 20
-9647.510636950427
 30
0.0
 11
380.371701114863
 21
-9641.510636950428
 31
0.0
  0
ARC
  8
DUN
 10
362.371701114863
 20
-9635.510636950428
 30
0.0
 40
2.0
 50
270.0
 51
0.0
  0
LINE
  8
DUN
 10
364.371701114863
 20
-9635.510636950428
 30
0.0
 11
364.371701114863
 21
-9623.510636950427
 31
0.0
  0
ARC
  8
DUN
 10
362.371701114863
 20
-9623.510636950427
 30
0.0
 40
2.0
 50
0.0
 51
90.0
  0
LINE
  8
DUN
 10
357.371701114863
 20
-9621.510636950427
 30
0.0
 11
357.371701114863
 21
-9613.510636950428
 31
0.0
  0
LINE
  8
DUN
 10
357.371701114863
 20
-9613.510636950428
 30
0.0
 11
355.371701114863
 21
-9611.510636950427
 31
0.0
  0
LINE
  8
DUN
 10
355.371701114863
 20
-9621.510636950427
 30
0.0
 11
355.371701114863
 21
-9611.510636950427
 31
0.0
  0
ARC
  8
DUN
 10
354.40513970316
 20
-9635.510636950428
 30
0.0
 40
2.0
 50
270.0
 51
0.0
  0
ARC
  8
DUN
 10
354.40513970316
 20
-9623.510636950427
 30
0.0
 40
2.0
 50
0.0
 51
90.0
  0
ARC
  8
DUN
 10
358.40513970316
 20
-9635.510636950428
 30
0.0
 40
2.0
 50
180.0
 51
270.0
  0
LINE
  8
DUN
 10
356.40513970316
 20
-9635.510636950428
 30
0.0
 11
356.40513970316
 21
-9623.510636950427
 31
0.0
  0
ARC
  8
DUN
 10
358.40513970316
 20
-9623.510636950427
 30
0.0
 40
2.0
 50
90.0
 51
180.0
  0
LINE
  8
DUN
 10
333.371701114863
 20
-9189.549764519338
 30
0.0
 11
333.371701114863
 21
-9225.549764519337
 31
0.0
  0
ARC
  8
DUN
 10
331.371701114863
 20
-9217.583203107635
 30
0.0
 40
2.0
 50
270.0
 51
0.0
  0
ARC
  8
DUN
 10
331.371701114863
 20
-9221.583203107632
 30
0.0
 40
2.0
 50
0.0
 51
90.0
  0
ARC
  8
DUN
 10
331.371701114863
 20
-9225.549764519337
 30
0.0
 40
2.0
 50
270.0
 51
0.0
  0
ARC
  8
DUN
 10
331.371701114863
 20
-9189.549764519338
 30
0.0
 40
2.0
 50
0.0
 51
90.000000000001
  0
ARC
  8
DUN
 10
331.371701114863
 20
-9197.516325931038
 30
0.0
 40
2.0
 50
0.0
 51
90.0
  0
ARC
  8
DUN
 10
331.371701114863
 20
-9193.516325931037
 30
0.0
 40
2.0
 50
270.0
 51
0.0
  0
LINE
  8
DUN
 10
313.371701114863
 20
-9225.549764519337
 30
0.0
 11
313.371701114863
 21
-9189.549764519338
 31
0.0
  0
ARC
  8
DUN
 10
315.371701114863
 20
-9221.583203107632
 30
0.0
 40
2.0
 50
90.0
 51
180.0
  0
ARC
  8
DUN
 10
315.371701114863
 20
-9225.549764519337
 30
0.0
 40
2.0
 50
180.0
 51
270.0
  0
ARC
  8
DUN
 10
315.371701114863
 20
-9217.583203107635
 30
0.0
 40
2.0
 50
180.000000000001
 51
270.0
  0
ARC
  8
DUN
 10
315.371701114863
 20
-9189.549764519338
 30
0.0
 40
2.0
 50
90.0
 51
180.0
  0
ARC
  8
DUN
 10
315.371701114863
 20
-9197.516325931038
 30
0.0
 40
2.0
 50
90.0
 51
180.000000000001
  0
ARC
  8
DUN
 10
315.371701114863
 20
-9193.516325931037
 30
0.0
 40
2.0
 50
180.0
 51
270.0
  0
LINE
  8
DUN
 10
307.371701114863
 20
-9154.510636950433
 30
0.0
 11
313.371701114863
 21
-9154.510636950433
 31
0.0
  0
LINE
  8
DUN
 10
101.298670104499
 20
-9197.477198362141
 30
0.0
 11
101.298670104499
 21
-9217.544075538734
 31
0.0
  0
LINE
  8
DUN
 10
77.298670104499
 20
-9217.510636950438
 30
0.0
 11
77.298670104499
 21
-9197.510636950438
 31
0.0
  0
LINE
  8
DUN
 10
75.298670104499
 20
-9215.510636950439
 30
0.0
 11
75.298670104499
 21
-9199.510636950437
 31
0.0
  0
LINE
  8
DUN
 10
85.298670104499
 20
-9225.510636950437
 30
0.0
 11
85.298670104499
 21
-9189.510636950437
 31
0.0
  0
ARC
  8
DUN
 10
99.298670104499
 20
-9217.544075538734
 30
0.0
 40
2.0
 50
270.0
 51
0.0
  0
ARC
  8
DUN
 10
99.298670104499
 20
-9225.510636950437
 30
0.0
 40
2.0
 50
270.0
 51
0.0
  0
ARC
  8
DUN
 10
99.298670104499
 20
-9221.544075538734
 30
0.0
 40
2.0
 50
0.0
 51
90.0
  0
LINE
  8
DUN
 10
77.298670104499
 20
-9217.510636950438
 30
0.0
 11
75.298670104499
 21
-9215.510636950439
 31
0.0
  0
ARC
  8
DUN
 10
87.298670104499
 20
-9217.544075538734
 30
0.0
 40
2.0
 50
180.000000000001
 51
270.0
  0
ARC
  8
DUN
 10
87.298670104499
 20
-9221.544075538734
 30
0.0
 40
2.0
 50
90.0
 51
180.0
  0
LINE
  8
DUN
 10
85.298670104499
 20
-9217.510636950438
 30
0.0
 11
77.298670104499
 21
-9217.510636950438
 31
0.0
  0
LINE
  8
DUN
 10
85.298670104499
 20
-9215.510636950439
 30
0.0
 11
75.298670104499
 21
-9215.510636950439
 31
0.0
  0
ARC
  8
DUN
 10
87.298670104499
 20
-9225.510636950437
 30
0.0
 40
2.0
 50
180.000000000001
 51
270.0
  0
LINE
  8
DUN
 10
99.298670104499
 20
-9227.510636950437
 30
0.0
 11
87.298670104499
 21
-9227.510636950437
 31
0.0
  0
LINE
  8
DUN
 10
99.298670104499
 20
-9219.544075538733
 30
0.0
 11
87.298670104499
 21
-9219.544075538733
 31
0.0
  0
ARC
  8
DUN
 10
99.298670104499
 20
-9189.510636950437
 30
0.0
 40
2.0
 50
0.0
 51
90.000000000001
  0
ARC
  8
DUN
 10
87.298670104499
 20
-9189.510636950437
 30
0.0
 40
2.0
 50
90.0
 51
180.0
  0
LINE
  8
DUN
 10
99.298670104499
 20
-9187.510636950438
 30
0.0
 11
87.298670104499
 21
-9187.510636950438
 31
0.0
  0
ARC
  8
DUN
 10
99.298670104499
 20
-9197.477198362141
 30
0.0
 40
2.0
 50
0.0
 51
90.0
  0
ARC
  8
DUN
 10
87.298670104499
 20
-9197.477198362141
 30
0.0
 40
2.0
 50
90.0
 51
180.000000000001
  0
LINE
  8
DUN
 10
85.298670104499
 20
-9199.510636950437
 30
0.0
 11
75.298670104499
 21
-9199.510636950437
 31
0.0
  0
LINE
  8
DUN
 10
77.298670104499
 20
-9197.510636950438
 30
0.0
 11
75.298670104499
 21
-9199.510636950437
 31
0.0
  0
LINE
  8
DUN
 10
85.298670104499
 20
-9197.510636950438
 30
0.0
 11
77.298670104499
 21
-9197.510636950438
 31
0.0
  0
LINE
  8
DUN
 10
99.298670104499
 20
-9195.477198362141
 30
0.0
 11
87.298670104499
 21
-9195.477198362141
 31
0.0
  0
ARC
  8
DUN
 10
87.298670104499
 20
-9193.477198362142
 30
0.0
 40
2.0
 50
180.0
 51
270.0
  0
ARC
  8
DUN
 10
99.298670104499
 20
-9193.477198362142
 30
0.0
 40
2.0
 50
270.0
 51
0.0
  0
LINE
  8
DUN
 10
107.371701114863
 20
-9154.510636950433
 30
0.0
 11
101.371701114863
 21
-9154.510636950433
 31
0.0
  0
LINE
  8
DUN
 10
331.371701114863
 20
-9227.549764519336
 30
0.0
 11
315.371701114863
 21
-9227.549764519336
 31
0.0
  0
LINE
  8
DUN
 10
331.371701114863
 20
-9219.583203107633
 30
0.0
 11
315.371701114863
 21
-9219.583203107633
 31
0.0
  0
LINE
  8
DUN
 10
331.371701114863
 20
-9187.549764519337
 30
0.0
 11
315.371701114863
 21
-9187.549764519337
 31
0.0
  0
LINE
  8
DUN
 10
331.371701114863
 20
-9195.516325931038
 30
0.0
 11
315.371701114863
 21
-9195.516325931038
 31
0.0
  0
LINE
  8
DIK
 10
2306.04406157621
 20
-8807.592006921204
 30
0.0
 11
3429.292172938206
 21
-8807.592006921204
 31
0.0
  0
LINE
  8
DIK
 10
1325.840155641776
 20
-8807.592006921204
 30
0.0
 11
2052.793573449032
 21
-8807.592006921206
 31
0.0
  0
INSERT
  8
DUN
 62
     8
  2
*X19
 10
-4091.739391225587
 20
-6740.956810229583
 30
0.0
 41
-1.0
 50
360.0
1001
ACAD
1000
HATCH
1002
{
1070
    16
1000
AR-CONC
1040
0.5
1040
0.0
1002
}
  0
LINE
  8
DUN
 10
2285.509263236819
 20
-9641.510636950421
 30
0.0
 11
1793.610529059603
 21
-9641.510636950421
 31
0.0
  0
LINE
  8
DUN
 10
1946.838873229403
 20
-9160.392006921208
 30
0.0
 11
1794.154684506733
 21
-9640.392006921201
 31
0.0
  0
LINE
  8
DUN
 10
2641.838873229402
 20
-9807.510636950429
 30
0.0
 11
1439.559896148211
 21
-9807.510636950425
 31
0.0
  0
LINE
  8
DUN
 10
2641.838873229403
 20
-9647.510636950428
 30
0.0
 11
1439.559896148212
 21
-9647.510636950427
 31
0.0
  0
LINE
  8
DUN
 10
1439.559896148212
 20
-9647.510636950427
 30
0.0
 11
1439.559896148211
 21
-9807.510636950425
 31
0.0
  0
LINE
  8
STREEPLIJN
 10
2147.912395814878
 20
-9209.487477470805
 30
0.0
 11
2007.140173469842
 21
-9618.319696879852
 31
0.0
  0
LINE
  8
STREEPLIJN
 10
1818.036458349979
 20
-9553.206065988421
 30
0.0
 11
1949.07728871975
 21
-9172.63586100886
 31
0.0
  0
LINE
  8
DUN
 10
2132.295516459
 20
-9160.39200692121
 30
0.0
 11
2287.244084870873
 21
-9647.510636950421
 31
0.0
  0
CIRCLE
  8
DUN
 10
2100.336758331637
 20
-9562.193350504704
 30
0.0
 40
10.5
  0
LINE
  8
STREEPLIJN
 10
1818.036458349979
 20
-9553.206065988421
 30
0.0
 11
2007.140173469842
 21
-9618.319696879852
 31
0.0
  0
LINE
  8
DUN
 10
1879.559896148211
 20
-9637.510636950421
 30
0.0
 11
1879.559896148211
 21
-9641.510636950421
 31
0.0
  0
LINE
  8
DUN
 10
1919.559896148211
 20
-9637.510636950421
 30
0.0
 11
1919.559896148211
 21
-9641.510636950421
 31
0.0
  0
ARC
  8
DUN
 10
1884.559896148211
 20
-9635.510636950421
 30
0.0
 40
2.0
 50
180.0
 51
270.0
  0
LINE
  8
DUN
 10
1882.559896148211
 20
-9635.510636950421
 30
0.0
 11
1882.559896148211
 21
-9623.51063695042
 31
0.0
  0
ARC
  8
DUN
 10
1884.559896148211
 20
-9623.51063695042
 30
0.0
 40
2.0
 50
90.0
 51
180.0
  0
LINE
  8
DUN
 10
1909.559896148211
 20
-9621.510636950421
 30
0.0
 11
1909.559896148211
 21
-9613.510636950422
 31
0.0
  0
LINE
  8
DUN
 10
1907.559896148211
 20
-9621.510636950421
 30
0.0
 11
1907.559896148211
 21
-9611.510636950422
 31
0.0
  0
LINE
  8
DUN
 10
1909.559896148211
 20
-9613.510636950422
 30
0.0
 11
1907.559896148211
 21
-9611.510636950422
 31
0.0
  0
LINE
  8
DUN
 10
1907.559896148211
 20
-9611.510636950422
 30
0.0
 11
1891.559896148211
 21
-9611.510636950422
 31
0.0
  0
LINE
  8
DUN
 10
1909.559896148211
 20
-9613.510636950422
 30
0.0
 11
1889.559896148211
 21
-9613.510636950422
 31
0.0
  0
LINE
  8
DUN
 10
1889.559896148211
 20
-9621.510636950421
 30
0.0
 11
1889.559896148211
 21
-9613.510636950422
 31
0.0
  0
LINE
  8
DUN
 10
1889.559896148211
 20
-9613.510636950422
 30
0.0
 11
1891.559896148211
 21
-9611.510636950422
 31
0.0
  0
LINE
  8
DUN
 10
1891.559896148211
 20
-9621.510636950421
 30
0.0
 11
1891.559896148211
 21
-9611.510636950422
 31
0.0
  0
ARC
  8
DUN
 10
1892.526457559915
 20
-9635.510636950421
 30
0.0
 40
2.0
 50
180.0
 51
270.0
  0
ARC
  8
DUN
 10
1892.526457559915
 20
-9623.51063695042
 30
0.0
 40
2.0
 50
89.999999999999
 51
180.0
  0
ARC
  8
DUN
 10
1888.526457559915
 20
-9635.510636950421
 30
0.0
 40
2.0
 50
270.0
 51
360.0
  0
LINE
  8
DUN
 10
1890.526457559915
 20
-9635.510636950421
 30
0.0
 11
1890.526457559915
 21
-9623.51063695042
 31
0.0
  0
ARC
  8
DUN
 10
1888.526457559915
 20
-9623.51063695042
 30
0.0
 40
2.0
 50
360.0
 51
90.0
  0
ARC
  8
DUN
 10
1906.593334736507
 20
-9635.510636950421
 30
0.0
 40
2.0
 50
270.0
 51
360.0
  0
ARC
  8
DUN
 10
1914.559896148211
 20
-9635.510636950421
 30
0.0
 40
2.0
 50
270.0
 51
360.0
  0
ARC
  8
DUN
 10
1910.593334736507
 20
-9635.510636950421
 30
0.0
 40
2.0
 50
180.0
 51
270.0
  0
LINE
  8
DUN
 10
1908.593334736507
 20
-9635.510636950421
 30
0.0
 11
1908.593334736507
 21
-9623.51063695042
 31
0.0
  0
LINE
  8
DUN
 10
1916.559896148211
 20
-9635.510636950421
 30
0.0
 11
1916.559896148211
 21
-9623.51063695042
 31
0.0
  0
ARC
  8
DUN
 10
1910.593334736507
 20
-9623.51063695042
 30
0.0
 40
2.0
 50
90.0
 51
180.0
  0
ARC
  8
DUN
 10
1914.559896148211
 20
-9623.51063695042
 30
0.0
 40
2.0
 50
360.0
 51
90.0
  0
ARC
  8
DUN
 10
1906.593334736507
 20
-9623.51063695042
 30
0.0
 40
2.0
 50
360.0
 51
89.999999999999
  0
LINE
  8
DUN
 10
1919.559896148211
 20
-9637.510636950421
 30
0.0
 11
1879.559896148211
 21
-9637.510636950421
 31
0.0
  0
LINE
  8
DUN
 10
1914.559896148211
 20
-9621.510636950421
 30
0.0
 11
1884.559896148211
 21
-9621.510636950421
 31
0.0
  0
CIRCLE
  8
DUN
 10
1925.611042088197
 20
-9547.942138410164
 30
0.0
 40
17.0
  0
CIRCLE
  8
DUN
 10
1925.611042088197
 20
-9548.442138410164
 30
0.0
 40
10.5
  0
POLYLINE
  8
DUN
 66
     1
 10
0.0
 20
0.0
 30
0.0
 70
     1
  0
VERTEX
  8
DUN
 10
1935.425996664422
 20
-9530.942138410164
 30
0.0
  0
VERTEX
  8
DUN
 10
1945.240951240642
 20
-9547.942138410167
 30
0.0
  0
VERTEX
  8
DUN
 10
1935.425996664422
 20
-9564.942138410165
 30
0.0
  0
VERTEX
  8
DUN
 10
1915.796087511973
 20
-9564.942138410165
 30
0.0
  0
VERTEX
  8
DUN
 10
1905.981132935752
 20
-9547.942138410164
 30
0.0
  0
VERTEX
  8
DUN
 10
1915.796087511973
 20
-9530.942138410164
 30
0.0
  0
SEQEND
  8
DUN
  0
ARC
  8
DUN
 10
1902.852143860405
 20
-9806.228129140233
 30
0.0
 40
21.399581003327
 50
200.836746373359
 51
339.163253626641
  0
LINE
  8
DUN
 10
1852.852143860405
 20
-9813.840097815811
 30
0.0
 11
1852.852143860405
 21
-9807.840097815811
 31
0.0
  0
LINE
  8
DUN
 10
1952.852143860404
 20
-9813.840097815811
 30
0.0
 11
1952.852143860404
 21
-9807.840097815811
 31
0.0
  0
LINE
  8
DUN
 10
1852.852143860405
 20
-9813.840097815811
 30
0.0
 11
1952.852143860404
 21
-9813.840097815811
 31
0.0
  0
CIRCLE
  8
DUN
 10
1978.783033964786
 20
-9562.193350504704
 30
0.0
 40
10.5
  0
CIRCLE
  8
DUN
 10
1925.611042088197
 20
-9548.442138410164
 30
0.0
 40
10.5
  0
CIRCLE
  8
DUN
 10
1891.643504538964
 20
-9534.718362413245
 30
0.0
 40
10.5
  0
CIRCLE
  8
DUN
 10
2039.559896148211
 20
-9567.510636950432
 30
0.0
 40
10.5
  0
CIRCLE
  8
DUN
 10
2039.559896148211
 20
-9567.510636950432
 30
0.0
 40
10.5
  0
LINE
  8
DUN
 10
1820.59801586093
 20
-9557.260943016032
 30
0.0
 11
1817.059753886607
 21
-9556.042621715219
 31
0.0
  0
LINE
  8
DUN
 10
2199.559896148211
 20
-9637.510636950421
 30
0.0
 11
2199.559896148211
 21
-9641.510636950421
 31
0.0
  0
LINE
  8
DUN
 10
2159.559896148211
 20
-9637.510636950421
 30
0.0
 11
2159.559896148211
 21
-9641.510636950421
 31
0.0
  0
LINE
  8
DUN
 10
2199.559896148211
 20
-9637.510636950421
 30
0.0
 11
2159.559896148211
 21
-9637.510636950421
 31
0.0
  0
ARC
  8
DUN
 10
2168.526457559915
 20
-9635.510636950421
 30
0.0
 40
2.0
 50
270.0
 51
360.0
  0
ARC
  8
DUN
 10
2164.559896148211
 20
-9635.510636950421
 30
0.0
 40
2.0
 50
180.0
 51
270.0
  0
ARC
  8
DUN
 10
2186.593334736507
 20
-9635.510636950421
 30
0.0
 40
2.0
 50
270.0
 51
360.0
  0
ARC
  8
DUN
 10
2194.559896148211
 20
-9635.510636950421
 30
0.0
 40
2.0
 50
270.0
 51
360.0
  0
ARC
  8
DUN
 10
2190.593334736507
 20
-9635.510636950421
 30
0.0
 40
2.0
 50
180.0
 51
270.0
  0
ARC
  8
DUN
 10
2172.526457559915
 20
-9635.510636950421
 30
0.0
 40
2.0
 50
180.0
 51
270.0
  0
LINE
  8
DUN
 10
2170.526457559915
 20
-9635.510636950421
 30
0.0
 11
2170.526457559915
 21
-9623.51063695042
 31
0.0
  0
LINE
  8
DUN
 10
2162.559896148211
 20
-9635.510636950421
 30
0.0
 11
2162.559896148211
 21
-9623.51063695042
 31
0.0
  0
ARC
  8
DUN
 10
2164.559896148211
 20
-9623.51063695042
 30
0.0
 40
2.0
 50
90.0
 51
180.0
  0
ARC
  8
DUN
 10
2168.526457559915
 20
-9623.51063695042
 30
0.0
 40
2.0
 50
360.0
 51
90.0
  0
LINE
  8
DUN
 10
2171.559896148211
 20
-9621.510636950421
 30
0.0
 11
2171.559896148211
 21
-9611.510636950422
 31
0.0
  0
LINE
  8
DUN
 10
2169.559896148211
 20
-9613.510636950422
 30
0.0
 11
2171.559896148211
 21
-9611.510636950422
 31
0.0
  0
LINE
  8
DUN
 10
2169.559896148211
 20
-9621.510636950421
 30
0.0
 11
2169.559896148211
 21
-9613.510636950422
 31
0.0
  0
ARC
  8
DUN
 10
2172.526457559915
 20
-9623.51063695042
 30
0.0
 40
2.0
 50
89.999999999999
 51
180.0
  0
LINE
  8
DUN
 10
2188.593334736507
 20
-9635.510636950421
 30
0.0
 11
2188.593334736507
 21
-9623.51063695042
 31
0.0
  0
LINE
  8
DUN
 10
2196.559896148211
 20
-9635.510636950421
 30
0.0
 11
2196.559896148211
 21
-9623.51063695042
 31
0.0
  0
ARC
  8
DUN
 10
2190.593334736507
 20
-9623.51063695042
 30
0.0
 40
2.0
 50
90.0
 51
180.0
  0
ARC
  8
DUN
 10
2194.559896148211
 20
-9623.51063695042
 30
0.0
 40
2.0
 50
360.0
 51
90.0
  0
LINE
  8
DUN
 10
2189.559896148211
 20
-9613.510636950422
 30
0.0
 11
2187.559896148211
 21
-9611.510636950422
 31
0.0
  0
LINE
  8
DUN
 10
2187.559896148211
 20
-9621.510636950421
 30
0.0
 11
2187.559896148211
 21
-9611.510636950422
 31
0.0
  0
LINE
  8
DUN
 10
2189.559896148211
 20
-9621.510636950421
 30
0.0
 11
2189.559896148211
 21
-9613.510636950422
 31
0.0
  0
ARC
  8
DUN
 10
2186.593334736507
 20
-9623.51063695042
 30
0.0
 40
2.0
 50
360.0
 51
89.999999999999
  0
LINE
  8
DUN
 10
2189.559896148211
 20
-9613.510636950422
 30
0.0
 11
2169.559896148211
 21
-9613.510636950422
 31
0.0
  0
LINE
  8
DUN
 10
2187.559896148211
 20
-9611.510636950422
 30
0.0
 11
2171.559896148211
 21
-9611.510636950422
 31
0.0
  0
LINE
  8
DUN
 10
2194.559896148211
 20
-9621.510636950421
 30
0.0
 11
2164.559896148211
 21
-9621.510636950421
 31
0.0
  0
LINE
  8
DUN
 10
2232.852143860404
 20
-9813.840097815811
 30
0.0
 11
2132.852143860404
 21
-9813.840097815811
 31
0.0
  0
LINE
  8
DUN
 10
2232.852143860404
 20
-9813.840097815811
 30
0.0
 11
2232.852143860404
 21
-9807.840097815811
 31
0.0
  0
ARC
  8
DUN
 10
2182.852143860404
 20
-9806.228129140233
 30
0.0
 40
21.399581003327
 50
200.836746373359
 51
339.163253626641
  0
LINE
  8
DUN
 10
2132.852143860404
 20
-9813.840097815811
 30
0.0
 11
2132.852143860404
 21
-9807.840097815811
 31
0.0
  0
CIRCLE
  8
DUN
 10
2187.476287757455
 20
-9534.71836241326
 30
0.0
 40
10.5
  0
CIRCLE
  8
DUN
 10
2153.508750208214
 20
-9548.442138410193
 30
0.0
 40
10.5
  0
CIRCLE
  8
DUN
 10
2153.508750208218
 20
-9548.442138410193
 30
0.0
 40
10.5
  0
CIRCLE
  8
DUN
 10
2092.39525726182
 20
-9238.015146912097
 30
0.0
 40
10.5
  0
LINE
  8
DUN
 10
2132.295516459
 20
-9160.39200692121
 30
0.0
 11
1946.838873229403
 21
-9160.39200692121
 31
0.0
  0
LINE
  8
DUN
 10
2136.838873229403
 20
-9160.39200692121
 30
0.0
 11
1946.838873229403
 21
-9160.392006921208
 31
0.0
  0
CIRCLE
  8
DUN
 10
1935.353280652917
 20
-9271.693005467119
 30
0.0
 40
10.5
  0
CIRCLE
  8
DUN
 10
2039.559896148212
 20
-9207.510636950432
 30
0.0
 40
10.5
  0
CIRCLE
  8
DUN
 10
2039.559896148212
 20
-9207.510636950432
 30
0.0
 40
17.0
  0
POLYLINE
  8
DUN
 66
     1
 10
0.0
 20
0.0
 30
0.0
 70
     1
  0
VERTEX
  8
DUN
 10
2049.374850724436
 20
-9190.510636950433
 30
0.0
  0
VERTEX
  8
DUN
 10
2059.189805300657
 20
-9207.510636950432
 30
0.0
  0
VERTEX
  8
DUN
 10
2049.374850724436
 20
-9224.510636950432
 30
0.0
  0
VERTEX
  8
DUN
 10
2029.744941571987
 20
-9224.510636950432
 30
0.0
  0
VERTEX
  8
DUN
 10
2019.929986995767
 20
-9207.510636950432
 30
0.0
  0
VERTEX
  8
DUN
 10
2029.744941571987
 20
-9190.510636950433
 30
0.0
  0
SEQEND
  8
DUN
  0
CIRCLE
  8
DUN
 10
1986.724535034607
 20
-9238.015146912097
 30
0.0
 40
10.5
  0
CIRCLE
  8
DUN
 10
2039.559896148212
 20
-9207.510636950432
 30
0.0
 40
10.5
  0
CIRCLE
  8
DUN
 10
2039.559896148212
 20
-9207.510636950432
 30
0.0
 40
10.5
  0
CIRCLE
  8
DUN
 10
2143.766511643506
 20
-9271.693005467119
 30
0.0
 40
10.5
  0
LINE
  8
DUN
 10
2641.838873229403
 20
-9647.510636950428
 30
0.0
 11
2641.838873229402
 21
-9807.510636950429
 31
0.0
  0
ENDBLK
  8
0
  0
BLOCK
  8
0
  2
*X18
 70
    65
 10
0.0
 20
0.0
 30
0.0
  3
*X
  0
LINE
  8
0
 62
     0
 10
1080.316547765805
 20
1334.082790804968
 30
0.0
 11
1082.765568558711
 21
1337.001420133252
 31
0.0
  0
LINE
  8
0
 62
     0
 10
1110.238307014886
 20
1369.7421548868
 30
0.0
 11
1112.15381807358
 21
1372.024972072651
 31
0.0
  0
LINE
  8
0
 62
     0
 10
1139.093046795542
 20
1404.129894683768
 30
0.0
 11
1139.945175959898
 21
1405.145422676743
 31
0.0
  0
LINE
  8
0
 62
     0
 10
1116.753481565006
 20
1330.894973697188
 30
0.0
 11
1119.202502357912
 21
1333.813603025471
 31
0.0
  0
LINE
  8
0
 62
     0
 10
1146.141731079875
 20
1365.918525636587
 30
0.0
 11
1148.59075187278
 21
1368.837154964871
 31
0.0
  0
LINE
  8
0
 62
     0
 10
1153.190415364207
 20
1327.707156589407
 30
0.0
 11
1155.639436157113
 21
1330.62578591769
 31
0.0
  0
LINE
  8
0
 62
     0
 10
1182.578664879076
 20
1362.730708528807
 30
0.0
 11
1185.027685671981
 21
1365.64933785709
 31
0.0
  0
LINE
  8
0
 62
     0
 10
1211.966914393944
 20
1397.754260468206
 30
0.0
 11
1214.41593518685
 21
1400.672889796489
 31
0.0
  0
LINE
  8
0
 62
     0
 10
1190.152695341516
 20
1325.145422676742
 30
0.0
 11
1192.076369956313
 21
1327.43796880991
 31
0.0
  0
LINE
  8
0
 62
     0
 10
1219.015598678276
 20
1359.542891421026
 30
0.0
 11
1221.464619471182
 21
1362.461520749309
 31
0.0
  0
LINE
  8
0
 62
     0
 10
1043.879613966604
 20
1337.270607912749
 30
0.0
 11
1046.32863475951
 21
1340.189237241032
 31
0.0
  0
LINE
  8
0
 62
     0
 10
1073.267863481473
 20
1372.294159852148
 30
0.0
 11
1075.716884274379
 21
1375.212789180432
 31
0.0
  0
LINE
  8
0
 62
     0
 10
1007.442680167404
 20
1340.45842502053
 30
0.0
 11
1009.89170096031
 21
1343.377054348813
 31
0.0
  0
LINE
  8
0
 62
     0
 10
1039.238307014886
 20
1378.350977544802
 30
0.0
 11
1039.279950475178
 21
1378.400606288213
 31
0.0
  0
LINE
  8
0
 62
     0
 10
971.005746368203
 20
1343.64624212831
 30
0.0
 11
973.454767161109
 21
1346.564871456593
 31
0.0
  0
LINE
  8
0
 62
     0
 10
1000.393995883072
 20
1378.66979406771
 30
0.0
 11
1002.843016675977
 21
1381.588423395993
 31
0.0
  0
LINE
  8
0
 62
     0
 10
971.006310016656
 20
1343.644998715464
 30
0.0
 11
974.04271145644
 21
1343.379348011569
 31
0.0
  0
LINE
  8
0
 62
     0
 10
1007.44312729406
 20
1340.457190268726
 30
0.0
 11
1010.479528733843
 21
1340.191539564831
 31
0.0
  0
LINE
  8
0
 62
     0
 10
1043.879944571463
 20
1337.269381821987
 30
0.0
 11
1046.916346011247
 21
1337.003731118092
 31
0.0
  0
LINE
  8
0
 62
     0
 10
1080.316761848867
 20
1334.081573375249
 30
0.0
 11
1083.353163288651
 21
1333.815922671354
 31
0.0
  0
LINE
  8
0
 62
     0
 10
1116.753579126271
 20
1330.893764928511
 30
0.0
 11
1119.789980566054
 21
1330.628114224616
 31
0.0
  0
LINE
  8
0
 62
     0
 10
1153.190396403674
 20
1327.705956481773
 30
0.0
 11
1156.226797843458
 21
1327.440305777878
 31
0.0
  0
LINE
  8
0
 62
     0
 10
1000.394562098926
 20
1378.668518845162
 30
0.0
 11
1003.43096353871
 21
1378.402868141267
 31
0.0
  0
LINE
  8
0
 62
     0
 10
1182.578648485945
 20
1362.72947661147
 30
0.0
 11
1185.615049925728
 21
1362.463825907575
 31
0.0
  0
LINE
  8
0
 62
     0
 10
1219.015465763348
 20
1359.541668164732
 30
0.0
 11
1222.051867203132
 21
1359.276017460837
 31
0.0
  0
LINE
  8
0
 62
     0
 10
1039.238307014887
 20
1375.270131516122
 30
0.0
 11
1039.867780816114
 21
1375.215059694528
 31
0.0
  0
LINE
  8
0
 62
     0
 10
1073.268196653734
 20
1372.292901951685
 30
0.0
 11
1076.304598093517
 21
1372.02725124779
 31
0.0
  0
LINE
  8
0
 62
     0
 10
1110.238307014886
 20
1369.058436405782
 30
0.0
 11
1112.741415370921
 21
1368.839442801052
 31
0.0
  0
LINE
  8
0
 62
     0
 10
1146.141831208541
 20
1365.917285058208
 30
0.0
 11
1149.178232648325
 21
1365.651634354314
 31
0.0
  0
LINE
  8
0
 62
     0
 10
1139.093266013407
 20
1404.128613634644
 30
0.0
 11
1142.129667453191
 21
1403.862962930749
 31
0.0
  0
LINE
  8
0
 62
     0
 10
1211.966900568215
 20
1397.752996741168
 30
0.0
 11
1215.003302007999
 21
1397.487346037273
 31
0.0
  0
LINE
  8
0
 62
     0
 10
1083.362644985665
 20
1333.80923428949
 30
0.0
 11
1082.775289373795
 21
1336.993517157767
 31
0.0
  0
LINE
  8
0
 62
     0
 10
1076.31437764323
 20
1372.020628708819
 30
0.0
 11
1075.727022031361
 21
1375.204911577097
 31
0.0
  0
LINE
  8
0
 62
     0
 10
1119.79941266129
 20
1330.621177434218
 30
0.0
 11
1119.212057049421
 21
1333.805460302496
 31
0.0
  0
LINE
  8
0
 62
     0
 10
1112.751145318856
 20
1368.832571853548
 30
0.0
 11
1112.163789706987
 21
1372.016854721825
 31
0.0
  0
LINE
  8
0
 62
     0
 10
1156.236180336917
 20
1327.433120578948
 30
0.0
 11
1155.648824725047
 21
1330.617403447225
 31
0.0
  0
LINE
  8
0
 62
     0
 10
1149.187912994483
 20
1365.644514998277
 30
0.0
 11
1148.600557382613
 21
1368.828797866554
 31
0.0
  0
LINE
  8
0
 62
     0
 10
1142.139645652048
 20
1403.855909417607
 30
0.0
 11
1141.901789004048
 21
1405.145422676743
 31
0.0
  0
LINE
  8
0
 62
     0
 10
1192.506872665077
 20
1325.145422676742
 30
0.0
 11
1192.085592400674
 21
1327.429346591954
 31
0.0
  0
LINE
  8
0
 62
     0
 10
1185.624680670109
 20
1362.456458143006
 30
0.0
 11
1185.037325058239
 21
1365.640741011283
 31
0.0
  0
LINE
  8
0
 62
     0
 10
1222.061448345735
 20
1359.268401287734
 30
0.0
 11
1221.474092733865
 21
1362.452684156012
 31
0.0
  0
LINE
  8
0
 62
     0
 10
1215.013181003301
 20
1397.479795707064
 30
0.0
 11
1214.425825391431
 21
1400.664078575341
 31
0.0
  0
LINE
  8
0
 62
     0
 10
1046.925877310038
 20
1336.997291144761
 30
0.0
 11
1046.338521698169
 21
1340.181574013038
 31
0.0
  0
LINE
  8
0
 62
     0
 10
1039.877609967604
 20
1375.208685564091
 30
0.0
 11
1039.290254355735
 21
1378.392968432368
 31
0.0
  0
LINE
  8
0
 62
     0
 10
1010.489109634412
 20
1340.185348000032
 30
0.0
 11
1009.901754022542
 21
1343.36963086831
 31
0.0
  0
LINE
  8
0
 62
     0
 10
1003.440842291978
 20
1378.396742419362
 30
0.0
 11
1002.853486680108
 21
1381.581025287639
 31
0.0
  0
LINE
  8
0
 62
     0
 10
974.052341958786
 20
1343.373404855303
 30
0.0
 11
973.464986346917
 21
1346.557687723581
 31
0.0
  0
LINE
  8
0
 62
     0
 10
1074.870895880276
 20
1325.145422676742
 30
0.0
 11
1075.810808219111
 21
1326.125013315925
 31
0.0
  0
LINE
  8
0
 62
     0
 10
1119.33489946607
 20
1371.48646948883
 30
0.0
 11
1123.291635033976
 21
1375.610238231821
 31
0.0
  0
LINE
  8
0
 62
     0
 10
1227.766515822922
 20
1354.669538315739
 30
0.0
 11
1231.723251390828
 21
1358.79330705873
 31
0.0
  0
LINE
  8
0
 62
     0
 10
1017.63826447278
 20
1330.409710159479
 30
0.0
 11
1021.595000040685
 21
1334.53347890247
 31
0.0
  0
LINE
  8
0
 62
     0
 10
1065.119091287644
 20
1379.894935075375
 30
0.0
 11
1069.07582685555
 21
1384.018703818366
 31
0.0
  0
LINE
  8
0
 62
     0
 10
1010.903283109218
 20
1388.303400661921
 30
0.0
 11
1014.860018677124
 21
1392.427169404912
 31
0.0
  0
LINE
  8
0
 62
     0
 10
1075.924912827379
 20
1325.145422676742
 30
0.0
 11
1075.811302267907
 21
1326.122015099501
 31
0.0
  0
LINE
  8
0
 62
     0
 10
1069.637580131566
 20
1379.191116128097
 30
0.0
 11
1069.076332664625
 21
1384.015579857969
 31
0.0
  0
LINE
  8
0
 62
     0
 10
1123.853396628095
 20
1370.782662547639
 30
0.0
 11
1123.292149161154
 21
1375.607126277512
 31
0.0
  0
LINE
  8
0
 62
     0
 10
1232.285029621152
 20
1353.965755386724
 30
0.0
 11
1231.723782154212
 21
1358.790219116596
 31
0.0
  0
LINE
  8
0
 62
     0
 10
1022.156733238318
 20
1329.706004950087
 30
0.0
 11
1021.595485771378
 21
1334.530468679959
 31
0.0
  0
LINE
  8
0
 62
     0
 10
1015.421763635037
 20
1387.599569708555
 30
0.0
 11
1014.860516168097
 21
1392.424033438427
 31
0.0
  0
LINE
  8
0
 62
     0
 10
1017.640686544143
 20
1330.404833520952
 30
0.0
 11
1022.158671204316
 21
1329.70412059083
 31
0.0
  0
LINE
  8
0
 62
     0
 10
1010.905791784852
 20
1388.298412254532
 30
0.0
 11
1015.423776445025
 21
1387.597699324411
 31
0.0
  0
LINE
  8
0
 62
     0
 10
1227.769055473165
 20
1354.664191608689
 30
0.0
 11
1232.287040133338
 21
1353.963478678567
 31
0.0
  0
LINE
  8
0
 62
     0
 10
1065.12160770693
 20
1379.889857093071
 30
0.0
 11
1069.639592367103
 21
1379.18914416295
 31
0.0
  0
LINE
  8
0
 62
     0
 10
1119.337423629008
 20
1371.481301931611
 30
0.0
 11
1123.855408289181
 21
1370.780589001489
 31
0.0
  0
LINE
  8
0
 62
     0
 10
1217.195254827928
 20
1403.604557404568
 30
0.0
 11
1220.752196252883
 21
1404.969939292336
 31
0.0
  0
LINE
  8
0
 62
     0
 10
1046.46206643012
 20
1338.066226791723
 30
0.0
 11
1050.019007855074
 21
1339.431608679491
 31
0.0
  0
LINE
  8
0
 62
     0
 10
1089.145363529572
 20
1354.450809444934
 30
0.0
 11
1092.702304954527
 21
1355.816191332702
 31
0.0
  0
LINE
  8
0
 62
     0
 10
1131.828660629024
 20
1370.835392098145
 30
0.0
 11
1135.385602053978
 21
1372.200773985913
 31
0.0
  0
LINE
  8
0
 62
     0
 10
1204.834933695553
 20
1366.766871048004
 30
0.0
 11
1208.391875120507
 21
1368.132252935772
 31
0.0
  0
LINE
  8
0
 62
     0
 10
1119.468339496649
 20
1333.997705741582
 30
0.0
 11
1123.025280921603
 21
1335.36308762935
 31
0.0
  0
LINE
  8
0
 62
     0
 10
1162.151636596101
 20
1350.382288394793
 30
0.0
 11
1165.708578021055
 21
1351.747670282561
 31
0.0
  0
LINE
  8
0
 62
     0
 10
1192.474612563177
 20
1329.929184691441
 30
0.0
 11
1196.031553988132
 21
1331.294566579208
 31
0.0
  0
LINE
  8
0
 62
     0
 10
1235.15790966263
 20
1346.313767344652
 30
0.0
 11
1238.714851087584
 21
1347.679149232419
 31
0.0
  0
LINE
  8
0
 62
     0
 10
973.455793363591
 20
1342.134747841865
 30
0.0
 11
977.012734788546
 21
1343.500129729632
 31
0.0
  0
LINE
  8
0
 62
     0
 10
1016.139090463043
 20
1358.519330495076
 30
0.0
 11
1019.696031887997
 21
1359.884712382843
 31
0.0
  0
LINE
  8
0
 62
     0
 10
1058.822387562495
 20
1374.903913148287
 30
0.0
 11
1062.379328987449
 21
1376.269295036055
 31
0.0
  0
LINE
  8
0
 62
     0
 10
985.816114495967
 20
1378.972434198428
 30
0.0
 11
989.373055920921
 21
1380.337816086196
 31
0.0
  0
LINE
  8
0
 62
     0
 10
1028.499411595419
 20
1395.35701685164
 30
0.0
 11
1029.238307014886
 21
1395.640652228826
 31
0.0
  0
LINE
  8
0
 62
     0
 10
1028.501834604951
 20
1395.353693765147
 30
0.0
 11
1029.238307014887
 21
1394.856936852225
 31
0.0
  0
LINE
  8
0
 62
     0
 10
1119.47046936627
 20
1333.994574853109
 30
0.0
 11
1121.997375887418
 21
1332.29015488333
 31
0.0
  0
LINE
  8
0
 62
     0
 10
1058.824712858724
 20
1374.900654127801
 30
0.0
 11
1061.351619379872
 21
1373.196234158022
 31
0.0
  0
LINE
  8
0
 62
     0
 10
1089.147591112497
 20
1354.447614490455
 30
0.0
 11
1091.674497633645
 21
1352.743194520676
 31
0.0
  0
LINE
  8
0
 62
     0
 10
1192.476631543346
 20
1329.926088802881
 30
0.0
 11
1195.003538064494
 21
1328.221668833102
 31
0.0
  0
LINE
  8
0
 62
     0
 10
1131.8308750358
 20
1370.832168077573
 30
0.0
 11
1134.357781556948
 21
1369.127748107794
 31
0.0
  0
LINE
  8
0
 62
     0
 10
1162.153753289573
 20
1350.379128440227
 30
0.0
 11
1164.680659810721
 21
1348.674708470448
 31
0.0
  0
LINE
  8
0
 62
     0
 10
1204.837037212876
 20
1366.763682027344
 30
0.0
 11
1207.363943734024
 21
1365.059262057566
 31
0.0
  0
LINE
  8
0
 62
     0
 10
1235.159915466649
 20
1346.310642389998
 30
0.0
 11
1237.686821987797
 21
1344.606222420219
 31
0.0
  0
LINE
  8
0
 62
     0
 10
1217.197442882405
 20
1403.601275251809
 30
0.0
 11
1219.724349403553
 21
1401.89685528203
 31
0.0
  0
LINE
  8
0
 62
     0
 10
985.818550681648
 20
1378.969140178029
 30
0.0
 11
988.345457202796
 21
1377.26472020825
 31
0.0
  0
LINE
  8
0
 62
     0
 10
1016.141428935421
 20
1358.516100540683
 30
0.0
 11
1018.668335456569
 21
1356.811680570904
 31
0.0
  0
LINE
  8
0
 62
     0
 10
1046.464307189195
 20
1338.063060903337
 30
0.0
 11
1048.991213710342
 21
1336.358640933558
 31
0.0
  0
LINE
  8
0
 62
     0
 10
973.458145012119
 20
1342.131546953565
 30
0.0
 11
975.985051533267
 21
1340.427126983786
 31
0.0
  0
LINE
  8
0
 62
     0
 10
1091.675755415201
 20
1352.743484626132
 30
0.0
 11
1092.70579215887
 21
1355.813284018062
 31
0.0
  0
LINE
  8
0
 62
     0
 10
1121.998612645199
 20
1332.290463466187
 30
0.0
 11
1123.028649388868
 21
1335.360262858117
 31
0.0
  0
LINE
  8
0
 62
     0
 10
1134.359053569226
 20
1369.128056169343
 30
0.0
 11
1135.389090312895
 21
1372.197855561273
 31
0.0
  0
LINE
  8
0
 62
     0
 10
1164.681910799224
 20
1348.675035009399
 30
0.0
 11
1165.711947542893
 21
1351.744834401328
 31
0.0
  0
LINE
  8
0
 62
     0
 10
1195.004768029222
 20
1328.222013849454
 30
0.0
 11
1196.034804772891
 21
1331.291813241384
 31
0.0
  0
LINE
  8
0
 62
     0
 10
1207.365208953249
 20
1365.05960655261
 30
0.0
 11
1208.395245696918
 21
1368.12940594454
 31
0.0
  0
LINE
  8
0
 62
     0
 10
1219.725649877276
 20
1401.897199255767
 30
0.0
 11
1220.755686620945
 21
1404.966998647697
 31
0.0
  0
LINE
  8
0
 62
     0
 10
1237.688066183247
 20
1344.606585392665
 30
0.0
 11
1238.718102926916
 21
1347.676384784595
 31
0.0
  0
LINE
  8
0
 62
     0
 10
1048.992457261176
 20
1336.35891308292
 30
0.0
 11
1050.022494004845
 21
1339.42871247485
 31
0.0
  0
LINE
  8
0
 62
     0
 10
1061.352898185203
 20
1373.196505786077
 30
0.0
 11
1062.382934928872
 21
1376.266305178007
 31
0.0
  0
LINE
  8
0
 62
     0
 10
1018.669600031178
 20
1356.811934242865
 30
0.0
 11
1019.699636774847
 21
1359.881733634795
 31
0.0
  0
LINE
  8
0
 62
     0
 10
975.986301877154
 20
1340.427362699654
 30
0.0
 11
977.016338620822
 21
1343.497162091584
 31
0.0
  0
LINE
  8
0
 62
     0
 10
988.34674280118
 20
1377.26495540281
 30
0.0
 11
989.376779544849
 21
1380.33475479474
 31
0.0
  0
LINE
  8
0
 62
     0
 10
1085.166640544233
 20
1342.225085255704
 30
0.0
 11
1085.166640544233
 21
1342.225085255704
 31
0.0
  0
LINE
  8
0
 62
     0
 10
1112.169214834386
 20
1362.944889253445
 30
0.0
 11
1112.169214834386
 21
1362.944889253445
 31
0.0
  0
LINE
  8
0
 62
     0
 10
1138.869521501888
 20
1383.432755146733
 30
0.0
 11
1138.869521501888
 21
1383.432755146733
 31
0.0
  0
LINE
  8
0
 62
     0
 10
1165.146653497678
 20
1403.595907693788
 30
0.0
 11
1165.146653497678
 21
1403.595907693788
 31
0.0
  0
LINE
  8
0
 62
     0
 10
1059.507229198562
 20
1338.972940483279
 30
0.0
 11
1059.507229198562
 21
1338.972940483279
 31
0.0
  0
LINE
  8
0
 62
     0
 10
1085.784361194352
 20
1359.136093030335
 30
0.0
 11
1085.784361194352
 21
1359.136093030335
 31
0.0
  0
LINE
  8
0
 62
     0
 10
1112.786935484505
 20
1379.855897028075
 30
0.0
 11
1112.786935484505
 21
1379.855897028075
 31
0.0
  0
LINE
  8
0
 62
     0
 10
1139.487242152006
 20
1400.343762921364
 30
0.0
 11
1139.487242152006
 21
1400.343762921364
 31
0.0
  0
LINE
  8
0
 62
     0
 10
1113.404656134623
 20
1396.766904802706
 30
0.0
 11
1113.404656134623
 21
1396.766904802706
 31
0.0
  0
LINE
  8
0
 62
     0
 10
1060.12494984868
 20
1355.88394825791
 30
0.0
 11
1060.12494984868
 21
1355.88394825791
 31
0.0
  0
LINE
  8
0
 62
     0
 10
1086.40208184447
 20
1376.047100804965
 30
0.0
 11
1086.40208184447
 21
1376.047100804965
 31
0.0
  0
LINE
  8
0
 62
     0
 10
1007.039789541145
 20
1331.587286141511
 30
0.0
 11
1007.039789541145
 21
1331.587286141511
 31
0.0
  0
LINE
  8
0
 62
     0
 10
1060.742670498799
 20
1372.794956032541
 30
0.0
 11
1060.742670498799
 21
1372.794956032541
 31
0.0
  0
LINE
  8
0
 62
     0
 10
1087.019802494589
 20
1392.958108579596
 30
0.0
 11
1087.019802494589
 21
1392.958108579596
 31
0.0
  0
LINE
  8
0
 62
     0
 10
981.380378195473
 20
1328.335141369086
 30
0.0
 11
981.380378195473
 21
1328.335141369086
 31
0.0
  0
LINE
  8
0
 62
     0
 10
1007.657510191263
 20
1348.498293916142
 30
0.0
 11
1007.657510191263
 21
1348.498293916142
 31
0.0
  0
LINE
  8
0
 62
     0
 10
1061.360391148917
 20
1389.705963807171
 30
0.0
 11
1061.360391148917
 21
1389.705963807171
 31
0.0
  0
LINE
  8
0
 62
     0
 10
981.998098845591
 20
1345.246149143717
 30
0.0
 11
981.998098845591
 21
1345.246149143717
 31
0.0
  0
LINE
  8
0
 62
     0
 10
1008.275230841382
 20
1365.409301690772
 30
0.0
 11
1008.275230841382
 21
1365.409301690772
 31
0.0
  0
LINE
  8
0
 62
     0
 10
982.61581949571
 20
1362.157156918348
 30
0.0
 11
982.61581949571
 21
1362.157156918348
 31
0.0
  0
LINE
  8
0
 62
     0
 10
1008.8929514915
 20
1382.320309465403
 30
0.0
 11
1008.8929514915
 21
1382.320309465403
 31
0.0
  0
LINE
  8
0
 62
     0
 10
983.233540145828
 20
1379.068164692978
 30
0.0
 11
983.233540145828
 21
1379.068164692978
 31
0.0
  0
LINE
  8
0
 62
     0
 10
1009.510672141618
 20
1399.231317240034
 30
0.0
 11
1009.510672141618
 21
1399.231317240034
 31
0.0
  0
LINE
  8
0
 62
     0
 10
983.851260795946
 20
1395.979172467609
 30
0.0
 11
983.851260795946
 21
1395.979172467609
 31
0.0
  0
LINE
  8
0
 62
     0
 10
1084.548919894115
 20
1325.314077481073
 30
0.0
 11
1084.548919894115
 21
1325.314077481073
 31
0.0
  0
LINE
  8
0
 62
     0
 10
1111.551494184268
 20
1346.033881478814
 30
0.0
 11
1111.551494184268
 21
1346.033881478814
 31
0.0
  0
LINE
  8
0
 62
     0
 10
1138.251800851769
 20
1366.521747372102
 30
0.0
 11
1138.251800851769
 21
1366.521747372102
 31
0.0
  0
LINE
  8
0
 62
     0
 10
1164.52893284756
 20
1386.684899919158
 30
0.0
 11
1164.52893284756
 21
1386.684899919158
 31
0.0
  0
LINE
  8
0
 62
     0
 10
1110.93377353415
 20
1329.122873704184
 30
0.0
 11
1110.93377353415
 21
1329.122873704184
 31
0.0
  0
LINE
  8
0
 62
     0
 10
1137.634080201651
 20
1349.610739597472
 30
0.0
 11
1137.634080201651
 21
1349.610739597472
 31
0.0
  0
LINE
  8
0
 62
     0
 10
1163.911212197441
 20
1369.773892144527
 30
0.0
 11
1163.911212197441
 21
1369.773892144527
 31
0.0
  0
LINE
  8
0
 62
     0
 10
1190.913786487594
 20
1390.493696142268
 30
0.0
 11
1190.913786487594
 21
1390.493696142268
 31
0.0
  0
LINE
  8
0
 62
     0
 10
1137.016359551533
 20
1332.699731822841
 30
0.0
 11
1137.016359551533
 21
1332.699731822841
 31
0.0
  0
LINE
  8
0
 62
     0
 10
1163.293491547323
 20
1352.862884369897
 30
0.0
 11
1163.293491547323
 21
1352.862884369897
 31
0.0
  0
LINE
  8
0
 62
     0
 10
1190.296065837475
 20
1373.582688367637
 30
0.0
 11
1190.296065837475
 21
1373.582688367637
 31
0.0
  0
LINE
  8
0
 62
     0
 10
1216.996372504977
 20
1394.070554260926
 30
0.0
 11
1216.996372504977
 21
1394.070554260926
 31
0.0
  0
LINE
  8
0
 62
     0
 10
1162.675770897205
 20
1335.951876595266
 30
0.0
 11
1162.675770897205
 21
1335.951876595266
 31
0.0
  0
LINE
  8
0
 62
     0
 10
1189.678345187357
 20
1356.671680593007
 30
0.0
 11
1189.678345187357
 21
1356.671680593007
 31
0.0
  0
LINE
  8
0
 62
     0
 10
1216.378651854858
 20
1377.159546486295
 30
0.0
 11
1216.378651854858
 21
1377.159546486295
 31
0.0
  0
LINE
  8
0
 62
     0
 10
1189.060624537239
 20
1339.760672818376
 30
0.0
 11
1189.060624537239
 21
1339.760672818376
 31
0.0
  0
LINE
  8
0
 62
     0
 10
1215.76093120474
 20
1360.248538711665
 30
0.0
 11
1215.76093120474
 21
1360.248538711665
 31
0.0
  0
LINE
  8
0
 62
     0
 10
1215.143210554622
 20
1343.337530937034
 30
0.0
 11
1215.143210554622
 21
1343.337530937034
 31
0.0
  0
LINE
  8
0
 62
     0
 10
1214.525489904503
 20
1326.426523162403
 30
0.0
 11
1214.525489904503
 21
1326.426523162403
 31
0.0
  0
LINE
  8
0
 62
     0
 10
997.381491448853
 20
1337.571275957803
 30
0.0
 11
997.381491448853
 21
1337.571275957803
 31
0.0
  0
LINE
  8
0
 62
     0
 10
1010.098754685695
 20
1339.24553542541
 30
0.0
 11
1010.098754685695
 21
1339.24553542541
 31
0.0
  0
LINE
  8
0
 62
     0
 10
1189.500305773341
 20
1362.864197697151
 30
0.0
 11
1189.500305773341
 21
1362.864197697151
 31
0.0
  0
LINE
  8
0
 62
     0
 10
1202.217569010184
 20
1364.538457164758
 30
0.0
 11
1202.217569010184
 21
1364.538457164758
 31
0.0
  0
LINE
  8
0
 62
     0
 10
1221.457151412059
 20
1367.071396240503
 30
0.0
 11
1221.457151412059
 21
1367.071396240503
 31
0.0
  0
LINE
  8
0
 62
     0
 10
1061.421096223683
 20
1346.002249870919
 30
0.0
 11
1061.421096223683
 21
1346.002249870919
 31
0.0
  0
LINE
  8
0
 62
     0
 10
1074.138359460525
 20
1347.676509338525
 30
0.0
 11
1074.138359460525
 21
1347.676509338525
 31
0.0
  0
LINE
  8
0
 62
     0
 10
1093.3779418624
 20
1350.209448414271
 30
0.0
 11
1093.3779418624
 21
1350.209448414271
 31
0.0
  0
LINE
  8
0
 62
     0
 10
1125.460700998512
 20
1354.433223784035
 30
0.0
 11
1125.460700998512
 21
1354.433223784035
 31
0.0
  0
LINE
  8
0
 62
     0
 10
1138.177964235354
 20
1356.107483251642
 30
0.0
 11
1138.177964235354
 21
1356.107483251642
 31
0.0
  0
LINE
  8
0
 62
     0
 10
1157.41754663723
 20
1358.640422327387
 30
0.0
 11
1157.41754663723
 21
1358.640422327387
 31
0.0
  0
LINE
  8
0
 62
     0
 10
978.662664814802
 20
1353.383615551663
 30
0.0
 11
978.662664814802
 21
1353.383615551663
 31
0.0
  0
LINE
  8
0
 62
     0
 10
1010.745423950914
 20
1357.607390921427
 30
0.0
 11
1010.745423950914
 21
1357.607390921427
 31
0.0
  0
LINE
  8
0
 62
     0
 10
1023.462687187756
 20
1359.281650389033
 30
0.0
 11
1023.462687187756
 21
1359.281650389033
 31
0.0
  0
LINE
  8
0
 62
     0
 10
1202.864238275403
 20
1382.900312660775
 30
0.0
 11
1202.864238275403
 21
1382.900312660775
 31
0.0
  0
LINE
  8
0
 62
     0
 10
1215.581501512245
 20
1384.574572128382
 30
0.0
 11
1215.581501512245
 21
1384.574572128382
 31
0.0
  0
LINE
  8
0
 62
     0
 10
1234.82108391412
 20
1387.107511204127
 30
0.0
 11
1234.82108391412
 21
1387.107511204127
 31
0.0
  0
LINE
  8
0
 62
     0
 10
1042.702269589632
 20
1361.814589464779
 30
0.0
 11
1042.702269589632
 21
1361.814589464779
 31
0.0
  0
LINE
  8
0
 62
     0
 10
1074.785028725744
 20
1366.038364834543
 30
0.0
 11
1074.785028725744
 21
1366.038364834543
 31
0.0
  0
LINE
  8
0
 62
     0
 10
1087.502291962586
 20
1367.71262430215
 30
0.0
 11
1087.502291962586
 21
1367.71262430215
 31
0.0
  0
LINE
  8
0
 62
     0
 10
1138.824633500573
 20
1374.469338747659
 30
0.0
 11
1138.824633500573
 21
1374.469338747659
 31
0.0
  0
LINE
  8
0
 62
     0
 10
1151.541896737415
 20
1376.143598215266
 30
0.0
 11
1151.541896737415
 21
1376.143598215266
 31
0.0
  0
LINE
  8
0
 62
     0
 10
972.787014914988
 20
1370.886791439541
 30
0.0
 11
972.787014914988
 21
1370.886791439541
 31
0.0
  0
LINE
  8
0
 62
     0
 10
992.026597316864
 20
1373.419730515287
 30
0.0
 11
992.026597316864
 21
1373.419730515287
 31
0.0
  0
LINE
  8
0
 62
     0
 10
1024.109356452975
 20
1377.643505885051
 30
0.0
 11
1024.109356452975
 21
1377.643505885051
 31
0.0
  0
LINE
  8
0
 62
     0
 10
1184.145411641352
 20
1398.712652254635
 30
0.0
 11
1184.145411641352
 21
1398.712652254635
 31
0.0
  0
LINE
  8
0
 62
     0
 10
1216.228170777464
 20
1402.936427624399
 30
0.0
 11
1216.228170777464
 21
1402.936427624399
 31
0.0
  0
LINE
  8
0
 62
     0
 10
1228.945434014306
 20
1404.610687092005
 30
0.0
 11
1228.945434014306
 21
1404.610687092005
 31
0.0
  0
LINE
  8
0
 62
     0
 10
1056.066202091693
 20
1381.850704428403
 30
0.0
 11
1056.066202091693
 21
1381.850704428403
 31
0.0
  0
LINE
  8
0
 62
     0
 10
1088.148961227805
 20
1386.074479798167
 30
0.0
 11
1088.148961227805
 21
1386.074479798167
 31
0.0
  0
LINE
  8
0
 62
     0
 10
1120.105806866522
 20
1390.281678341519
 30
0.0
 11
1120.105806866522
 21
1390.281678341519
 31
0.0
  0
LINE
  8
0
 62
     0
 10
1152.188566002634
 20
1394.505453711283
 30
0.0
 11
1152.188566002634
 21
1394.505453711283
 31
0.0
  0
LINE
  8
0
 62
     0
 10
1164.905829239476
 20
1396.17971317889
 30
0.0
 11
1164.905829239476
 21
1396.17971317889
 31
0.0
  0
LINE
  8
0
 62
     0
 10
973.433684180207
 20
1389.248646935559
 30
0.0
 11
973.433684180207
 21
1389.248646935559
 31
0.0
  0
LINE
  8
0
 62
     0
 10
986.150947417049
 20
1390.922906403165
 30
0.0
 11
986.150947417049
 21
1390.922906403165
 31
0.0
  0
LINE
  8
0
 62
     0
 10
1005.390529818925
 20
1393.455845478911
 30
0.0
 11
1005.390529818925
 21
1393.455845478911
 31
0.0
  0
LINE
  8
0
 62
     0
 10
1050.190552191878
 20
1399.353880316281
 30
0.0
 11
1050.190552191878
 21
1399.353880316281
 31
0.0
  0
LINE
  8
0
 62
     0
 10
1069.430134593754
 20
1401.886819392027
 30
0.0
 11
1069.430134593754
 21
1401.886819392027
 31
0.0
  0
LINE
  8
0
 62
     0
 10
1048.057163721622
 20
1325.966134907295
 30
0.0
 11
1048.057163721622
 21
1325.966134907295
 31
0.0
  0
LINE
  8
0
 62
     0
 10
1060.774426958463
 20
1327.640394374902
 30
0.0
 11
1060.774426958463
 21
1327.640394374902
 31
0.0
  0
LINE
  8
0
 62
     0
 10
1080.014009360339
 20
1330.173333450647
 30
0.0
 11
1080.014009360339
 21
1330.173333450647
 31
0.0
  0
LINE
  8
0
 62
     0
 10
1188.853636508122
 20
1344.502342201134
 30
0.0
 11
1188.853636508122
 21
1344.502342201134
 31
0.0
  0
LINE
  8
0
 62
     0
 10
1208.093218909998
 20
1347.035281276879
 30
0.0
 11
1208.093218909998
 21
1347.035281276879
 31
0.0
  0
LINE
  8
0
 62
     0
 10
1112.096768496451
 20
1334.397108820411
 30
0.0
 11
1112.096768496451
 21
1334.397108820411
 31
0.0
  0
LINE
  8
0
 62
     0
 10
1124.814031733293
 20
1336.071368288018
 30
0.0
 11
1124.814031733293
 21
1336.071368288018
 31
0.0
  0
LINE
  8
0
 62
     0
 10
1144.053614135168
 20
1338.604307363763
 30
0.0
 11
1144.053614135168
 21
1338.604307363763
 31
0.0
  0
LINE
  8
0
 62
     0
 10
1194.729286407937
 20
1326.999166313255
 30
0.0
 11
1194.729286407937
 21
1326.999166313255
 31
0.0
  0
LINE
  8
0
 62
     0
 10
1226.812045544049
 20
1331.222941683019
 30
0.0
 11
1226.812045544049
 21
1331.222941683019
 31
0.0
  0
LINE
  8
0
 62
     0
 10
1026.663865720047
 20
1403.416987494779
 30
0.0
 11
1026.663865720047
 21
1403.416987494779
 31
0.0
  0
LINE
  8
0
 62
     0
 10
1115.13731516871
 20
1347.053183979981
 30
0.0
 11
1115.13731516871
 21
1347.053183979981
 31
0.0
  0
LINE
  8
0
 62
     0
 10
1071.007701157997
 20
1375.16684868712
 30
0.0
 11
1071.007701157997
 21
1375.16684868712
 31
0.0
  0
LINE
  8
0
 62
     0
 10
1081.718772519821
 20
1368.343143661115
 30
0.0
 11
1081.718772519821
 21
1368.343143661115
 31
0.0
  0
LINE
  8
0
 62
     0
 10
1053.781984753422
 20
1402.271238696244
 30
0.0
 11
1053.781984753422
 21
1402.271238696244
 31
0.0
  0
LINE
  8
0
 62
     0
 10
1098.125820191372
 20
1374.021099888585
 30
0.0
 11
1098.125820191372
 21
1374.021099888585
 31
0.0
  0
LINE
  8
0
 62
     0
 10
1142.255434202085
 20
1345.907435181446
 30
0.0
 11
1142.255434202085
 21
1345.907435181446
 31
0.0
  0
LINE
  8
0
 62
     0
 10
1080.900103786796
 20
1401.12548989771
 30
0.0
 11
1080.900103786796
 21
1401.12548989771
 31
0.0
  0
LINE
  8
0
 62
     0
 10
1125.243939224746
 20
1372.875351090051
 30
0.0
 11
1125.243939224746
 21
1372.875351090051
 31
0.0
  0
LINE
  8
0
 62
     0
 10
1135.955010586569
 20
1366.051646064046
 30
0.0
 11
1135.955010586569
 21
1366.051646064046
 31
0.0
  0
LINE
  8
0
 62
     0
 10
1152.36205825812
 20
1371.729602291516
 30
0.0
 11
1152.36205825812
 21
1371.729602291516
 31
0.0
  0
LINE
  8
0
 62
     0
 10
1163.073129619943
 20
1364.905897265511
 30
0.0
 11
1163.073129619943
 21
1364.905897265511
 31
0.0
  0
LINE
  8
0
 62
     0
 10
1196.491672268833
 20
1343.615937584377
 30
0.0
 11
1196.491672268833
 21
1343.615937584377
 31
0.0
  0
LINE
  8
0
 62
     0
 10
1135.136341853544
 20
1398.83399230064
 30
0.0
 11
1135.136341853544
 21
1398.83399230064
 31
0.0
  0
LINE
  8
0
 62
     0
 10
1179.480177291494
 20
1370.583853492981
 30
0.0
 11
1179.480177291494
 21
1370.583853492981
 31
0.0
  0
LINE
  8
0
 62
     0
 10
1190.191248653318
 20
1363.760148466976
 30
0.0
 11
1190.191248653318
 21
1363.760148466976
 31
0.0
  0
LINE
  8
0
 62
     0
 10
1223.609791302208
 20
1342.470188785842
 30
0.0
 11
1223.609791302208
 21
1342.470188785842
 31
0.0
  0
LINE
  8
0
 62
     0
 10
1162.254460886918
 20
1397.688243502106
 30
0.0
 11
1162.254460886918
 21
1397.688243502106
 31
0.0
  0
LINE
  8
0
 62
     0
 10
1206.598296324868
 20
1369.438104694447
 30
0.0
 11
1206.598296324868
 21
1369.438104694447
 31
0.0
  0
LINE
  8
0
 62
     0
 10
1217.309367686692
 20
1362.614399668442
 30
0.0
 11
1217.309367686692
 21
1362.614399668442
 31
0.0
  0
LINE
  8
0
 62
     0
 10
1189.372579920292
 20
1396.542494703571
 30
0.0
 11
1189.372579920292
 21
1396.542494703571
 31
0.0
  0
LINE
  8
0
 62
     0
 10
1233.716415358242
 20
1368.292355895912
 30
0.0
 11
1233.716415358242
 21
1368.292355895912
 31
0.0
  0
LINE
  8
0
 62
     0
 10
1216.490698953667
 20
1395.396745905036
 30
0.0
 11
1216.490698953667
 21
1395.396745905036
 31
0.0
  0
LINE
  8
0
 62
     0
 10
999.545746686673
 20
1404.562736293314
 30
0.0
 11
999.545746686673
 21
1404.562736293314
 31
0.0
  0
LINE
  8
0
 62
     0
 10
1043.889582124623
 20
1376.312597485655
 30
0.0
 11
1043.889582124623
 21
1376.312597485655
 31
0.0
  0
LINE
  8
0
 62
     0
 10
1054.600653486447
 20
1369.48889245965
 30
0.0
 11
1054.600653486447
 21
1369.48889245965
 31
0.0
  0
LINE
  8
0
 62
     0
 10
1088.019196135336
 20
1348.198932778515
 30
0.0
 11
1088.019196135336
 21
1348.198932778515
 31
0.0
  0
LINE
  8
0
 62
     0
 10
1016.771463091248
 20
1377.45834628419
 30
0.0
 11
1016.771463091248
 21
1377.45834628419
 31
0.0
  0
LINE
  8
0
 62
     0
 10
1027.482534453072
 20
1370.634641258185
 30
0.0
 11
1027.482534453072
 21
1370.634641258185
 31
0.0
  0
LINE
  8
0
 62
     0
 10
1060.901077101962
 20
1349.34468157705
 30
0.0
 11
1060.901077101962
 21
1349.34468157705
 31
0.0
  0
LINE
  8
0
 62
     0
 10
989.653344057874
 20
1378.604095082724
 30
0.0
 11
989.653344057874
 21
1378.604095082724
 31
0.0
  0
LINE
  8
0
 62
     0
 10
1000.364415419698
 20
1371.780390056719
 30
0.0
 11
1000.364415419698
 21
1371.780390056719
 31
0.0
  0
LINE
  8
0
 62
     0
 10
973.246296386324
 20
1372.926138855254
 30
0.0
 11
973.246296386324
 21
1372.926138855254
 31
0.0
  0
LINE
  8
0
 62
     0
 10
1006.664839035213
 20
1351.63617917412
 30
0.0
 11
1006.664839035213
 21
1351.63617917412
 31
0.0
  0
LINE
  8
0
 62
     0
 10
979.546720001839
 20
1352.781927972654
 30
0.0
 11
979.546720001839
 21
1352.781927972654
 31
0.0
  0
LINE
  8
0
 62
     0
 10
996.772436406415
 20
1325.677537963529
 30
0.0
 11
996.772436406415
 21
1325.677537963529
 31
0.0
  0
LINE
  8
0
 62
     0
 10
969.654317373041
 20
1326.823286762064
 30
0.0
 11
969.654317373041
 21
1326.823286762064
 31
0.0
  0
LINE
  8
0
 62
     0
 10
1065.139438441953
 20
1394.139789686017
 30
0.0
 11
1065.139438441953
 21
1394.139789686017
 31
0.0
  0
LINE
  8
0
 62
     0
 10
1084.540449193709
 20
1376.362038726735
 30
0.0
 11
1084.540449193709
 21
1376.362038726735
 31
0.0
  0
LINE
  8
0
 62
     0
 10
1112.068910395525
 20
1351.136851554782
 30
0.0
 11
1112.068910395525
 21
1351.136851554782
 31
0.0
  0
LINE
  8
0
 62
     0
 10
1124.241359226261
 20
1339.982857227047
 30
0.0
 11
1124.241359226261
 21
1339.982857227047
 31
0.0
  0
LINE
  8
0
 62
     0
 10
1094.765274719156
 20
1399.225087892683
 30
0.0
 11
1094.765274719156
 21
1399.225087892683
 31
0.0
  0
LINE
  8
0
 62
     0
 10
1114.166285470913
 20
1381.447336933402
 30
0.0
 11
1114.166285470913
 21
1381.447336933402
 31
0.0
  0
LINE
  8
0
 62
     0
 10
1141.694746672729
 20
1356.222149761448
 30
0.0
 11
1141.694746672729
 21
1356.222149761448
 31
0.0
  0
LINE
  8
0
 62
     0
 10
1153.867195503464
 20
1345.068155433714
 30
0.0
 11
1153.867195503464
 21
1345.068155433714
 31
0.0
  0
LINE
  8
0
 62
     0
 10
1124.39111099636
 20
1404.31038609935
 30
0.0
 11
1124.39111099636
 21
1404.31038609935
 31
0.0
  0
LINE
  8
0
 62
     0
 10
1143.792121748116
 20
1386.532635140068
 30
0.0
 11
1143.792121748116
 21
1386.532635140068
 31
0.0
  0
LINE
  8
0
 62
     0
 10
1183.493031780668
 20
1350.15345364038
 30
0.0
 11
1183.493031780668
 21
1350.15345364038
 31
0.0
  0
LINE
  8
0
 62
     0
 10
1202.894042532424
 20
1332.375702681099
 30
0.0
 11
1202.894042532424
 21
1332.375702681099
 31
0.0
  0
LINE
  8
0
 62
     0
 10
1200.946419227136
 20
1366.392746174782
 30
0.0
 11
1200.946419227136
 21
1366.392746174782
 31
0.0
  0
LINE
  8
0
 62
     0
 10
1213.118868057871
 20
1355.238751847047
 30
0.0
 11
1213.118868057871
 21
1355.238751847047
 31
0.0
  0
LINE
  8
0
 62
     0
 10
1232.519878809628
 20
1337.461000887766
 30
0.0
 11
1232.519878809628
 21
1337.461000887766
 31
0.0
  0
LINE
  8
0
 62
     0
 10
1203.043794302523
 20
1396.703231553402
 30
0.0
 11
1203.043794302523
 21
1396.703231553402
 31
0.0
  0
LINE
  8
0
 62
     0
 10
1230.57225550434
 20
1371.478044381448
 30
0.0
 11
1230.57225550434
 21
1371.478044381448
 31
0.0
  0
LINE
  8
0
 62
     0
 10
1232.669630579727
 20
1401.788529760068
 30
0.0
 11
1232.669630579727
 21
1401.788529760068
 31
0.0
  0
LINE
  8
0
 62
     0
 10
1023.341153334013
 20
1400.208485807085
 30
0.0
 11
1023.341153334013
 21
1400.208485807085
 31
0.0
  0
LINE
  8
0
 62
     0
 10
1054.914612916505
 20
1371.276740520069
 30
0.0
 11
1054.914612916505
 21
1371.276740520069
 31
0.0
  0
LINE
  8
0
 62
     0
 10
1082.443074118322
 20
1346.051553348115
 30
0.0
 11
1082.443074118322
 21
1346.051553348115
 31
0.0
  0
LINE
  8
0
 62
     0
 10
1094.615522949057
 20
1334.897559020381
 30
0.0
 11
1094.615522949057
 21
1334.897559020381
 31
0.0
  0
LINE
  8
0
 62
     0
 10
993.71531705681
 20
1395.123187600418
 30
0.0
 11
993.71531705681
 21
1395.123187600418
 31
0.0
  0
LINE
  8
0
 62
     0
 10
1005.887765887545
 20
1383.969193272684
 30
0.0
 11
1005.887765887545
 21
1383.969193272684
 31
0.0
  0
LINE
  8
0
 62
     0
 10
1025.288776639301
 20
1366.191442313402
 30
0.0
 11
1025.288776639301
 21
1366.191442313402
 31
0.0
  0
LINE
  8
0
 62
     0
 10
1052.817237841118
 20
1340.966255141448
 30
0.0
 11
1052.817237841118
 21
1340.966255141448
 31
0.0
  0
LINE
  8
0
 62
     0
 10
1064.989686671853
 20
1329.812260813714
 30
0.0
 11
1064.989686671853
 21
1329.812260813714
 31
0.0
  0
LINE
  8
0
 62
     0
 10
976.261929610342
 20
1378.883895066017
 30
0.0
 11
976.261929610342
 21
1378.883895066017
 31
0.0
  0
LINE
  8
0
 62
     0
 10
995.662940362098
 20
1361.106144106736
 30
0.0
 11
995.662940362098
 21
1361.106144106736
 31
0.0
  0
LINE
  8
0
 62
     0
 10
1023.191401563914
 20
1335.880956934782
 30
0.0
 11
1023.191401563914
 21
1335.880956934782
 31
0.0
  0
LINE
  8
0
 62
     0
 10
993.565565286711
 20
1330.795658728115
 30
0.0
 11
993.565565286711
 21
1330.795658728115
 31
0.0
  0
ENDBLK
  8
0
  0
BLOCK
  8
0
  2
*X19
 70
    65
 10
0.0
 20
0.0
 30
0.0
  3
*X
  0
LINE
  8
0
 62
     0
 10
-6162.30008033859
 20
-3032.364351773261
 30
0.0
 11
-6156.177528356326
 21
-3025.067778452553
 31
0.0
  0
LINE
  8
0
 62
     0
 10
-6088.829456551419
 20
-2944.805471924762
 30
0.0
 11
-6082.706904569154
 21
-2937.508898604054
 31
0.0
  0
LINE
  8
0
 62
     0
 10
-6071.207745840588
 20
-3040.333894542713
 30
0.0
 11
-6065.085193858323
 21
-3033.037321222004
 31
0.0
  0
LINE
  8
0
 62
     0
 10
-5997.737122053417
 20
-2952.775014694214
 30
0.0
 11
-5991.614570071153
 21
-2945.478441373505
 31
0.0
  0
LINE
  8
0
 62
     0
 10
-5980.115411342587
 20
-3048.303437312165
 30
0.0
 11
-5973.992859360322
 21
-3041.006863991456
 31
0.0
  0
LINE
  8
0
 62
     0
 10
-5906.644787555415
 20
-2960.744557463666
 30
0.0
 11
-5900.52223557315
 21
-2953.447984142957
 31
0.0
  0
LINE
  8
0
 62
     0
 10
-5889.023076844584
 20
-3056.272980081616
 30
0.0
 11
-5882.90052486232
 21
-3048.976406760907
 31
0.0
  0
LINE
  8
0
 62
     0
 10
-5815.552453057413
 20
-2968.714100233116
 30
0.0
 11
-5809.429901075149
 21
-2961.417526912408
 31
0.0
  0
LINE
  8
0
 62
     0
 10
-5797.930742346583
 20
-3064.242522851068
 30
0.0
 11
-5791.808190364318
 21
-3056.945949530359
 31
0.0
  0
LINE
  8
0
 62
     0
 10
-5724.46011855941
 20
-2976.683643002569
 30
0.0
 11
-5718.337566577146
 21
-2969.387069681861
 31
0.0
  0
LINE
  8
0
 62
     0
 10
-5702.090581674738
 20
-3066.553826720829
 30
0.0
 11
-5700.715855866316
 21
-3064.915492299811
 31
0.0
  0
LINE
  8
0
 62
     0
 10
-5633.36778406141
 20
-2984.65318577202
 30
0.0
 11
-5627.245232079144
 21
-2977.356612451311
 31
0.0
  0
LINE
  8
0
 62
     0
 10
-5542.275449563406
 20
-2992.622728541471
 30
0.0
 11
-5536.152897581142
 21
-2985.326155220763
 31
0.0
  0
LINE
  8
0
 62
     0
 10
-6253.392414836592
 20
-3024.394809003811
 30
0.0
 11
-6247.269862854328
 21
-3017.098235683102
 31
0.0
  0
LINE
  8
0
 62
     0
 10
-6179.92179104942
 20
-2936.835929155311
 30
0.0
 11
-6173.799239067156
 21
-2929.539355834603
 31
0.0
  0
LINE
  8
0
 62
     0
 10
-6344.484749334594
 20
-3016.425266234358
 30
0.0
 11
-6338.36219735233
 21
-3009.12869291365
 31
0.0
  0
LINE
  8
0
 62
     0
 10
-6271.014125547423
 20
-2928.866386385859
 30
0.0
 11
-6264.891573565158
 21
-2921.569813065151
 31
0.0
  0
LINE
  8
0
 62
     0
 10
-6435.577083832596
 20
-3008.455723464907
 30
0.0
 11
-6429.454531850332
 21
-3001.159150144199
 31
0.0
  0
LINE
  8
0
 62
     0
 10
-6362.106460045425
 20
-2920.896843616408
 30
0.0
 11
-6355.983908063159
 21
-2913.600270295699
 31
0.0
  0
LINE
  8
0
 62
     0
 10
-6526.669418330599
 20
-3000.486180695455
 30
0.0
 11
-6520.546866348333
 21
-2993.189607374747
 31
0.0
  0
LINE
  8
0
 62
     0
 10
-6453.198794543427
 20
-2912.927300846956
 30
0.0
 11
-6447.850814754879
 21
-2906.553826720831
 31
0.0
  0
LINE
  8
0
 62
     0
 10
-6617.7617528286
 20
-2992.516637926004
 30
0.0
 11
-6611.639200846336
 21
-2985.220064605295
 31
0.0
  0
LINE
  8
0
 62
     0
 10
-6708.854087326604
 20
-2984.547095156552
 30
0.0
 11
-6702.731535344338
 21
-2977.250521835844
 31
0.0
  0
LINE
  8
0
 62
     0
 10
-6453.18708854388
 20
-2912.925246206352
 30
0.0
 11
-6445.59608494442
 21
-2913.589372966089
 31
0.0
  0
LINE
  8
0
 62
     0
 10
-6362.09504535037
 20
-2920.894767323198
 30
0.0
 11
-6354.504041750911
 21
-2921.558894082935
 31
0.0
  0
LINE
  8
0
 62
     0
 10
-6271.00300215686
 20
-2928.864288440044
 30
0.0
 11
-6263.411998557402
 21
-2929.528415199781
 31
0.0
  0
LINE
  8
0
 62
     0
 10
-6179.910958963351
 20
-2936.833809556889
 30
0.0
 11
-6172.319955363892
 21
-2937.497936316626
 31
0.0
  0
LINE
  8
0
 62
     0
 10
-6088.818915769842
 20
-2944.803330673734
 30
0.0
 11
-6081.227912170383
 21
-2945.467457433471
 31
0.0
  0
LINE
  8
0
 62
     0
 10
-5997.726872576333
 20
-2952.77285179058
 30
0.0
 11
-5990.135868976874
 21
-2953.436978550317
 31
0.0
  0
LINE
  8
0
 62
     0
 10
-5906.634829382825
 20
-2960.742372907425
 30
0.0
 11
-5899.043825783365
 21
-2961.406499667162
 31
0.0
  0
LINE
  8
0
 62
     0
 10
-5815.542786189316
 20
-2968.711894024271
 30
0.0
 11
-5807.951782589856
 21
-2969.376020784008
 31
0.0
  0
LINE
  8
0
 62
     0
 10
-5724.450742995806
 20
-2976.681415141117
 30
0.0
 11
-5716.859739396347
 21
-2977.345541900854
 31
0.0
  0
LINE
  8
0
 62
     0
 10
-5633.358699802297
 20
-2984.650936257962
 30
0.0
 11
-5625.767696202837
 21
-2985.315063017699
 31
0.0
  0
LINE
  8
0
 62
     0
 10
-5542.266656608787
 20
-2992.620457374807
 30
0.0
 11
-5534.675653009328
 21
-2993.284584134544
 31
0.0
  0
LINE
  8
0
 62
     0
 10
-6708.841805136573
 20
-2984.545004296905
 30
0.0
 11
-6701.250801537114
 21
-2985.209131056642
 31
0.0
  0
LINE
  8
0
 62
     0
 10
-6617.749761943064
 20
-2992.51452541375
 30
0.0
 11
-6610.158758343605
 21
-2993.178652173487
 31
0.0
  0
LINE
  8
0
 62
     0
 10
-6526.657718749555
 20
-3000.484046530596
 30
0.0
 11
-6519.066715150096
 21
-3001.148173290333
 31
0.0
  0
LINE
  8
0
 62
     0
 10
-6435.565675556046
 20
-3008.453567647441
 30
0.0
 11
-6427.974671956586
 21
-3009.117694407178
 31
0.0
  0
LINE
  8
0
 62
     0
 10
-6344.473632362537
 20
-3016.423088764287
 30
0.0
 11
-6336.882628763078
 21
-3017.087215524024
 31
0.0
  0
LINE
  8
0
 62
     0
 10
-6253.381589169028
 20
-3024.392609881132
 30
0.0
 11
-6245.790585569568
 21
-3025.056736640869
 31
0.0
  0
LINE
  8
0
 62
     0
 10
-6162.289545975519
 20
-3032.362130997978
 30
0.0
 11
-6154.698542376059
 21
-3033.026257757715
 31
0.0
  0
LINE
  8
0
 62
     0
 10
-6071.197502782009
 20
-3040.331652114823
 30
0.0
 11
-6063.60649918255
 21
-3040.99577887456
 31
0.0
  0
LINE
  8
0
 62
     0
 10
-5980.1054595885
 20
-3048.301173231669
 30
0.0
 11
-5972.51445598904
 21
-3048.965299991406
 31
0.0
  0
LINE
  8
0
 62
     0
 10
-5889.01341639499
 20
-3056.270694348514
 30
0.0
 11
-5881.422412795531
 21
-3056.934821108252
 31
0.0
  0
LINE
  8
0
 62
     0
 10
-5797.921373201481
 20
-3064.24021546536
 30
0.0
 11
-5790.330369602021
 21
-3064.904342225097
 31
0.0
  0
LINE
  8
0
 62
     0
 10
-6063.625622459585
 20
-3040.956076611137
 30
0.0
 11
-6065.094011489258
 21
-3032.995369440444
 31
0.0
  0
LINE
  8
0
 62
     0
 10
-6081.246290815671
 20
-2945.427590562813
 30
0.0
 11
-6082.714679845344
 21
-2937.46688339212
 31
0.0
  0
LINE
  8
0
 62
     0
 10
-5972.533703270519
 20
-3048.926218749314
 30
0.0
 11
-5974.002092300193
 21
-3040.96551157862
 31
0.0
  0
LINE
  8
0
 62
     0
 10
-5990.154371626605
 20
-2953.39773270099
 30
0.0
 11
-5991.622760656278
 21
-2945.437025530296
 31
0.0
  0
LINE
  8
0
 62
     0
 10
-5881.441784081453
 20
-3056.896360887492
 30
0.0
 11
-5882.910173111127
 21
-3048.935653716799
 31
0.0
  0
LINE
  8
0
 62
     0
 10
-5899.062452437539
 20
-2961.367874839169
 30
0.0
 11
-5900.530841467213
 21
-2953.407167668475
 31
0.0
  0
LINE
  8
0
 62
     0
 10
-5790.349864892388
 20
-3064.86650302567
 30
0.0
 11
-5791.818253922063
 21
-3056.905795854977
 31
0.0
  0
LINE
  8
0
 62
     0
 10
-5807.970533248474
 20
-2969.338016977346
 30
0.0
 11
-5809.438922278148
 21
-2961.377309806652
 31
0.0
  0
LINE
  8
0
 62
     0
 10
-5700.416840444625
 20
-3066.553826720829
 30
0.0
 11
-5700.726334732996
 21
-3064.875937993155
 31
0.0
  0
LINE
  8
0
 62
     0
 10
-5716.878614059409
 20
-2977.308159115525
 30
0.0
 11
-5718.347003089083
 21
-2969.347451944831
 31
0.0
  0
LINE
  8
0
 62
     0
 10
-5625.786694870343
 20
-2985.278301253702
 30
0.0
 11
-5627.255083900016
 21
-2977.317594083008
 31
0.0
  0
LINE
  8
0
 62
     0
 10
-5534.694775681278
 20
-2993.24844339188
 30
0.0
 11
-5536.163164710951
 21
-2985.287736221187
 31
0.0
  0
LINE
  8
0
 62
     0
 10
-6154.71754164865
 20
-3032.985934472958
 30
0.0
 11
-6156.185930678323
 21
-3025.025227302264
 31
0.0
  0
LINE
  8
0
 62
     0
 10
-6172.338210004736
 20
-2937.457448424634
 30
0.0
 11
-6173.806599034409
 21
-2929.49674125394
 31
0.0
  0
LINE
  8
0
 62
     0
 10
-6245.809460837716
 20
-3025.015792334779
 30
0.0
 11
-6247.27784986739
 21
-3017.055085164086
 31
0.0
  0
LINE
  8
0
 62
     0
 10
-6263.430129193801
 20
-2929.487306286456
 30
0.0
 11
-6264.898518223476
 21
-2921.526599115762
 31
0.0
  0
LINE
  8
0
 62
     0
 10
-6336.901380026781
 20
-3017.045650196602
 30
0.0
 11
-6338.369769056455
 21
-3009.084943025909
 31
0.0
  0
LINE
  8
0
 62
     0
 10
-6354.522048382867
 20
-2921.517164148278
 30
0.0
 11
-6355.990437412541
 21
-2913.556456977584
 31
0.0
  0
LINE
  8
0
 62
     0
 10
-6427.993299215846
 20
-3009.075508058424
 30
0.0
 11
-6429.46168824552
 21
-3001.114800887731
 31
0.0
  0
LINE
  8
0
 62
     0
 10
-6445.61396757193
 20
-2913.5470220101
 30
0.0
 11
-6446.903894587829
 21
-2906.553826720831
 31
0.0
  0
LINE
  8
0
 62
     0
 10
-6519.085218404911
 20
-3001.105365920247
 30
0.0
 11
-6520.553607434585
 21
-2993.144658749553
 31
0.0
  0
LINE
  8
0
 62
     0
 10
-6610.177137593979
 20
-2993.135223782068
 30
0.0
 11
-6611.645526623652
 21
-2985.174516611375
 31
0.0
  0
LINE
  8
0
 62
     0
 10
-6701.269056783043
 20
-2985.165081643889
 30
0.0
 11
-6702.737445812716
 21
-2977.204374473195
 31
0.0
  0
LINE
  8
0
 62
     0
 10
-6034.448285961832
 20
-3018.142464785451
 30
0.0
 11
-6024.556447042068
 21
-3007.833042927973
 31
0.0
  0
LINE
  8
0
 62
     0
 10
-5898.908765515766
 20
-3039.163628751815
 30
0.0
 11
-5889.016926596004
 21
-3028.854206894337
 31
0.0
  0
LINE
  8
0
 62
     0
 10
-5780.206698478605
 20
-2915.450566462075
 30
0.0
 11
-5771.670321012625
 21
-2906.553826720831
 31
0.0
  0
LINE
  8
0
 62
     0
 10
-5763.369245069702
 20
-3060.184792718179
 30
0.0
 11
-5753.477406149938
 21
-3049.8753708607
 31
0.0
  0
LINE
  8
0
 62
     0
 10
-5644.667178032539
 20
-2936.471730428439
 30
0.0
 11
-5634.775339112776
 21
-2926.16230857096
 31
0.0
  0
LINE
  8
0
 62
     0
 10
-6169.987806407896
 20
-2997.121300819088
 30
0.0
 11
-6160.095967488133
 21
-2986.81187896161
 31
0.0
  0
LINE
  8
0
 62
     0
 10
-6305.527326853962
 20
-2976.100136852725
 30
0.0
 11
-6295.635487934198
 21
-2965.790714995246
 31
0.0
  0
LINE
  8
0
 62
     0
 10
-6441.066847300026
 20
-2955.07897288636
 30
0.0
 11
-6431.175008380263
 21
-2944.769551028882
 31
0.0
  0
LINE
  8
0
 62
     0
 10
-6695.308434783254
 20
-3057.770871209738
 30
0.0
 11
-6685.416595863491
 21
-3047.461449352259
 31
0.0
  0
LINE
  8
0
 62
     0
 10
-6576.606367746092
 20
-2934.057808919997
 30
0.0
 11
-6566.714528826328
 21
-2923.748387062519
 31
0.0
  0
LINE
  8
0
 62
     0
 10
-6712.145888192156
 20
-2913.036644953633
 30
0.0
 11
-6705.92565638949
 21
-2906.553826720831
 31
0.0
  0
LINE
  8
0
 62
     0
 10
-6023.155157353762
 20
-3019.886853437804
 30
0.0
 11
-6024.558276021113
 21
-3007.825694113124
 31
0.0
  0
LINE
  8
0
 62
     0
 10
-5887.615616112441
 20
-3040.907987388949
 30
0.0
 11
-5889.018734779791
 21
-3028.846828064268
 31
0.0
  0
LINE
  8
0
 62
     0
 10
-5752.076074871118
 20
-3061.929121340094
 30
0.0
 11
-5753.479193538468
 21
-3049.867962015412
 31
0.0
  0
LINE
  8
0
 62
     0
 10
-5768.913498879322
 20
-2917.195209443925
 30
0.0
 11
-5770.151449754793
 21
-2906.553826720831
 31
0.0
  0
LINE
  8
0
 62
     0
 10
-5633.373957637999
 20
-2938.216343395069
 30
0.0
 11
-5634.77707630535
 21
-2926.155184070388
 31
0.0
  0
LINE
  8
0
 62
     0
 10
-6158.694698595085
 20
-2998.86571948666
 30
0.0
 11
-6160.097817262434
 21
-2986.804560161979
 31
0.0
  0
LINE
  8
0
 62
     0
 10
-6294.234239836407
 20
-2977.844585535516
 30
0.0
 11
-6295.637358503758
 21
-2965.783426210835
 31
0.0
  0
LINE
  8
0
 62
     0
 10
-6429.773781077728
 20
-2956.823451584372
 30
0.0
 11
-6431.176899745078
 21
-2944.762292259691
 31
0.0
  0
LINE
  8
0
 62
     0
 10
-6565.313322319052
 20
-2935.802317633228
 30
0.0
 11
-6566.716440986402
 21
-2923.741158308547
 31
0.0
  0
LINE
  8
0
 62
     0
 10
-6684.01543955217
 20
-3059.515095578253
 30
0.0
 11
-6685.418558219519
 21
-3047.453936253571
 31
0.0
  0
LINE
  8
0
 62
     0
 10
-6700.852863560371
 20
-2914.781183682084
 30
0.0
 11
-6701.809982011802
 21
-2906.553826720831
 31
0.0
  0
LINE
  8
0
 62
     0
 10
-5780.213434786824
 20
-2915.432720948682
 30
0.0
 11
-5768.91847313639
 21
-2917.184503273986
 31
0.0
  0
LINE
  8
0
 62
     0
 10
-5644.673894981628
 20
-2936.454108852334
 30
0.0
 11
-5633.378933331194
 21
-2938.205891177638
 31
0.0
  0
LINE
  8
0
 62
     0
 10
-6712.152976524962
 20
-2913.016952457068
 30
0.0
 11
-6700.858014874531
 21
-2914.768734782372
 31
0.0
  0
LINE
  8
0
 62
     0
 10
-6576.613436719768
 20
-2934.03834036072
 30
0.0
 11
-6565.318475069335
 21
-2935.790122686024
 31
0.0
  0
LINE
  8
0
 62
     0
 10
-6441.073896914573
 20
-2955.059728264372
 30
0.0
 11
-6429.778935264139
 21
-2956.811510589676
 31
0.0
  0
LINE
  8
0
 62
     0
 10
-6305.534357109378
 20
-2976.081116168024
 30
0.0
 11
-6294.239395458945
 21
-2977.832898493328
 31
0.0
  0
LINE
  8
0
 62
     0
 10
-6169.994817304183
 20
-2997.102504071675
 30
0.0
 11
-6158.69985565375
 21
-2998.85428639698
 31
0.0
  0
LINE
  8
0
 62
     0
 10
-6034.455277498988
 20
-3018.123891975327
 30
0.0
 11
-6023.160315848555
 21
-3019.875674300632
 31
0.0
  0
LINE
  8
0
 62
     0
 10
-5898.915737693792
 20
-3039.145279878979
 30
0.0
 11
-5887.62077604336
 21
-3040.897062204284
 31
0.0
  0
LINE
  8
0
 62
     0
 10
-5763.376197888598
 20
-3060.166667782632
 30
0.0
 11
-5752.081236238165
 21
-3061.918450107935
 31
0.0
  0
LINE
  8
0
 62
     0
 10
-6695.315739626735
 20
-3057.750899291019
 30
0.0
 11
-6684.020777976303
 21
-3059.502681616324
 31
0.0
  0
LINE
  8
0
 62
     0
 10
-6316.876259319429
 20
-3052.506755213859
 30
0.0
 11
-6307.983905757042
 21
-3049.09330049444
 31
0.0
  0
LINE
  8
0
 62
     0
 10
-6210.168016570798
 20
-3011.545298580831
 30
0.0
 11
-6201.275663008412
 21
-3008.131843861412
 31
0.0
  0
LINE
  8
0
 62
     0
 10
-6103.459773822168
 20
-2970.583841947803
 30
0.0
 11
-6094.567420259783
 21
-2967.170387228384
 31
0.0
  0
LINE
  8
0
 62
     0
 10
-5996.751531073538
 20
-2929.622385314775
 30
0.0
 11
-5987.859177511151
 21
-2926.208930595356
 31
0.0
  0
LINE
  8
0
 62
     0
 10
-6134.360576653107
 20
-3062.678057839212
 30
0.0
 11
-6125.468223090721
 21
-3059.264603119793
 31
0.0
  0
LINE
  8
0
 62
     0
 10
-6027.652333904478
 20
-3021.716601206184
 30
0.0
 11
-6018.759980342091
 21
-3018.303146486765
 31
0.0
  0
LINE
  8
0
 62
     0
 10
-5920.944091155846
 20
-2980.755144573156
 30
0.0
 11
-5912.05173759346
 21
-2977.341689853737
 31
0.0
  0
LINE
  8
0
 62
     0
 10
-5814.235848407216
 20
-2939.793687940128
 30
0.0
 11
-5805.34349484483
 21
-2936.38023322071
 31
0.0
  0
LINE
  8
0
 62
     0
 10
-5845.136651238155
 20
-3031.887903831538
 30
0.0
 11
-5836.244297675769
 21
-3028.474449112119
 31
0.0
  0
LINE
  8
0
 62
     0
 10
-5738.428408489524
 20
-2990.92644719851
 30
0.0
 11
-5729.536054927138
 21
-2987.512992479091
 31
0.0
  0
LINE
  8
0
 62
     0
 10
-5631.720165740894
 20
-2949.964990565482
 30
0.0
 11
-5622.827812178508
 21
-2946.551535846063
 31
0.0
  0
LINE
  8
0
 62
     0
 10
-5662.620968571833
 20
-3042.059206456891
 30
0.0
 11
-5653.728615009447
 21
-3038.645751737472
 31
0.0
  0
LINE
  8
0
 62
     0
 10
-5555.912725823203
 20
-3001.097749823863
 30
0.0
 11
-5547.020372260817
 21
-2997.684295104443
 31
0.0
  0
LINE
  8
0
 62
     0
 10
-6499.391941985751
 20
-3042.335452588505
 30
0.0
 11
-6490.499588423365
 21
-3038.921997869087
 31
0.0
  0
LINE
  8
0
 62
     0
 10
-6392.683699237121
 20
-3001.373995955477
 30
0.0
 11
-6383.791345674734
 21
-2997.960541236059
 31
0.0
  0
LINE
  8
0
 62
     0
 10
-6285.975456488491
 20
-2960.412539322449
 30
0.0
 11
-6277.083102926105
 21
-2956.99908460303
 31
0.0
  0
LINE
  8
0
 62
     0
 10
-6179.26721373986
 20
-2919.451082689422
 30
0.0
 11
-6170.374860177474
 21
-2916.037627970003
 31
0.0
  0
LINE
  8
0
 62
     0
 10
-6681.907624652072
 20
-3032.164149963151
 30
0.0
 11
-6673.015271089686
 21
-3028.750695243733
 31
0.0
  0
LINE
  8
0
 62
     0
 10
-6575.199381903442
 20
-2991.202693330123
 30
0.0
 11
-6566.307028341055
 21
-2987.789238610705
 31
0.0
  0
LINE
  8
0
 62
     0
 10
-6468.491139154811
 20
-2950.241236697096
 30
0.0
 11
-6459.598785592424
 21
-2946.827781977677
 31
0.0
  0
LINE
  8
0
 62
     0
 10
-6361.782896406181
 20
-2909.279780064068
 30
0.0
 11
-6354.681545160848
 21
-2906.553826720831
 31
0.0
  0
LINE
  8
0
 62
     0
 10
-6651.006821821134
 20
-2940.069934071742
 30
0.0
 11
-6642.114468258747
 21
-2936.656479352324
 31
0.0
  0
LINE
  8
0
 62
     0
 10
-6179.266848479132
 20
-2919.445383624615
 30
0.0
 11
-6172.949582176262
 21
-2923.706433549062
 31
0.0
  0
LINE
  8
0
 62
     0
 10
-6103.459652844699
 20
-2970.57798271798
 30
0.0
 11
-6097.14238654183
 21
-2974.839032642427
 31
0.0
  0
LINE
  8
0
 62
     0
 10
-6027.652457210266
 20
-3021.710581811345
 30
0.0
 11
-6021.335190907397
 21
-3025.971631735792
 31
0.0
  0
LINE
  8
0
 62
     0
 10
-5996.751443036442
 20
-2929.616598750186
 30
0.0
 11
-5990.434176733574
 21
-2933.877648674633
 31
0.0
  0
LINE
  8
0
 62
     0
 10
-5920.944247402009
 20
-2980.749197843551
 30
0.0
 11
-5914.62698109914
 21
-2985.010247767998
 31
0.0
  0
LINE
  8
0
 62
     0
 10
-5845.137051767577
 20
-3031.881796936916
 30
0.0
 11
-5838.819785464708
 21
-3036.142846861363
 31
0.0
  0
LINE
  8
0
 62
     0
 10
-5814.236037593752
 20
-2939.787813875756
 30
0.0
 11
-5807.918771290883
 21
-2944.048863800203
 31
0.0
  0
LINE
  8
0
 62
     0
 10
-5738.428841959319
 20
-2990.920412969121
 30
0.0
 11
-5732.111575656451
 21
-2995.181462893568
 31
0.0
  0
LINE
  8
0
 62
     0
 10
-5662.621646324887
 20
-3042.053012062487
 30
0.0
 11
-5656.304380022017
 21
-3046.314061986933
 31
0.0
  0
LINE
  8
0
 62
     0
 10
-5631.720632151063
 20
-2949.959029001327
 30
0.0
 11
-5625.403365848193
 21
-2954.220078925774
 31
0.0
  0
LINE
  8
0
 62
     0
 10
-5555.91343651663
 20
-3001.091628094692
 30
0.0
 11
-5549.596170213761
 21
-3005.352678019139
 31
0.0
  0
LINE
  8
0
 62
     0
 10
-6361.782253921821
 20
-2909.274168499044
 30
0.0
 11
-6355.464987618952
 21
-2913.535218423491
 31
0.0
  0
LINE
  8
0
 62
     0
 10
-6285.975058287388
 20
-2960.406767592409
 30
0.0
 11
-6279.65779198452
 21
-2964.667817516856
 31
0.0
  0
LINE
  8
0
 62
     0
 10
-6210.167862652956
 20
-3011.539366685774
 30
0.0
 11
-6203.850596350087
 21
-3015.800416610221
 31
0.0
  0
LINE
  8
0
 62
     0
 10
-6134.360667018523
 20
-3062.671965779139
 30
0.0
 11
-6128.60557150118
 21
-3066.553826720829
 31
0.0
  0
LINE
  8
0
 62
     0
 10
-6468.490463730078
 20
-2950.235552466839
 30
0.0
 11
-6462.173197427209
 21
-2954.496602391286
 31
0.0
  0
LINE
  8
0
 62
     0
 10
-6392.683268095646
 20
-3001.368151560204
 30
0.0
 11
-6386.366001792776
 21
-3005.629201484651
 31
0.0
  0
LINE
  8
0
 62
     0
 10
-6316.876072461212
 20
-3052.500750653569
 30
0.0
 11
-6310.558806158343
 21
-3056.761800578016
 31
0.0
  0
LINE
  8
0
 62
     0
 10
-6651.005869172768
 20
-2940.064337341269
 30
0.0
 11
-6644.688602869899
 21
-2944.325387265715
 31
0.0
  0
LINE
  8
0
 62
     0
 10
-6575.198673538335
 20
-2991.196936434634
 30
0.0
 11
-6568.881407235466
 21
-2995.457986359081
 31
0.0
  0
LINE
  8
0
 62
     0
 10
-6499.391477903903
 20
-3042.329535527999
 30
0.0
 11
-6493.074211601033
 21
-3046.590585452446
 31
0.0
  0
LINE
  8
0
 62
     0
 10
-6681.906883346591
 20
-3032.158320402428
 30
0.0
 11
-6675.589617043724
 21
-3036.419370326875
 31
0.0
  0
LINE
  8
0
 62
     0
 10
-6127.918109837787
 20
-3066.553826720829
 30
0.0
 11
-6125.471075109854
 21
-3059.260974532777
 31
0.0
  0
LINE
  8
0
 62
     0
 10
-6097.145064658961
 20
-2974.84149125471
 30
0.0
 11
-6094.569972799788
 21
-2967.166992774886
 31
0.0
  0
LINE
  8
0
 62
     0
 10
-6021.337921583964
 20
-3025.974044154573
 30
0.0
 11
-6018.762829724792
 21
-3018.299545674749
 31
0.0
  0
LINE
  8
0
 62
     0
 10
-5990.436819273897
 20
-2933.880062396682
 30
0.0
 11
-5987.861727414725
 21
-2926.205563916857
 31
0.0
  0
LINE
  8
0
 62
     0
 10
-5914.629676198901
 20
-2985.012615296544
 30
0.0
 11
-5912.054584339729
 21
-2977.338116816719
 31
0.0
  0
LINE
  8
0
 62
     0
 10
-5838.822533123907
 20
-3036.145168196406
 30
0.0
 11
-5836.247441264735
 21
-3028.470669716582
 31
0.0
  0
LINE
  8
0
 62
     0
 10
-5807.92143081384
 20
-2944.051186438516
 30
0.0
 11
-5805.346338954668
 21
-2936.376687958691
 31
0.0
  0
LINE
  8
0
 62
     0
 10
-5732.114287738845
 20
-2995.183739338378
 30
0.0
 11
-5729.539195879673
 21
-2987.509240858553
 31
0.0
  0
LINE
  8
0
 62
     0
 10
-5656.307144663849
 20
-3046.31629223824
 30
0.0
 11
-5653.732052804678
 21
-3038.641793758416
 31
0.0
  0
LINE
  8
0
 62
     0
 10
-5625.406042353783
 20
-2954.222310480349
 30
0.0
 11
-5622.830950494611
 21
-2946.547812000524
 31
0.0
  0
LINE
  8
0
 62
     0
 10
-5549.598899278787
 20
-3005.354863380211
 30
0.0
 11
-5547.023807419614
 21
-2997.680364900387
 31
0.0
  0
LINE
  8
0
 62
     0
 10
-6203.853310044022
 20
-3015.802920112739
 30
0.0
 11
-6201.27821818485
 21
-3008.128421632915
 31
0.0
  0
LINE
  8
0
 62
     0
 10
-6172.952207733955
 20
-2923.708938354848
 30
0.0
 11
-6170.377115874783
 21
-2916.034439875024
 31
0.0
  0
LINE
  8
0
 62
     0
 10
-6310.561555429083
 20
-3056.764348970768
 30
0.0
 11
-6307.986463569911
 21
-3049.089850490944
 31
0.0
  0
LINE
  8
0
 62
     0
 10
-6279.660453119017
 20
-2964.670367212877
 30
0.0
 11
-6277.085361259845
 21
-2956.995868733053
 31
0.0
  0
LINE
  8
0
 62
     0
 10
-6386.368698504079
 20
-3005.631796070906
 30
0.0
 11
-6383.793606644907
 21
-2997.957297591082
 31
0.0
  0
LINE
  8
0
 62
     0
 10
-6355.467596194012
 20
-2913.537814313015
 30
0.0
 11
-6353.124197515847
 21
-2906.553826720831
 31
0.0
  0
LINE
  8
0
 62
     0
 10
-6493.076943889141
 20
-3046.593224928934
 30
0.0
 11
-6490.501852029969
 21
-3038.91872644911
 31
0.0
  0
LINE
  8
0
 62
     0
 10
-6462.175841579075
 20
-2954.499243171043
 30
0.0
 11
-6459.600749719902
 21
-2946.824744691219
 31
0.0
  0
LINE
  8
0
 62
     0
 10
-6568.884086964136
 20
-2995.460672029072
 30
0.0
 11
-6566.308995104964
 21
-2987.786173549248
 31
0.0
  0
LINE
  8
0
 62
     0
 10
-6675.592332349197
 20
-3036.422100887101
 30
0.0
 11
-6673.017240490025
 21
-3028.747602407277
 31
0.0
  0
LINE
  8
0
 62
     0
 10
-6644.691230039131
 20
-2944.32811912921
 30
0.0
 11
-6642.116138179958
 21
-2936.653620649385
 31
0.0
  0
LINE
  8
0
 62
     0
 10
-6135.134637254792
 20
-3022.860442051914
 30
0.0
 11
-6135.134637254792
 21
-3022.860442051914
 31
0.0
  0
LINE
  8
0
 62
     0
 10
-6069.441807265318
 20
-2972.452560684276
 30
0.0
 11
-6069.441807265318
 21
-2972.452560684276
 31
0.0
  0
LINE
  8
0
 62
     0
 10
-6001.935371539936
 20
-2920.653050689924
 30
0.0
 11
-6001.935371539936
 21
-2920.653050689924
 31
0.0
  0
LINE
  8
0
 62
     0
 10
-6200.34110229825
 20
-3031.802587348558
 30
0.0
 11
-6200.34110229825
 21
-3031.802587348558
 31
0.0
  0
LINE
  8
0
 62
     0
 10
-6133.590335629496
 20
-2980.582922615337
 30
0.0
 11
-6133.590335629496
 21
-2980.582922615337
 31
0.0
  0
LINE
  8
0
 62
     0
 10
-6067.897505640021
 20
-2930.175041247699
 30
0.0
 11
-6067.897505640021
 21
-2930.175041247699
 31
0.0
  0
LINE
  8
0
 62
     0
 10
-6266.303236398336
 20
-3041.324577906334
 30
0.0
 11
-6266.303236398336
 21
-3041.324577906334
 31
0.0
  0
LINE
  8
0
 62
     0
 10
-6198.796800672955
 20
-2989.525067911982
 30
0.0
 11
-6198.796800672955
 21
-2989.525067911982
 31
0.0
  0
LINE
  8
0
 62
     0
 10
-6132.046034004202
 20
-2938.305403178761
 30
0.0
 11
-6132.046034004202
 21
-2938.305403178761
 31
0.0
  0
LINE
  8
0
 62
     0
 10
-6330.451764762515
 20
-3049.454939837395
 30
0.0
 11
-6330.451764762515
 21
-3049.454939837395
 31
0.0
  0
LINE
  8
0
 62
     0
 10
-6264.75893477304
 20
-2999.047058469757
 30
0.0
 11
-6264.75893477304
 21
-2999.047058469757
 31
0.0
  0
LINE
  8
0
 62
     0
 10
-6197.252499047658
 20
-2947.247548475405
 30
0.0
 11
-6197.252499047658
 21
-2947.247548475405
 31
0.0
  0
LINE
  8
0
 62
     0
 10
-6395.658229805972
 20
-3058.39708513404
 30
0.0
 11
-6395.658229805972
 21
-3058.39708513404
 31
0.0
  0
LINE
  8
0
 62
     0
 10
-6328.907463137219
 20
-3007.177420400819
 30
0.0
 11
-6328.907463137219
 21
-3007.177420400819
 31
0.0
  0
LINE
  8
0
 62
     0
 10
-6263.214633147744
 20
-2956.769539033181
 30
0.0
 11
-6263.214633147744
 21
-2956.769539033181
 31
0.0
  0
LINE
  8
0
 62
     0
 10
-6394.113928180677
 20
-3016.119565697464
 30
0.0
 11
-6394.113928180677
 21
-3016.119565697464
 31
0.0
  0
LINE
  8
0
 62
     0
 10
-6327.363161511923
 20
-2964.899900964243
 30
0.0
 11
-6327.363161511923
 21
-2964.899900964243
 31
0.0
  0
LINE
  8
0
 62
     0
 10
-6261.670331522449
 20
-2914.492019596604
 30
0.0
 11
-6261.670331522449
 21
-2914.492019596604
 31
0.0
  0
LINE
  8
0
 62
     0
 10
-6460.07606228076
 20
-3025.641556255239
 30
0.0
 11
-6460.07606228076
 21
-3025.641556255239
 31
0.0
  0
LINE
  8
0
 62
     0
 10
-6392.569626555379
 20
-2973.842046260886
 30
0.0
 11
-6392.569626555379
 21
-2973.842046260886
 31
0.0
  0
LINE
  8
0
 62
     0
 10
-6325.818859886626
 20
-2922.622381527665
 30
0.0
 11
-6325.818859886626
 21
-2922.622381527665
 31
0.0
  0
LINE
  8
0
 62
     0
 10
-6524.224590644942
 20
-3033.771918186301
 30
0.0
 11
-6524.224590644942
 21
-3033.771918186301
 31
0.0
  0
LINE
  8
0
 62
     0
 10
-6458.531760655466
 20
-2983.364036818663
 30
0.0
 11
-6458.531760655466
 21
-2983.364036818663
 31
0.0
  0
LINE
  8
0
 62
     0
 10
-6391.025324930085
 20
-2931.564526824311
 30
0.0
 11
-6391.025324930085
 21
-2931.564526824311
 31
0.0
  0
LINE
  8
0
 62
     0
 10
-6589.431055688399
 20
-3042.714063482944
 30
0.0
 11
-6589.431055688399
 21
-3042.714063482944
 31
0.0
  0
LINE
  8
0
 62
     0
 10
-6522.680289019644
 20
-2991.494398749723
 30
0.0
 11
-6522.680289019644
 21
-2991.494398749723
 31
0.0
  0
LINE
  8
0
 62
     0
 10
-6456.987459030171
 20
-2941.086517382085
 30
0.0
 11
-6456.987459030171
 21
-2941.086517382085
 31
0.0
  0
LINE
  8
0
 62
     0
 10
-6655.393189788486
 20
-3052.236054040721
 30
0.0
 11
-6655.393189788486
 21
-3052.236054040721
 31
0.0
  0
LINE
  8
0
 62
     0
 10
-6587.886754063104
 20
-3000.436544046369
 30
0.0
 11
-6587.886754063104
 21
-3000.436544046369
 31
0.0
  0
LINE
  8
0
 62
     0
 10
-6521.135987394352
 20
-2949.216879313148
 30
0.0
 11
-6521.135987394352
 21
-2949.216879313148
 31
0.0
  0
LINE
  8
0
 62
     0
 10
-6719.541718152664
 20
-3060.366415971783
 30
0.0
 11
-6719.541718152664
 21
-3060.366415971783
 31
0.0
  0
LINE
  8
0
 62
     0
 10
-6653.848888163189
 20
-3009.958534604145
 30
0.0
 11
-6653.848888163189
 21
-3009.958534604145
 31
0.0
  0
LINE
  8
0
 62
     0
 10
-6586.342452437809
 20
-2958.159024609793
 30
0.0
 11
-6586.342452437809
 21
-2958.159024609793
 31
0.0
  0
LINE
  8
0
 62
     0
 10
-6519.591685769055
 20
-2906.939359876572
 30
0.0
 11
-6519.591685769055
 21
-2906.939359876572
 31
0.0
  0
LINE
  8
0
 62
     0
 10
-6717.997416527368
 20
-3018.088896535205
 30
0.0
 11
-6717.997416527368
 21
-3018.088896535205
 31
0.0
  0
LINE
  8
0
 62
     0
 10
-6652.304586537894
 20
-2967.681015167567
 30
0.0
 11
-6652.304586537894
 21
-2967.681015167567
 31
0.0
  0
LINE
  8
0
 62
     0
 10
-6584.798150812512
 20
-2915.881505173215
 30
0.0
 11
-6584.798150812512
 21
-2915.881505173215
 31
0.0
  0
LINE
  8
0
 62
     0
 10
-6716.453114902073
 20
-2975.811377098629
 30
0.0
 11
-6716.453114902073
 21
-2975.811377098629
 31
0.0
  0
LINE
  8
0
 62
     0
 10
-6650.760284912598
 20
-2925.403495730991
 30
0.0
 11
-6650.760284912598
 21
-2925.403495730991
 31
0.0
  0
LINE
  8
0
 62
     0
 10
-6714.908813276776
 20
-2933.533857662052
 30
0.0
 11
-6714.908813276776
 21
-2933.533857662052
 31
0.0
  0
LINE
  8
0
 62
     0
 10
-6136.678938880089
 20
-3065.13796148849
 30
0.0
 11
-6136.678938880089
 21
-3065.13796148849
 31
0.0
  0
LINE
  8
0
 62
     0
 10
-6070.986108890612
 20
-3014.730080120852
 30
0.0
 11
-6070.986108890612
 21
-3014.730080120852
 31
0.0
  0
LINE
  8
0
 62
     0
 10
-6003.479673165231
 20
-2962.9305701265
 30
0.0
 11
-6003.479673165231
 21
-2962.9305701265
 31
0.0
  0
LINE
  8
0
 62
     0
 10
-5936.728906496478
 20
-2911.710905393279
 30
0.0
 11
-5936.728906496478
 21
-2911.710905393279
 31
0.0
  0
LINE
  8
0
 62
     0
 10
-6072.530410515908
 20
-3057.007599557429
 30
0.0
 11
-6072.530410515908
 21
-3057.007599557429
 31
0.0
  0
LINE
  8
0
 62
     0
 10
-6005.023974790527
 20
-3005.208089563077
 30
0.0
 11
-6005.023974790527
 21
-3005.208089563077
 31
0.0
  0
LINE
  8
0
 62
     0
 10
-5938.273208121774
 20
-2953.988424829855
 30
0.0
 11
-5938.273208121774
 21
-2953.988424829855
 31
0.0
  0
LINE
  8
0
 62
     0
 10
-6006.568276415823
 20
-3047.485608999653
 30
0.0
 11
-6006.568276415823
 21
-3047.485608999653
 31
0.0
  0
LINE
  8
0
 62
     0
 10
-5939.81750974707
 20
-2996.265944266432
 30
0.0
 11
-5939.81750974707
 21
-2996.265944266432
 31
0.0
  0
LINE
  8
0
 62
     0
 10
-5874.124679757594
 20
-2945.858062898794
 30
0.0
 11
-5874.124679757594
 21
-2945.858062898794
 31
0.0
  0
LINE
  8
0
 62
     0
 10
-5941.361811372365
 20
-3038.543463703009
 30
0.0
 11
-5941.361811372365
 21
-3038.543463703009
 31
0.0
  0
LINE
  8
0
 62
     0
 10
-5875.66898138289
 20
-2988.13558233537
 30
0.0
 11
-5875.66898138289
 21
-2988.13558233537
 31
0.0
  0
LINE
  8
0
 62
     0
 10
-5808.162545657508
 20
-2936.336072341018
 30
0.0
 11
-5808.162545657508
 21
-2936.336072341018
 31
0.0
  0
LINE
  8
0
 62
     0
 10
-5877.213283008186
 20
-3030.413101771947
 30
0.0
 11
-5877.213283008186
 21
-3030.413101771947
 31
0.0
  0
LINE
  8
0
 62
     0
 10
-5809.706847282805
 20
-2978.613591777595
 30
0.0
 11
-5809.706847282805
 21
-2978.613591777595
 31
0.0
  0
LINE
  8
0
 62
     0
 10
-5742.95608061405
 20
-2927.393927044374
 30
0.0
 11
-5742.95608061405
 21
-2927.393927044374
 31
0.0
  0
LINE
  8
0
 62
     0
 10
-5811.251148908099
 20
-3020.891111214171
 30
0.0
 11
-5811.251148908099
 21
-3020.891111214171
 31
0.0
  0
LINE
  8
0
 62
     0
 10
-5744.500382239347
 20
-2969.67144648095
 30
0.0
 11
-5744.500382239347
 21
-2969.67144648095
 31
0.0
  0
LINE
  8
0
 62
     0
 10
-5678.807552249871
 20
-2919.263565113312
 30
0.0
 11
-5678.807552249871
 21
-2919.263565113312
 31
0.0
  0
LINE
  8
0
 62
     0
 10
-5812.795450533396
 20
-3063.168630650748
 30
0.0
 11
-5812.795450533396
 21
-3063.168630650748
 31
0.0
  0
LINE
  8
0
 62
     0
 10
-5746.044683864643
 20
-3011.948965917527
 30
0.0
 11
-5746.044683864643
 21
-3011.948965917527
 31
0.0
  0
LINE
  8
0
 62
     0
 10
-5680.351853875167
 20
-2961.541084549888
 30
0.0
 11
-5680.351853875167
 21
-2961.541084549888
 31
0.0
  0
LINE
  8
0
 62
     0
 10
-5612.845418149786
 20
-2909.741574555536
 30
0.0
 11
-5612.845418149786
 21
-2909.741574555536
 31
0.0
  0
LINE
  8
0
 62
     0
 10
-5747.588985489938
 20
-3054.226485354103
 30
0.0
 11
-5747.588985489938
 21
-3054.226485354103
 31
0.0
  0
LINE
  8
0
 62
     0
 10
-5681.896155500464
 20
-3003.818603986465
 30
0.0
 11
-5681.896155500464
 21
-3003.818603986465
 31
0.0
  0
LINE
  8
0
 62
     0
 10
-5614.389719775082
 20
-2952.019093992113
 30
0.0
 11
-5614.389719775082
 21
-2952.019093992113
 31
0.0
  0
LINE
  8
0
 62
     0
 10
-5683.440457125758
 20
-3046.096123423042
 30
0.0
 11
-5683.440457125758
 21
-3046.096123423042
 31
0.0
  0
LINE
  8
0
 62
     0
 10
-5615.934021400377
 20
-2994.29661342869
 30
0.0
 11
-5615.934021400377
 21
-2994.29661342869
 31
0.0
  0
LINE
  8
0
 62
     0
 10
-5549.183254731624
 20
-2943.076948695469
 30
0.0
 11
-5549.183254731624
 21
-2943.076948695469
 31
0.0
  0
LINE
  8
0
 62
     0
 10
-5617.478323025673
 20
-3036.574132865267
 30
0.0
 11
-5617.478323025673
 21
-3036.574132865267
 31
0.0
  0
LINE
  8
0
 62
     0
 10
-5550.72755635692
 20
-2985.354468132046
 30
0.0
 11
-5550.72755635692
 21
-2985.354468132046
 31
0.0
  0
LINE
  8
0
 62
     0
 10
-5552.271857982216
 20
-3027.631987568621
 30
0.0
 11
-5552.271857982216
 21
-3027.631987568621
 31
0.0
  0
LINE
  8
0
 62
     0
 10
-6725.223609070646
 20
-3032.907069944106
 30
0.0
 11
-6725.223609070646
 21
-3032.907069944106
 31
0.0
  0
LINE
  8
0
 62
     0
 10
-6693.430450978541
 20
-3028.721421275089
 30
0.0
 11
-6693.430450978541
 21
-3028.721421275089
 31
0.0
  0
LINE
  8
0
 62
     0
 10
-6645.331494973852
 20
-3022.389073585726
 30
0.0
 11
-6645.331494973852
 21
-3022.389073585726
 31
0.0
  0
LINE
  8
0
 62
     0
 10
-6565.124597133573
 20
-3011.829635161316
 30
0.0
 11
-6565.124597133573
 21
-3011.829635161316
 31
0.0
  0
LINE
  8
0
 62
     0
 10
-6533.331439041468
 20
-3007.643986492299
 30
0.0
 11
-6533.331439041468
 21
-3007.643986492299
 31
0.0
  0
LINE
  8
0
 62
     0
 10
-6485.232483036779
 20
-3001.311638802936
 30
0.0
 11
-6485.232483036779
 21
-3001.311638802936
 31
0.0
  0
LINE
  8
0
 62
     0
 10
-6405.0255851965
 20
-2990.752200378526
 30
0.0
 11
-6405.0255851965
 21
-2990.752200378526
 31
0.0
  0
LINE
  8
0
 62
     0
 10
-6373.232427104395
 20
-2986.566551709509
 30
0.0
 11
-6373.232427104395
 21
-2986.566551709509
 31
0.0
  0
LINE
  8
0
 62
     0
 10
-6325.133471099705
 20
-2980.234204020146
 30
0.0
 11
-6325.133471099705
 21
-2980.234204020146
 31
0.0
  0
LINE
  8
0
 62
     0
 10
-6244.926573259426
 20
-2969.674765595735
 30
0.0
 11
-6244.926573259426
 21
-2969.674765595735
 31
0.0
  0
LINE
  8
0
 62
     0
 10
-6213.13341516732
 20
-2965.489116926719
 30
0.0
 11
-6213.13341516732
 21
-2965.489116926719
 31
0.0
  0
LINE
  8
0
 62
     0
 10
-6165.034459162631
 20
-2959.156769237356
 30
0.0
 11
-6165.034459162631
 21
-2959.156769237356
 31
0.0
  0
LINE
  8
0
 62
     0
 10
-6084.827561322352
 20
-2948.597330812946
 30
0.0
 11
-6084.827561322352
 21
-2948.597330812946
 31
0.0
  0
LINE
  8
0
 62
     0
 10
-6053.034403230247
 20
-2944.411682143929
 30
0.0
 11
-6053.034403230247
 21
-2944.411682143929
 31
0.0
  0
LINE
  8
0
 62
     0
 10
-6004.935447225558
 20
-2938.079334454565
 30
0.0
 11
-6004.935447225558
 21
-2938.079334454565
 31
0.0
  0
LINE
  8
0
 62
     0
 10
-5924.728549385279
 20
-2927.519896030156
 30
0.0
 11
-5924.728549385279
 21
-2927.519896030156
 31
0.0
  0
LINE
  8
0
 62
     0
 10
-5892.935391293174
 20
-2923.334247361139
 30
0.0
 11
-5892.935391293174
 21
-2923.334247361139
 31
0.0
  0
LINE
  8
0
 62
     0
 10
-5844.836435288485
 20
-2917.001899671776
 30
0.0
 11
-5844.836435288485
 21
-2917.001899671776
 31
0.0
  0
LINE
  8
0
 62
     0
 10
-6691.813777815494
 20
-2982.816782535046
 30
0.0
 11
-6691.813777815494
 21
-2982.816782535046
 31
0.0
  0
LINE
  8
0
 62
     0
 10
-6660.020619723388
 20
-2978.631133866029
 30
0.0
 11
-6660.020619723388
 21
-2978.631133866029
 31
0.0
  0
LINE
  8
0
 62
     0
 10
-6611.921663718699
 20
-2972.298786176666
 30
0.0
 11
-6611.921663718699
 21
-2972.298786176666
 31
0.0
  0
LINE
  8
0
 62
     0
 10
-6531.71476587842
 20
-2961.739347752256
 30
0.0
 11
-6531.71476587842
 21
-2961.739347752256
 31
0.0
  0
LINE
  8
0
 62
     0
 10
-6499.921607786315
 20
-2957.55369908324
 30
0.0
 11
-6499.921607786315
 21
-2957.55369908324
 31
0.0
  0
LINE
  8
0
 62
     0
 10
-6451.822651781625
 20
-2951.221351393876
 30
0.0
 11
-6451.822651781625
 21
-2951.221351393876
 31
0.0
  0
LINE
  8
0
 62
     0
 10
-6371.615753941346
 20
-2940.661912969466
 30
0.0
 11
-6371.615753941346
 21
-2940.661912969466
 31
0.0
  0
LINE
  8
0
 62
     0
 10
-6339.822595849241
 20
-2936.476264300449
 30
0.0
 11
-6339.822595849241
 21
-2936.476264300449
 31
0.0
  0
LINE
  8
0
 62
     0
 10
-6291.723639844552
 20
-2930.143916611086
 30
0.0
 11
-6291.723639844552
 21
-2930.143916611086
 31
0.0
  0
LINE
  8
0
 62
     0
 10
-6211.516742004272
 20
-2919.584478186676
 30
0.0
 11
-6211.516742004272
 21
-2919.584478186676
 31
0.0
  0
LINE
  8
0
 62
     0
 10
-6179.723583912168
 20
-2915.398829517659
 30
0.0
 11
-6179.723583912168
 21
-2915.398829517659
 31
0.0
  0
LINE
  8
0
 62
     0
 10
-6131.624627907478
 20
-2909.066481828296
 30
0.0
 11
-6131.624627907478
 21
-2909.066481828296
 31
0.0
  0
LINE
  8
0
 62
     0
 10
-6658.403946560341
 20
-2932.726495125987
 30
0.0
 11
-6658.403946560341
 21
-2932.726495125987
 31
0.0
  0
LINE
  8
0
 62
     0
 10
-6626.610788468235
 20
-2928.54084645697
 30
0.0
 11
-6626.610788468235
 21
-2928.54084645697
 31
0.0
  0
LINE
  8
0
 62
     0
 10
-6578.511832463545
 20
-2922.208498767606
 30
0.0
 11
-6578.511832463545
 21
-2922.208498767606
 31
0.0
  0
LINE
  8
0
 62
     0
 10
-6498.304934623267
 20
-2911.649060343196
 30
0.0
 11
-6498.304934623267
 21
-2911.649060343196
 31
0.0
  0
LINE
  8
0
 62
     0
 10
-6466.511776531161
 20
-2907.463411674179
 30
0.0
 11
-6466.511776531161
 21
-2907.463411674179
 31
0.0
  0
LINE
  8
0
 62
     0
 10
-6598.534428388725
 20
-3061.919922570376
 30
0.0
 11
-6598.534428388725
 21
-3061.919922570376
 31
0.0
  0
LINE
  8
0
 62
     0
 10
-6566.74127029662
 20
-3057.73427390136
 30
0.0
 11
-6566.74127029662
 21
-3057.73427390136
 31
0.0
  0
LINE
  8
0
 62
     0
 10
-6518.642314291931
 20
-3051.401926211996
 30
0.0
 11
-6518.642314291931
 21
-3051.401926211996
 31
0.0
  0
LINE
  8
0
 62
     0
 10
-6438.435416451651
 20
-3040.842487787586
 30
0.0
 11
-6438.435416451651
 21
-3040.842487787586
 31
0.0
  0
LINE
  8
0
 62
     0
 10
-6406.642258359546
 20
-3036.656839118569
 30
0.0
 11
-6406.642258359546
 21
-3036.656839118569
 31
0.0
  0
LINE
  8
0
 62
     0
 10
-6358.543302354857
 20
-3030.324491429206
 30
0.0
 11
-6358.543302354857
 21
-3030.324491429206
 31
0.0
  0
LINE
  8
0
 62
     0
 10
-6278.336404514578
 20
-3019.765053004796
 30
0.0
 11
-6278.336404514578
 21
-3019.765053004796
 31
0.0
  0
LINE
  8
0
 62
     0
 10
-6246.543246422473
 20
-3015.579404335779
 30
0.0
 11
-6246.543246422473
 21
-3015.579404335779
 31
0.0
  0
LINE
  8
0
 62
     0
 10
-6198.444290417784
 20
-3009.247056646416
 30
0.0
 11
-6198.444290417784
 21
-3009.247056646416
 31
0.0
  0
LINE
  8
0
 62
     0
 10
-6118.237392577505
 20
-2998.687618222006
 30
0.0
 11
-6118.237392577505
 21
-2998.687618222006
 31
0.0
  0
LINE
  8
0
 62
     0
 10
-6086.4442344854
 20
-2994.501969552989
 30
0.0
 11
-6086.4442344854
 21
-2994.501969552989
 31
0.0
  0
LINE
  8
0
 62
     0
 10
-6038.345278480711
 20
-2988.169621863626
 30
0.0
 11
-6038.345278480711
 21
-2988.169621863626
 31
0.0
  0
LINE
  8
0
 62
     0
 10
-5958.138380640431
 20
-2977.610183439216
 30
0.0
 11
-5958.138380640431
 21
-2977.610183439216
 31
0.0
  0
LINE
  8
0
 62
     0
 10
-5926.345222548326
 20
-2973.424534770199
 30
0.0
 11
-5926.345222548326
 21
-2973.424534770199
 31
0.0
  0
LINE
  8
0
 62
     0
 10
-5878.246266543637
 20
-2967.092187080836
 30
0.0
 11
-5878.246266543637
 21
-2967.092187080836
 31
0.0
  0
LINE
  8
0
 62
     0
 10
-5798.039368703357
 20
-2956.532748656426
 30
0.0
 11
-5798.039368703357
 21
-2956.532748656426
 31
0.0
  0
LINE
  8
0
 62
     0
 10
-5766.246210611252
 20
-2952.347099987409
 30
0.0
 11
-5766.246210611252
 21
-2952.347099987409
 31
0.0
  0
LINE
  8
0
 62
     0
 10
-5718.147254606564
 20
-2946.014752298046
 30
0.0
 11
-5718.147254606564
 21
-2946.014752298046
 31
0.0
  0
LINE
  8
0
 62
     0
 10
-5637.940356766284
 20
-2935.455313873636
 30
0.0
 11
-5637.940356766284
 21
-2935.455313873636
 31
0.0
  0
LINE
  8
0
 62
     0
 10
-5606.147198674179
 20
-2931.269665204619
 30
0.0
 11
-5606.147198674179
 21
-2931.269665204619
 31
0.0
  0
LINE
  8
0
 62
     0
 10
-5558.04824266949
 20
-2924.937317515256
 30
0.0
 11
-5558.04824266949
 21
-2924.937317515256
 31
0.0
  0
LINE
  8
0
 62
     0
 10
-6279.953077677626
 20
-3065.669691744839
 30
0.0
 11
-6279.953077677626
 21
-3065.669691744839
 31
0.0
  0
LINE
  8
0
 62
     0
 10
-6231.854121672937
 20
-3059.337344055476
 30
0.0
 11
-6231.854121672937
 21
-3059.337344055476
 31
0.0
  0
LINE
  8
0
 62
     0
 10
-6151.647223832658
 20
-3048.777905631066
 30
0.0
 11
-6151.647223832658
 21
-3048.777905631066
 31
0.0
  0
LINE
  8
0
 62
     0
 10
-6119.854065740553
 20
-3044.592256962049
 30
0.0
 11
-6119.854065740553
 21
-3044.592256962049
 31
0.0
  0
LINE
  8
0
 62
     0
 10
-6071.755109735864
 20
-3038.259909272686
 30
0.0
 11
-6071.755109735864
 21
-3038.259909272686
 31
0.0
  0
LINE
  8
0
 62
     0
 10
-5991.548211895584
 20
-3027.700470848276
 30
0.0
 11
-5991.548211895584
 21
-3027.700470848276
 31
0.0
  0
LINE
  8
0
 62
     0
 10
-5959.75505380348
 20
-3023.514822179259
 30
0.0
 11
-5959.75505380348
 21
-3023.514822179259
 31
0.0
  0
LINE
  8
0
 62
     0
 10
-5911.656097798791
 20
-3017.182474489896
 30
0.0
 11
-5911.656097798791
 21
-3017.182474489896
 31
0.0
  0
LINE
  8
0
 62
     0
 10
-5831.449199958511
 20
-3006.623036065486
 30
0.0
 11
-5831.449199958511
 21
-3006.623036065486
 31
0.0
  0
LINE
  8
0
 62
     0
 10
-5799.656041866406
 20
-3002.437387396469
 30
0.0
 11
-5799.656041866406
 21
-3002.437387396469
 31
0.0
  0
LINE
  8
0
 62
     0
 10
-5751.557085861716
 20
-2996.105039707106
 30
0.0
 11
-5751.557085861716
 21
-2996.105039707106
 31
0.0
  0
LINE
  8
0
 62
     0
 10
-5671.350188021437
 20
-2985.545601282695
 30
0.0
 11
-5671.350188021437
 21
-2985.545601282695
 31
0.0
  0
LINE
  8
0
 62
     0
 10
-5639.557029929332
 20
-2981.359952613679
 30
0.0
 11
-5639.557029929332
 21
-2981.359952613679
 31
0.0
  0
LINE
  8
0
 62
     0
 10
-5591.458073924643
 20
-2975.027604924316
 30
0.0
 11
-5591.458073924643
 21
-2975.027604924316
 31
0.0
  0
LINE
  8
0
 62
     0
 10
-5864.859031213664
 20
-3056.713323474545
 30
0.0
 11
-5864.859031213664
 21
-3056.713323474545
 31
0.0
  0
LINE
  8
0
 62
     0
 10
-5833.065873121559
 20
-3052.527674805529
 30
0.0
 11
-5833.065873121559
 21
-3052.527674805529
 31
0.0
  0
LINE
  8
0
 62
     0
 10
-5784.96691711687
 20
-3046.195327116165
 30
0.0
 11
-5784.96691711687
 21
-3046.195327116165
 31
0.0
  0
LINE
  8
0
 62
     0
 10
-5704.760019276591
 20
-3035.635888691755
 30
0.0
 11
-5704.760019276591
 21
-3035.635888691755
 31
0.0
  0
LINE
  8
0
 62
     0
 10
-5672.966861184485
 20
-3031.450240022738
 30
0.0
 11
-5672.966861184485
 21
-3031.450240022738
 31
0.0
  0
LINE
  8
0
 62
     0
 10
-5624.867905179796
 20
-3025.117892333375
 30
0.0
 11
-5624.867905179796
 21
-3025.117892333375
 31
0.0
  0
LINE
  8
0
 62
     0
 10
-5544.661007339517
 20
-3014.558453908965
 30
0.0
 11
-5544.661007339517
 21
-3014.558453908965
 31
0.0
  0
LINE
  8
0
 62
     0
 10
-5578.070838594669
 20
-3064.648741318024
 30
0.0
 11
-5578.070838594669
 21
-3064.648741318024
 31
0.0
  0
LINE
  8
0
 62
     0
 10
-5546.277680502564
 20
-3060.463092649008
 30
0.0
 11
-5546.277680502564
 21
-3060.463092649008
 31
0.0
  0
LINE
  8
0
 62
     0
 10
-6218.336943859708
 20
-2911.944234075679
 30
0.0
 11
-6218.336943859708
 21
-2911.944234075679
 31
0.0
  0
LINE
  8
0
 62
     0
 10
-6134.790587237484
 20
-2965.169133278516
 30
0.0
 11
-6134.790587237484
 21
-2965.169133278516
 31
0.0
  0
LINE
  8
0
 62
     0
 10
-6023.930998642609
 20
-3035.794480297664
 30
0.0
 11
-6023.930998642609
 21
-3035.794480297664
 31
0.0
  0
LINE
  8
0
 62
     0
 10
-5997.153320238051
 20
-3052.853742862675
 30
0.0
 11
-5997.153320238051
 21
-3052.853742862675
 31
0.0
  0
LINE
  8
0
 62
     0
 10
-6150.541646276273
 20
-2914.808606072014
 30
0.0
 11
-6150.541646276273
 21
-2914.808606072014
 31
0.0
  0
LINE
  8
0
 62
     0
 10
-6066.995289654049
 20
-2968.033505274851
 30
0.0
 11
-6066.995289654049
 21
-2968.033505274851
 31
0.0
  0
LINE
  8
0
 62
     0
 10
-5956.135701059174
 20
-3038.658852293999
 30
0.0
 11
-5956.135701059174
 21
-3038.658852293999
 31
0.0
  0
LINE
  8
0
 62
     0
 10
-5929.358022654615
 20
-3055.718114859011
 30
0.0
 11
-5929.358022654615
 21
-3055.718114859011
 31
0.0
  0
LINE
  8
0
 62
     0
 10
-6082.746348692837
 20
-2917.672978068353
 30
0.0
 11
-6082.746348692837
 21
-2917.672978068353
 31
0.0
  0
LINE
  8
0
 62
     0
 10
-5999.199992070613
 20
-2970.897877271188
 30
0.0
 11
-5999.199992070613
 21
-2970.897877271188
 31
0.0
  0
LINE
  8
0
 62
     0
 10
-5888.340403475738
 20
-3041.523224290337
 30
0.0
 11
-5888.340403475738
 21
-3041.523224290337
 31
0.0
  0
LINE
  8
0
 62
     0
 10
-5861.56272507118
 20
-3058.582486855348
 30
0.0
 11
-5861.56272507118
 21
-3058.582486855348
 31
0.0
  0
LINE
  8
0
 62
     0
 10
-6014.951051109401
 20
-2920.537350064689
 30
0.0
 11
-6014.951051109401
 21
-2920.537350064689
 31
0.0
  0
LINE
  8
0
 62
     0
 10
-5931.404694487177
 20
-2973.762249267525
 30
0.0
 11
-5931.404694487177
 21
-2973.762249267525
 31
0.0
  0
LINE
  8
0
 62
     0
 10
-5820.545105892303
 20
-3044.387596286674
 30
0.0
 11
-5820.545105892303
 21
-3044.387596286674
 31
0.0
  0
LINE
  8
0
 62
     0
 10
-5793.767427487744
 20
-3061.446858851685
 30
0.0
 11
-5793.767427487744
 21
-3061.446858851685
 31
0.0
  0
LINE
  8
0
 62
     0
 10
-5947.155753525966
 20
-2923.401722061026
 30
0.0
 11
-5947.155753525966
 21
-2923.401722061026
 31
0.0
  0
LINE
  8
0
 62
     0
 10
-5863.609396903741
 20
-2976.626621263862
 30
0.0
 11
-5863.609396903741
 21
-2976.626621263862
 31
0.0
  0
LINE
  8
0
 62
     0
 10
-5752.749808308867
 20
-3047.25196828301
 30
0.0
 11
-5752.749808308867
 21
-3047.25196828301
 31
0.0
  0
LINE
  8
0
 62
     0
 10
-5725.972129904307
 20
-3064.311230848022
 30
0.0
 11
-5725.972129904307
 21
-3064.311230848022
 31
0.0
  0
LINE
  8
0
 62
     0
 10
-5906.138134347088
 20
-2909.206831492351
 30
0.0
 11
-5906.138134347088
 21
-2909.206831492351
 31
0.0
  0
LINE
  8
0
 62
     0
 10
-5879.360455942529
 20
-2926.266094057363
 30
0.0
 11
-5879.360455942529
 21
-2926.266094057363
 31
0.0
  0
LINE
  8
0
 62
     0
 10
-5795.814099320304
 20
-2979.490993260199
 30
0.0
 11
-5795.814099320304
 21
-2979.490993260199
 31
0.0
  0
LINE
  8
0
 62
     0
 10
-5684.95451072543
 20
-3050.116340279347
 30
0.0
 11
-5684.95451072543
 21
-3050.116340279347
 31
0.0
  0
LINE
  8
0
 62
     0
 10
-5838.342836763653
 20
-2912.071203488688
 30
0.0
 11
-5838.342836763653
 21
-2912.071203488688
 31
0.0
  0
LINE
  8
0
 62
     0
 10
-5811.565158359094
 20
-2929.130466053699
 30
0.0
 11
-5811.565158359094
 21
-2929.130466053699
 31
0.0
  0
LINE
  8
0
 62
     0
 10
-5728.01880173687
 20
-2982.355365256535
 30
0.0
 11
-5728.01880173687
 21
-2982.355365256535
 31
0.0
  0
LINE
  8
0
 62
     0
 10
-5617.159213141996
 20
-3052.980712275684
 30
0.0
 11
-5617.159213141996
 21
-3052.980712275684
 31
0.0
  0
LINE
  8
0
 62
     0
 10
-5770.547539180219
 20
-2914.935575485024
 30
0.0
 11
-5770.547539180219
 21
-2914.935575485024
 31
0.0
  0
LINE
  8
0
 62
     0
 10
-5743.76986077566
 20
-2931.994838050036
 30
0.0
 11
-5743.76986077566
 21
-2931.994838050036
 31
0.0
  0
LINE
  8
0
 62
     0
 10
-5660.223504153436
 20
-2985.219737252872
 30
0.0
 11
-5660.223504153436
 21
-2985.219737252872
 31
0.0
  0
LINE
  8
0
 62
     0
 10
-5549.363915558561
 20
-3055.84508427202
 30
0.0
 11
-5549.363915558561
 21
-3055.84508427202
 31
0.0
  0
LINE
  8
0
 62
     0
 10
-5702.752241596782
 20
-2917.799947481361
 30
0.0
 11
-5702.752241596782
 21
-2917.799947481361
 31
0.0
  0
LINE
  8
0
 62
     0
 10
-5675.974563192223
 20
-2934.859210046372
 30
0.0
 11
-5675.974563192223
 21
-2934.859210046372
 31
0.0
  0
LINE
  8
0
 62
     0
 10
-5592.428206569999
 20
-2988.084109249209
 30
0.0
 11
-5592.428206569999
 21
-2988.084109249209
 31
0.0
  0
LINE
  8
0
 62
     0
 10
-5634.956944013347
 20
-2920.664319477698
 30
0.0
 11
-5634.956944013347
 21
-2920.664319477698
 31
0.0
  0
LINE
  8
0
 62
     0
 10
-5608.179265608787
 20
-2937.72358204271
 30
0.0
 11
-5608.179265608787
 21
-2937.72358204271
 31
0.0
  0
LINE
  8
0
 62
     0
 10
-5567.16164642991
 20
-2923.528691474034
 30
0.0
 11
-5567.16164642991
 21
-2923.528691474034
 31
0.0
  0
LINE
  8
0
 62
     0
 10
-5540.383968025351
 20
-2940.587954039046
 30
0.0
 11
-5540.383968025351
 21
-2940.587954039046
 31
0.0
  0
LINE
  8
0
 62
     0
 10
-6286.132241443144
 20
-2909.079862079342
 30
0.0
 11
-6286.132241443144
 21
-2909.079862079342
 31
0.0
  0
LINE
  8
0
 62
     0
 10
-6202.58588482092
 20
-2962.304761282178
 30
0.0
 11
-6202.58588482092
 21
-2962.304761282178
 31
0.0
  0
LINE
  8
0
 62
     0
 10
-6091.726296226046
 20
-3032.930108301326
 30
0.0
 11
-6091.726296226046
 21
-3032.930108301326
 31
0.0
  0
LINE
  8
0
 62
     0
 10
-6064.948617821486
 20
-3049.989370866338
 30
0.0
 11
-6064.948617821486
 21
-3049.989370866338
 31
0.0
  0
LINE
  8
0
 62
     0
 10
-6270.381182404355
 20
-2959.440389285841
 30
0.0
 11
-6270.381182404355
 21
-2959.440389285841
 31
0.0
  0
LINE
  8
0
 62
     0
 10
-6159.52159380948
 20
-3030.06573630499
 30
0.0
 11
-6159.52159380948
 21
-3030.06573630499
 31
0.0
  0
LINE
  8
0
 62
     0
 10
-6132.743915404922
 20
-3047.124998870001
 30
0.0
 11
-6132.743915404922
 21
-3047.124998870001
 31
0.0
  0
LINE
  8
0
 62
     0
 10
-6338.176479987791
 20
-2956.576017289505
 30
0.0
 11
-6338.176479987791
 21
-2956.576017289505
 31
0.0
  0
LINE
  8
0
 62
     0
 10
-6227.316891392917
 20
-3027.201364308653
 30
0.0
 11
-6227.316891392917
 21
-3027.201364308653
 31
0.0
  0
LINE
  8
0
 62
     0
 10
-6200.539212988357
 20
-3044.260626873665
 30
0.0
 11
-6200.539212988357
 21
-3044.260626873665
 31
0.0
  0
LINE
  8
0
 62
     0
 10
-6405.971777571227
 20
-2953.711645293168
 30
0.0
 11
-6405.971777571227
 21
-2953.711645293168
 31
0.0
  0
LINE
  8
0
 62
     0
 10
-6295.112188976353
 20
-3024.336992312316
 30
0.0
 11
-6295.112188976353
 21
-3024.336992312316
 31
0.0
  0
LINE
  8
0
 62
     0
 10
-6268.334510571794
 20
-3041.396254877327
 30
0.0
 11
-6268.334510571794
 21
-3041.396254877327
 31
0.0
  0
LINE
  8
0
 62
     0
 10
-6473.767075154662
 20
-2950.847273296831
 30
0.0
 11
-6473.767075154662
 21
-2950.847273296831
 31
0.0
  0
LINE
  8
0
 62
     0
 10
-6362.907486559788
 20
-3021.47262031598
 30
0.0
 11
-6362.907486559788
 21
-3021.47262031598
 31
0.0
  0
LINE
  8
0
 62
     0
 10
-6336.129808155229
 20
-3038.531882880991
 30
0.0
 11
-6336.129808155229
 21
-3038.531882880991
 31
0.0
  0
LINE
  8
0
 62
     0
 10
-6541.562372738098
 20
-2947.982901300494
 30
0.0
 11
-6541.562372738098
 21
-2947.982901300494
 31
0.0
  0
LINE
  8
0
 62
     0
 10
-6430.702784143226
 20
-3018.608248319643
 30
0.0
 11
-6430.702784143226
 21
-3018.608248319643
 31
0.0
  0
LINE
  8
0
 62
     0
 10
-6403.925105738665
 20
-3035.667510884654
 30
0.0
 11
-6403.925105738665
 21
-3035.667510884654
 31
0.0
  0
LINE
  8
0
 62
     0
 10
-6609.357670321534
 20
-2945.118529304157
 30
0.0
 11
-6609.357670321534
 21
-2945.118529304157
 31
0.0
  0
LINE
  8
0
 62
     0
 10
-6498.498081726659
 20
-3015.743876323305
 30
0.0
 11
-6498.498081726659
 21
-3015.743876323305
 31
0.0
  0
LINE
  8
0
 62
     0
 10
-6471.7204033221
 20
-3032.803138888317
 30
0.0
 11
-6471.7204033221
 21
-3032.803138888317
 31
0.0
  0
LINE
  8
0
 62
     0
 10
-6677.152967904969
 20
-2942.254157307822
 30
0.0
 11
-6677.152967904969
 21
-2942.254157307822
 31
0.0
  0
LINE
  8
0
 62
     0
 10
-6566.293379310094
 20
-3012.87950432697
 30
0.0
 11
-6566.293379310094
 21
-3012.87950432697
 31
0.0
  0
LINE
  8
0
 62
     0
 10
-6539.515700905536
 20
-3029.938766891981
 30
0.0
 11
-6539.515700905536
 21
-3029.938766891981
 31
0.0
  0
LINE
  8
0
 62
     0
 10
-6634.08867689353
 20
-3010.015132330633
 30
0.0
 11
-6634.08867689353
 21
-3010.015132330633
 31
0.0
  0
LINE
  8
0
 62
     0
 10
-6607.310998488972
 20
-3027.074394895644
 30
0.0
 11
-6607.310998488972
 21
-3027.074394895644
 31
0.0
  0
LINE
  8
0
 62
     0
 10
-6701.883974476968
 20
-3007.150760334296
 30
0.0
 11
-6701.883974476968
 21
-3007.150760334296
 31
0.0
  0
LINE
  8
0
 62
     0
 10
-6675.106296072407
 20
-3024.210022899308
 30
0.0
 11
-6675.106296072407
 21
-3024.210022899308
 31
0.0
  0
LINE
  8
0
 62
     0
 10
-6187.631142934263
 20
-2909.249030605855
 30
0.0
 11
-6187.631142934263
 21
-2909.249030605855
 31
0.0
  0
LINE
  8
0
 62
     0
 10
-6118.809989929722
 20
-2972.311998535739
 30
0.0
 11
-6118.809989929722
 21
-2972.311998535739
 31
0.0
  0
LINE
  8
0
 62
     0
 10
-6088.378867852885
 20
-3000.196984355075
 30
0.0
 11
-6088.378867852885
 21
-3000.196984355075
 31
0.0
  0
LINE
  8
0
 62
     0
 10
-6039.876340973494
 20
-3044.641361753278
 30
0.0
 11
-6039.876340973494
 21
-3044.641361753278
 31
0.0
  0
LINE
  8
0
 62
     0
 10
-6044.745399236711
 20
-2959.598753019074
 30
0.0
 11
-6044.745399236711
 21
-2959.598753019074
 31
0.0
  0
LINE
  8
0
 62
     0
 10
-6014.314277159874
 20
-2987.48373883841
 30
0.0
 11
-6014.314277159874
 21
-2987.48373883841
 31
0.0
  0
LINE
  8
0
 62
     0
 10
-5965.811750280484
 20
-3031.928116236614
 30
0.0
 11
-5965.811750280484
 21
-3031.928116236614
 31
0.0
  0
LINE
  8
0
 62
     0
 10
-5970.680808543703
 20
-2946.885507502406
 30
0.0
 11
-5970.680808543703
 21
-2946.885507502406
 31
0.0
  0
LINE
  8
0
 62
     0
 10
-5940.249686466866
 20
-2974.770493321742
 30
0.0
 11
-5940.249686466866
 21
-2974.770493321742
 31
0.0
  0
LINE
  8
0
 62
     0
 10
-5891.747159587475
 20
-3019.214870719947
 30
0.0
 11
-5891.747159587475
 21
-3019.214870719947
 31
0.0
  0
LINE
  8
0
 62
     0
 10
-5896.616217850695
 20
-2934.17226198574
 30
0.0
 11
-5896.616217850695
 21
-2934.17226198574
 31
0.0
  0
LINE
  8
0
 62
     0
 10
-5866.185095773857
 20
-2962.057247805076
 30
0.0
 11
-5866.185095773857
 21
-2962.057247805076
 31
0.0
  0
LINE
  8
0
 62
     0
 10
-5817.682568894466
 20
-3006.50162520328
 30
0.0
 11
-5817.682568894466
 21
-3006.50162520328
 31
0.0
  0
LINE
  8
0
 62
     0
 10
-5822.551627157684
 20
-2921.459016469073
 30
0.0
 11
-5822.551627157684
 21
-2921.459016469073
 31
0.0
  0
LINE
  8
0
 62
     0
 10
-5792.120505080847
 20
-2949.344002288409
 30
0.0
 11
-5792.120505080847
 21
-2949.344002288409
 31
0.0
  0
LINE
  8
0
 62
     0
 10
-5743.617978201457
 20
-2993.788379686613
 30
0.0
 11
-5743.617978201457
 21
-2993.788379686613
 31
0.0
  0
LINE
  8
0
 62
     0
 10
-5674.796825196914
 20
-3056.851347616496
 30
0.0
 11
-5674.796825196914
 21
-3056.851347616496
 31
0.0
  0
LINE
  8
0
 62
     0
 10
-5748.487036464676
 20
-2908.745770952405
 30
0.0
 11
-5748.487036464676
 21
-2908.745770952405
 31
0.0
  0
LINE
  8
0
 62
     0
 10
-5718.055914387838
 20
-2936.630756771742
 30
0.0
 11
-5718.055914387838
 21
-2936.630756771742
 31
0.0
  0
LINE
  8
0
 62
     0
 10
-5669.553387508448
 20
-2981.075134169946
 30
0.0
 11
-5669.553387508448
 21
-2981.075134169946
 31
0.0
  0
LINE
  8
0
 62
     0
 10
-5600.732234503906
 20
-3044.138102099829
 30
0.0
 11
-5600.732234503906
 21
-3044.138102099829
 31
0.0
  0
LINE
  8
0
 62
     0
 10
-5643.991323694828
 20
-2923.917511255077
 30
0.0
 11
-5643.991323694828
 21
-2923.917511255077
 31
0.0
  0
LINE
  8
0
 62
     0
 10
-5595.488796815438
 20
-2968.36188865328
 30
0.0
 11
-5595.488796815438
 21
-2968.36188865328
 31
0.0
  0
LINE
  8
0
 62
     0
 10
-5569.926733001819
 20
-2911.20426573841
 30
0.0
 11
-5569.926733001819
 21
-2911.20426573841
 31
0.0
  0
LINE
  8
0
 62
     0
 10
-6261.695733627271
 20
-2921.962276122522
 30
0.0
 11
-6261.695733627271
 21
-2921.962276122522
 31
0.0
  0
LINE
  8
0
 62
     0
 10
-6192.87458062273
 20
-2985.025244052406
 30
0.0
 11
-6192.87458062273
 21
-2985.025244052406
 31
0.0
  0
LINE
  8
0
 62
     0
 10
-6162.443458545892
 20
-3012.910229871742
 30
0.0
 11
-6162.443458545892
 21
-3012.910229871742
 31
0.0
  0
LINE
  8
0
 62
     0
 10
-6113.940931666502
 20
-3057.354607269946
 30
0.0
 11
-6113.940931666502
 21
-3057.354607269946
 31
0.0
  0
LINE
  8
0
 62
     0
 10
-6335.76032432028
 20
-2934.675521639188
 30
0.0
 11
-6335.76032432028
 21
-2934.675521639188
 31
0.0
  0
LINE
  8
0
 62
     0
 10
-6266.93917131574
 20
-2997.738489569071
 30
0.0
 11
-6266.93917131574
 21
-2997.738489569071
 31
0.0
  0
LINE
  8
0
 62
     0
 10
-6236.508049238901
 20
-3025.623475388408
 30
0.0
 11
-6236.508049238901
 21
-3025.623475388408
 31
0.0
  0
LINE
  8
0
 62
     0
 10
-6409.824915013289
 20
-2947.388767155855
 30
0.0
 11
-6409.824915013289
 21
-2947.388767155855
 31
0.0
  0
LINE
  8
0
 62
     0
 10
-6341.003762008748
 20
-3010.451735085739
 30
0.0
 11
-6341.003762008748
 21
-3010.451735085739
 31
0.0
  0
LINE
  8
0
 62
     0
 10
-6310.57263993191
 20
-3038.336720905075
 30
0.0
 11
-6310.57263993191
 21
-3038.336720905075
 31
0.0
  0
LINE
  8
0
 62
     0
 10
-6532.392032585688
 20
-2915.657635274317
 30
0.0
 11
-6532.392032585688
 21
-2915.657635274317
 31
0.0
  0
LINE
  8
0
 62
     0
 10
-6483.889505706298
 20
-2960.102012672522
 30
0.0
 11
-6483.889505706298
 21
-2960.102012672522
 31
0.0
  0
LINE
  8
0
 62
     0
 10
-6415.068352701757
 20
-3023.164980602405
 30
0.0
 11
-6415.068352701757
 21
-3023.164980602405
 31
0.0
  0
LINE
  8
0
 62
     0
 10
-6384.637230624919
 20
-3051.049966421741
 30
0.0
 11
-6384.637230624919
 21
-3051.049966421741
 31
0.0
  0
LINE
  8
0
 62
     0
 10
-6606.456623278698
 20
-2928.370880790984
 30
0.0
 11
-6606.456623278698
 21
-2928.370880790984
 31
0.0
  0
LINE
  8
0
 62
     0
 10
-6557.954096399307
 20
-2972.815258189188
 30
0.0
 11
-6557.954096399307
 21
-2972.815258189188
 31
0.0
  0
LINE
  8
0
 62
     0
 10
-6489.132943394767
 20
-3035.878226119072
 30
0.0
 11
-6489.132943394767
 21
-3035.878226119072
 31
0.0
  0
LINE
  8
0
 62
     0
 10
-6458.701821317928
 20
-3063.763211938408
 30
0.0
 11
-6458.701821317928
 21
-3063.763211938408
 31
0.0
  0
LINE
  8
0
 62
     0
 10
-6710.952336048545
 20
-2913.199140488315
 30
0.0
 11
-6710.952336048545
 21
-2913.199140488315
 31
0.0
  0
LINE
  8
0
 62
     0
 10
-6680.521213971706
 20
-2941.084126307651
 30
0.0
 11
-6680.521213971706
 21
-2941.084126307651
 31
0.0
  0
LINE
  8
0
 62
     0
 10
-6632.018687092316
 20
-2985.528503705855
 30
0.0
 11
-6632.018687092316
 21
-2985.528503705855
 31
0.0
  0
LINE
  8
0
 62
     0
 10
-6563.197534087775
 20
-3048.591471635738
 30
0.0
 11
-6563.197534087775
 21
-3048.591471635738
 31
0.0
  0
LINE
  8
0
 62
     0
 10
-6706.083277785324
 20
-2998.241749222521
 30
0.0
 11
-6706.083277785324
 21
-2998.241749222521
 31
0.0
  0
LINE
  8
0
 62
     0
 10
-6637.262124780783
 20
-3061.304717152405
 30
0.0
 11
-6637.262124780783
 21
-3061.304717152405
 31
0.0
  0
ENDBLK
  8
0
  0
BLOCK
  8
0
  2
*X20
 70
    65
 10
0.0
 20
0.0
 30
0.0
  3
*X
  0
LINE
  8
0
 62
     0
 10
1421.093875620018
 20
-13620.83512717081
 30
0.0
 11
2083.205943541297
 21
-12958.72305924953
 31
0.0
  0
LINE
  8
0
 62
     0
 10
2488.559330059487
 20
-12553.36967273134
 30
0.0
 11
3083.205943541301
 21
-11958.72305924953
 31
0.0
  0
LINE
  8
0
 62
     0
 10
2243.205943541296
 20
-12798.72305924953
 30
0.0
 11
2249.205943541303
 21
-12792.72305924952
 31
0.0
  0
LINE
  8
0
 62
     0
 10
1246.973883906235
 20
-13570.44871585786
 30
0.0
 11
1858.699540514569
 21
-12958.72305924953
 31
0.0
  0
LINE
  8
0
 62
     0
 10
2434.379727312684
 20
-12383.04287245141
 30
0.0
 11
2858.699540514571
 21
-11958.72305924953
 31
0.0
  0
LINE
  8
0
 62
     0
 10
2018.699540514568
 20
-12798.72305924953
 30
0.0
 11
2095.76415657571
 21
-12721.65844318839
 31
0.0
  0
LINE
  8
0
 62
     0
 10
1060.113049990337
 20
-13532.80314674703
 30
0.0
 11
1634.193137487841
 21
-12958.72305924953
 31
0.0
  0
LINE
  8
0
 62
     0
 10
2418.927404138823
 20
-12173.98879259854
 30
0.0
 11
2634.193137487842
 21
-11958.72305924953
 31
0.0
  0
LINE
  8
0
 62
     0
 10
1794.193137487841
 20
-12798.72305924953
 30
0.0
 11
2200.490469293117
 21
-12392.42572744425
 31
0.0
  0
LINE
  8
0
 62
     0
 10
867.168840872754
 20
-13501.24095283789
 30
0.0
 11
1409.686734461112
 21
-12958.72305924953
 31
0.0
  0
LINE
  8
0
 62
     0
 10
1569.686734461113
 20
-12798.72305924953
 30
0.0
 11
2218.927404138824
 21
-12149.48238957181
 31
0.0
  0
LINE
  8
0
 62
     0
 10
674.224631755172
 20
-13469.67875892874
 30
0.0
 11
1185.180331434384
 21
-12958.72305924953
 31
0.0
  0
LINE
  8
0
 62
     0
 10
1359.705102680076
 20
-12784.19828800384
 30
0.0
 11
2185.180331434385
 21
-11958.72305924953
 31
0.0
  0
LINE
  8
0
 62
     0
 10
1345.180331434383
 20
-12798.72305924953
 30
0.0
 11
1351.180331434391
 21
-12792.72305924952
 31
0.0
  0
LINE
  8
0
 62
     0
 10
484.090467877931
 20
-13435.30651977925
 30
0.0
 11
954.344467542274
 21
-12965.05252011491
 31
0.0
  0
LINE
  8
0
 62
     0
 10
1305.525499933273
 20
-12613.87148772391
 30
0.0
 11
1960.673928407656
 21
-11958.72305924953
 31
0.0
  0
LINE
  8
0
 62
     0
 10
1120.673928407655
 20
-12798.72305924953
 30
0.0
 11
1126.673928407662
 21
-12792.72305924952
 31
0.0
  0
LINE
  8
0
 62
     0
 10
295.495072007494
 20
-13399.39551262296
 30
0.0
 11
736.167525380927
 21
-12958.72305924953
 31
0.0
  0
LINE
  8
0
 62
     0
 10
1251.34589718647
 20
-12443.54468744399
 30
0.0
 11
1736.167525380926
 21
-11958.72305924953
 31
0.0
  0
LINE
  8
0
 62
     0
 10
896.167525380928
 20
-12798.72305924953
 30
0.0
 11
902.167525380933
 21
-12792.72305924952
 31
0.0
  0
LINE
  8
0
 62
     0
 10
144.761172918002
 20
-13325.62300868572
 30
0.0
 11
516.641128361642
 21
-12953.74305324208
 31
0.0
  0
LINE
  8
0
 62
     0
 10
1216.820289136426
 20
-12253.5638924673
 30
0.0
 11
1511.661122354197
 21
-11958.72305924953
 31
0.0
  0
LINE
  8
0
 62
     0
 10
671.6611223542
 20
-12798.72305924953
 30
0.0
 11
961.011638833189
 21
-12509.37254277054
 31
0.0
  0
LINE
  8
0
 62
     0
 10
92.129104798314
 20
-13153.74867377868
 30
0.0
 11
1016.820289136426
 21
-12229.05748944057
 31
0.0
  0
LINE
  8
0
 62
     0
 10
1216.820289136426
 20
-12029.05748944057
 30
0.0
 11
1287.154719327468
 21
-11958.72305924953
 31
0.0
  0
LINE
  8
0
 62
     0
 10
39.497036678626
 20
-12981.87433887164
 30
0.0
 11
1016.820289136426
 21
-12004.55108641384
 31
0.0
  0
LINE
  8
0
 62
     0
 10
-11.217447289749
 20
-12808.08241981329
 30
0.0
 11
838.14191327401
 21
-11958.72305924953
 31
0.0
  0
LINE
  8
0
 62
     0
 10
-49.644860216299
 20
-12622.00342971311
 30
0.0
 11
613.635510247281
 21
-11958.72305924953
 31
0.0
  0
LINE
  8
0
 62
     0
 10
-82.508758406506
 20
-12430.36092487659
 30
0.0
 11
389.129107220553
 21
-11958.72305924953
 31
0.0
  0
LINE
  8
0
 62
     0
 10
-50.622231492053
 20
-12173.9679949354
 30
0.0
 11
164.622704193824
 21
-11958.72305924953
 31
0.0
  0
LINE
  8
0
 62
     0
 10
1595.213867333801
 20
-13671.22153848375
 30
0.0
 11
2307.712346568028
 21
-12958.72305924953
 31
0.0
  0
LINE
  8
0
 62
     0
 10
2542.73893280629
 20
-12723.69647301127
 30
0.0
 11
3307.71234656803
 21
-11958.72305924953
 31
0.0
  0
LINE
  8
0
 62
     0
 10
2467.712346568025
 20
-12798.72305924953
 30
0.0
 11
2473.712346568032
 21
-12792.72305924952
 31
0.0
  0
LINE
  8
0
 62
     0
 10
1769.333859047583
 20
-13721.6079497967
 30
0.0
 11
2532.218749594758
 21
-12958.72305924953
 31
0.0
  0
LINE
  8
0
 62
     0
 10
2692.218749594755
 20
-12798.72305924953
 30
0.0
 11
3418.533288106285
 21
-12072.408520738
 31
0.0
  0
LINE
  8
0
 62
     0
 10
1943.453850761366
 20
-13771.99436110965
 30
0.0
 11
2756.725152621486
 21
-12958.72305924953
 31
0.0
  0
LINE
  8
0
 62
     0
 10
3618.533288106286
 20
-12096.91492376473
 30
0.0
 11
3756.725152621484
 21
-11958.72305924953
 31
0.0
  0
LINE
  8
0
 62
     0
 10
2916.725152621483
 20
-12798.72305924953
 30
0.0
 11
3418.533288106285
 21
-12296.91492376473
 31
0.0
  0
LINE
  8
0
 62
     0
 10
2281.912778338942
 20
-13658.0418365588
 30
0.0
 11
2981.231555648215
 21
-12958.72305924953
 31
0.0
  0
LINE
  8
0
 62
     0
 10
3618.533288106286
 20
-12321.42132679146
 30
0.0
 11
3981.231555648213
 21
-11958.72305924953
 31
0.0
  0
LINE
  8
0
 62
     0
 10
3141.231555648213
 20
-12798.72305924953
 30
0.0
 11
3331.574997725626
 21
-12608.37961717212
 31
0.0
  0
LINE
  8
0
 62
     0
 10
2673.360221447819
 20
-13491.10079647665
 30
0.0
 11
3205.737958674942
 21
-12958.72305924953
 31
0.0
  0
LINE
  8
0
 62
     0
 10
3669.695545359593
 20
-12494.76547256487
 30
0.0
 11
4205.737958674941
 21
-11958.72305924953
 31
0.0
  0
LINE
  8
0
 62
     0
 10
3365.73795867494
 20
-12798.72305924953
 30
0.0
 11
3371.737958674948
 21
-12792.72305924952
 31
0.0
  0
LINE
  8
0
 62
     0
 10
2891.960453060691
 20
-13497.00696789051
 30
0.0
 11
3423.914900836288
 21
-12965.05252011491
 31
0.0
  0
LINE
  8
0
 62
     0
 10
3723.875148106401
 20
-12665.0922728448
 30
0.0
 11
4430.244361701671
 21
-11958.72305924953
 31
0.0
  0
LINE
  8
0
 62
     0
 10
3425.420201168876
 20
-12963.54721978232
 30
0.0
 11
3430.244361701668
 21
-12958.72305924953
 31
0.0
  0
LINE
  8
0
 62
     0
 10
3590.24436170167
 20
-12798.72305924953
 30
0.0
 11
3596.244361701677
 21
-12792.72305924952
 31
0.0
  0
LINE
  8
0
 62
     0
 10
3110.560684673563
 20
-13502.91313930436
 30
0.0
 11
3640.598053188692
 21
-12972.87577078923
 31
0.0
  0
LINE
  8
0
 62
     0
 10
3814.7507647284
 20
-12798.72305924953
 30
0.0
 11
4654.7507647284
 21
-11958.72305924953
 31
0.0
  0
LINE
  8
0
 62
     0
 10
3329.160916286434
 20
-13508.81931071822
 30
0.0
 11
3879.257167755129
 21
-12958.72305924953
 31
0.0
  0
LINE
  8
0
 62
     0
 10
4039.25716775513
 20
-12798.72305924953
 30
0.0
 11
4723.449777036718
 21
-12114.53044996794
 31
0.0
  0
LINE
  8
0
 62
     0
 10
3526.129580645998
 20
-13536.35704938539
 30
0.0
 11
4103.763570781858
 21
-12958.72305924953
 31
0.0
  0
LINE
  8
0
 62
     0
 10
4118.712448881071
 20
-12943.77418115031
 30
0.0
 11
4775.955697087928
 21
-12286.53093294346
 31
0.0
  0
LINE
  8
0
 62
     0
 10
3703.156693745047
 20
-13583.83633931307
 30
0.0
 11
4827.778112602881
 21
-12459.21492045523
 31
0.0
  0
LINE
  8
0
 62
     0
 10
3879.599963674878
 20
-13631.89947240996
 30
0.0
 11
4667.308761679005
 21
-12844.19067440584
 31
0.0
  0
LINE
  8
0
 62
     0
 10
4046.554841604521
 20
-13689.45099750705
 30
0.0
 11
4667.308761679005
 21
-13068.69707743257
 31
0.0
  0
LINE
  8
0
 62
     0
 10
4273.055230389042
 20
-13687.45701174926
 30
0.0
 11
4667.308761679005
 21
-13293.2034804593
 31
0.0
  0
ENDBLK
  8
0
  0
BLOCK
  8
0
  2
*D42
 70
    65
 10
0.0
 20
0.0
 30
0.0
  3
*D
  0
LINE
  8
0
  6
BYBLOCK
 10
-1724.768185735975
 20
-4470.706795597555
 30
0.0
 11
-1724.768185735975
 21
-3829.693133198558
 31
0.0
  0
LINE
  8
0
  6
BYBLOCK
 10
-209.911686251044
 20
-4481.198814266791
 30
0.0
 11
-209.911686251044
 21
-3829.693133198558
 31
0.0
  0
LINE
  8
0
  6
BYBLOCK
 10
-1644.768185735975
 20
-3830.693133198558
 30
0.0
 11
-289.911686251044
 21
-3830.693133198558
 31
0.0
  0
SOLID
  8
0
  6
BYBLOCK
 10
-1644.768185735975
 20
-3817.359799865225
 30
0.0
 11
-1644.768185735975
 21
-3844.026466531892
 31
0.0
 12
-1724.768185735975
 22
-3830.693133198558
 32
0.0
 13
-1724.768185735975
 23
-3830.693133198558
 33
0.0
  0
SOLID
  8
0
  6
BYBLOCK
 10
-289.911686251044
 20
-3817.359799865225
 30
0.0
 11
-289.911686251044
 21
-3844.026466531892
 31
0.0
 12
-209.911686251044
 22
-3830.693133198558
 32
0.0
 13
-209.911686251044
 23
-3830.693133198558
 33
0.0
  0
TEXT
  8
0
  6
BYBLOCK
 62
     6
 10
-1125.435174088748
 20
-3790.693133198558
 30
0.0
 40
80.0
  1
1515
  7
ROMANS
 72
     1
 11
-967.33993599351
 21
-3750.693133198558
 31
0.0
 73
     2
  0
POINT
  8
DEFPOINTS
  6
BYBLOCK
 62
     0
 10
-1724.768185735975
 20
-4470.706795597555
 30
0.0
  0
POINT
  8
DEFPOINTS
  6
BYBLOCK
 62
     0
 10
-209.911686251044
 20
-4481.198814266791
 30
0.0
  0
POINT
  8
DEFPOINTS
  6
BYBLOCK
 62
     0
 10
-209.911686251044
 20
-3830.693133198558
 30
0.0
  0
ENDBLK
  8
0
  0
BLOCK
  8
0
  2
*D43
 70
    65
 10
0.0
 20
0.0
 30
0.0
  3
*D
  0
LINE
  8
0
  6
BYBLOCK
 10
-209.911686251044
 20
-7383.768280059911
 30
0.0
 11
201.595594286613
 21
-7383.768280059911
 31
0.0
  0
LINE
  8
0
  6
BYBLOCK
 10
-209.911686251044
 20
-9378.768280059913
 30
0.0
 11
201.595594286613
 21
-9378.768280059913
 31
0.0
  0
LINE
  8
0
  6
BYBLOCK
 10
200.595594286613
 20
-7463.76828005991
 30
0.0
 11
200.595594286613
 21
-9298.768280059913
 31
0.0
  0
SOLID
  8
0
  6
BYBLOCK
 10
187.262260953279
 20
-7463.76828005991
 30
0.0
 11
213.928927619946
 21
-7463.76828005991
 31
0.0
 12
200.595594286613
 22
-7383.768280059911
 32
0.0
 13
200.595594286613
 23
-7383.768280059911
 33
0.0
  0
SOLID
  8
0
  6
BYBLOCK
 10
187.262260953279
 20
-9298.768280059913
 30
0.0
 11
213.928927619946
 21
-9298.768280059913
 31
0.0
 12
200.595594286613
 22
-9378.768280059913
 32
0.0
 13
200.595594286613
 23
-9378.768280059913
 33
0.0
  0
TEXT
  8
0
  6
BYBLOCK
 62
     6
 10
160.595594286613
 20
-8539.363518155148
 30
0.0
 40
80.0
  1
1995
 50
90.0
  7
ROMANS
 72
     1
 11
120.595594286613
 21
-8381.268280059911
 31
0.0
 73
     2
  0
POINT
  8
DEFPOINTS
  6
BYBLOCK
 62
     0
 10
-209.911686251044
 20
-7383.768280059911
 30
0.0
  0
POINT
  8
DEFPOINTS
  6
BYBLOCK
 62
     0
 10
-209.911686251044
 20
-9378.768280059913
 30
0.0
  0
POINT
  8
DEFPOINTS
  6
BYBLOCK
 62
     0
 10
200.595594286613
 20
-9378.768280059913
 30
0.0
  0
ENDBLK
  8
0
  0
BLOCK
  8
0
  2
*D44
 70
    65
 10
0.0
 20
0.0
 30
0.0
  3
*D
  0
LINE
  8
0
  6
BYBLOCK
 10
-1724.768185735975
 20
-7383.768280059911
 30
0.0
 11
-1724.768185735975
 21
-7097.035012212515
 31
0.0
  0
LINE
  8
0
  6
BYBLOCK
 10
-209.911686251044
 20
-7383.768280059911
 30
0.0
 11
-209.911686251044
 21
-7097.035012212515
 31
0.0
  0
LINE
  8
0
  6
BYBLOCK
 10
-1644.768185735975
 20
-7098.035012212515
 30
0.0
 11
-289.911686251044
 21
-7098.035012212515
 31
0.0
  0
SOLID
  8
0
  6
BYBLOCK
 10
-1644.768185735975
 20
-7084.701678879182
 30
0.0
 11
-1644.768185735975
 21
-7111.368345545848
 31
0.0
 12
-1724.768185735975
 22
-7098.035012212515
 32
0.0
 13
-1724.768185735975
 23
-7098.035012212515
 33
0.0
  0
SOLID
  8
0
  6
BYBLOCK
 10
-289.911686251044
 20
-7084.701678879182
 30
0.0
 11
-289.911686251044
 21
-7111.368345545848
 31
0.0
 12
-209.911686251044
 22
-7098.035012212515
 32
0.0
 13
-209.911686251044
 23
-7098.035012212515
 33
0.0
  0
TEXT
  8
0
  6
BYBLOCK
 62
     6
 10
-1125.435174088747
 20
-7058.035012212514
 30
0.0
 40
80.0
  1
1515
  7
ROMANS
 72
     1
 11
-967.33993599351
 21
-7018.035012212514
 31
0.0
 73
     2
  0
POINT
  8
DEFPOINTS
  6
BYBLOCK
 62
     0
 10
-1724.768185735975
 20
-7383.768280059911
 30
0.0
  0
POINT
  8
DEFPOINTS
  6
BYBLOCK
 62
     0
 10
-209.911686251044
 20
-7383.768280059911
 30
0.0
  0
POINT
  8
DEFPOINTS
  6
BYBLOCK
 62
     0
 10
-209.911686251044
 20
-7098.035012212515
 30
0.0
  0
ENDBLK
  8
0
  0
ENDSEC
  0
SECTION
  2
ENTITIES
  0
VIEWPORT
  8
0
 67
     1
 68
     1
 10
210.0
 20
151.361256544503
 30
0.0
 40
420.0
 41
302.722513089005
 69
     1
1001
ACAD
1000
MVIEW
1002
{
1070
    16
1010
0.0
1020
0.0
1030
0.0
1010
0.0
1020
0.0
1030
1.0
1040
0.0
1040
302.722513089005
1040
210.0
1040
151.361256544503
1040
50.0
1040
0.0
1040
0.0
1070
     0
1070
 20000
1070
     1
1070
     1
1070
     0
1070
     0
1070
     0
1070
     0
1040
0.0
1040
0.0
1040
0.0
1040
10.0
1040
10.0
1040
10.0
1040
10.0
1070
     0
1002
{
1002
}
1002
}
  0
POINT
  8
DUN
 10
-1865.894360163032
 20
-5052.309669571499
 30
0.0
  0
POINT
  8
DUN
 10
-1833.201841698097
 20
-5103.146107378285
 30
0.0
  0
POINT
  8
DUN
 10
-1804.141825284821
 20
-5139.45792564984
 30
0.0
  0
LINE
  8
DIK
 10
-2124.889482498713
 20
-4905.696692393986
 30
0.0
 11
-1618.268185735974
 21
-4905.696692393986
 31
0.0
  0
CIRCLE
  8
DUN
 10
-1568.268185735974
 20
-4525.696692393984
 30
0.0
 40
17.5
  0
CIRCLE
  8
DUN
 10
-1568.268185735974
 20
-4525.696692393984
 30
0.0
 40
12.5
  0
LINE
  8
DUN
 10
-1618.268185735974
 20
-4505.696692393985
 30
0.0
 11
-1618.268185735975
 21
-5093.297379785604
 31
0.0
  0
LINE
  8
DUN
 10
-1518.268185735975
 20
-5093.837670162173
 30
0.0
 11
-1518.268185735974
 21
-4505.696692393985
 31
0.0
  0
LINE
  8
DUN
 10
-1518.268185735974
 20
-4505.696692393985
 30
0.0
 11
-1618.268185735974
 21
-4505.696692393985
 31
0.0
  0
CIRCLE
  8
DUN
 10
-1568.268185735974
 20
-4585.696692393984
 30
0.0
 40
17.5
  0
CIRCLE
  8
DUN
 10
-1568.268185735974
 20
-4585.696692393984
 30
0.0
 40
12.5
  0
CIRCLE
  8
DUN
 10
-967.214628234776
 20
-4235.696692393985
 30
0.0
 40
12.5
  0
CIRCLE
  8
DUN
 10
-967.214628234776
 20
-4235.696692393985
 30
0.0
 40
17.5
  0
CIRCLE
  8
DUN
 10
-967.214628234776
 20
-4175.696692393985
 30
0.0
 40
12.5
  0
CIRCLE
  8
DUN
 10
-967.214628234776
 20
-4175.696692393985
 30
0.0
 40
17.5
  0
INSERT
  8
DUN
 62
     8
  2
*X19
 10
-4634.007409810266
 20
-3872.419779033562
 30
0.0
 41
-0.5
 42
0.5
 50
360.0
 43
0.5
1001
ACAD
1000
HATCH
1002
{
1070
    16
1000
AR-CONC
1040
0.5
1040
0.0
1002
}
  0
LINE
  8
DUN
 10
-1445.383082579063
 20
-5322.696692393983
 30
0.0
 11
-1691.33244966767
 21
-5322.696692393983
 31
0.0
  0
LINE
  8
DUN
 10
-1614.718277582771
 20
-5082.137377379376
 30
0.0
 11
-1691.060371944105
 21
-5322.137377379372
 31
0.0
  0
LINE
  8
DUN
 10
-1267.218277582772
 20
-5405.696692393986
 30
0.0
 11
-1868.357766123367
 21
-5405.696692393985
 31
0.0
  0
LINE
  8
DUN
 10
-1267.218277582771
 20
-5325.696692393987
 30
0.0
 11
-1868.357766123366
 21
-5325.696692393984
 31
0.0
  0
LINE
  8
DUN
 10
-1868.357766123366
 20
-5325.696692393984
 30
0.0
 11
-1868.357766123367
 21
-5405.696692393985
 31
0.0
  0
LINE
  8
DUN
 10
-1521.989955967972
 20
-5082.137377379376
 30
0.0
 11
-1444.515671762036
 21
-5325.696692393983
 31
0.0
  0
CIRCLE
  8
DUN
 10
-1537.969335031654
 20
-5283.038049171125
 30
0.0
 40
5.25
  0
LINE
  8
DUN
 10
-1648.357766123367
 20
-5320.696692393982
 30
0.0
 11
-1648.357766123367
 21
-5322.696692393983
 31
0.0
  0
LINE
  8
DUN
 10
-1628.357766123367
 20
-5320.696692393982
 30
0.0
 11
-1628.357766123367
 21
-5322.696692393983
 31
0.0
  0
ARC
  8
DUN
 10
-1645.857766123367
 20
-5319.696692393983
 30
0.0
 40
1.0
 50
180.0
 51
270.0
  0
LINE
  8
DUN
 10
-1646.857766123367
 20
-5319.696692393983
 30
0.0
 11
-1646.857766123367
 21
-5313.696692393983
 31
0.0
  0
ARC
  8
DUN
 10
-1645.857766123367
 20
-5313.696692393983
 30
0.0
 40
1.0
 50
90.0
 51
180.0
  0
LINE
  8
DUN
 10
-1633.357766123367
 20
-5312.696692393982
 30
0.0
 11
-1633.357766123367
 21
-5308.696692393983
 31
0.0
  0
LINE
  8
DUN
 10
-1634.357766123367
 20
-5312.696692393982
 30
0.0
 11
-1634.357766123367
 21
-5307.696692393983
 31
0.0
  0
LINE
  8
DUN
 10
-1633.357766123367
 20
-5308.696692393983
 30
0.0
 11
-1634.357766123367
 21
-5307.696692393983
 31
0.0
  0
LINE
  8
DUN
 10
-1634.357766123367
 20
-5307.696692393983
 30
0.0
 11
-1642.357766123367
 21
-5307.696692393983
 31
0.0
  0
LINE
  8
DUN
 10
-1633.357766123367
 20
-5308.696692393983
 30
0.0
 11
-1643.357766123367
 21
-5308.696692393983
 31
0.0
  0
LINE
  8
DUN
 10
-1643.357766123367
 20
-5312.696692393982
 30
0.0
 11
-1643.357766123367
 21
-5308.696692393983
 31
0.0
  0
LINE
  8
DUN
 10
-1643.357766123367
 20
-5308.696692393983
 30
0.0
 11
-1642.357766123367
 21
-5307.696692393983
 31
0.0
  0
LINE
  8
DUN
 10
-1642.357766123367
 20
-5312.696692393982
 30
0.0
 11
-1642.357766123367
 21
-5307.696692393983
 31
0.0
  0
ARC
  8
DUN
 10
-1641.874485417515
 20
-5319.696692393983
 30
0.0
 40
1.0
 50
180.0
 51
270.0
  0
ARC
  8
DUN
 10
-1641.874485417515
 20
-5313.696692393983
 30
0.0
 40
1.0
 50
89.999999999999
 51
180.0
  0
ARC
  8
DUN
 10
-1643.874485417515
 20
-5319.696692393983
 30
0.0
 40
1.0
 50
270.0
 51
360.0
  0
LINE
  8
DUN
 10
-1642.874485417515
 20
-5319.696692393983
 30
0.0
 11
-1642.874485417515
 21
-5313.696692393983
 31
0.0
  0
ARC
  8
DUN
 10
-1643.874485417515
 20
-5313.696692393983
 30
0.0
 40
1.0
 50
360.0
 51
90.0
  0
ARC
  8
DUN
 10
-1634.841046829219
 20
-5319.696692393983
 30
0.0
 40
1.0
 50
270.0
 51
360.0
  0
ARC
  8
DUN
 10
-1630.857766123367
 20
-5319.696692393983
 30
0.0
 40
1.0
 50
270.0
 51
360.0
  0
ARC
  8
DUN
 10
-1632.841046829219
 20
-5319.696692393983
 30
0.0
 40
1.0
 50
180.0
 51
270.0
  0
LINE
  8
DUN
 10
-1633.841046829219
 20
-5319.696692393983
 30
0.0
 11
-1633.841046829219
 21
-5313.696692393983
 31
0.0
  0
LINE
  8
DUN
 10
-1629.857766123367
 20
-5319.696692393983
 30
0.0
 11
-1629.857766123367
 21
-5313.696692393983
 31
0.0
  0
ARC
  8
DUN
 10
-1632.841046829219
 20
-5313.696692393983
 30
0.0
 40
1.0
 50
90.0
 51
180.0
  0
ARC
  8
DUN
 10
-1630.857766123367
 20
-5313.696692393983
 30
0.0
 40
1.0
 50
360.0
 51
90.0
  0
ARC
  8
DUN
 10
-1634.841046829219
 20
-5313.696692393983
 30
0.0
 40
1.0
 50
360.0
 51
89.999999999999
  0
LINE
  8
DUN
 10
-1628.357766123367
 20
-5320.696692393982
 30
0.0
 11
-1648.357766123367
 21
-5320.696692393982
 31
0.0
  0
LINE
  8
DUN
 10
-1630.857766123367
 20
-5312.696692393982
 30
0.0
 11
-1645.857766123367
 21
-5312.696692393982
 31
0.0
  0
CIRCLE
  8
DUN
 10
-1625.332193153373
 20
-5275.912443123853
 30
0.0
 40
8.5
  0
CIRCLE
  8
DUN
 10
-1625.332193153373
 20
-5276.162443123853
 30
0.0
 40
5.25
  0
POLYLINE
  8
DUN
 66
     1
 10
0.0
 20
0.0
 30
0.0
 70
     1
  0
VERTEX
  8
DUN
 10
-1620.424715865261
 20
-5267.412443123853
 30
0.0
  0
VERTEX
  8
DUN
 10
-1615.517238577151
 20
-5275.912443123855
 30
0.0
  0
VERTEX
  8
DUN
 10
-1620.424715865261
 20
-5284.412443123853
 30
0.0
  0
VERTEX
  8
DUN
 10
-1630.239670441485
 20
-5284.412443123853
 30
0.0
  0
VERTEX
  8
DUN
 10
-1635.147147729596
 20
-5275.912443123853
 30
0.0
  0
VERTEX
  8
DUN
 10
-1630.239670441485
 20
-5267.412443123853
 30
0.0
  0
SEQEND
  8
DUN
  0
ARC
  8
DUN
 10
-1636.71164226727
 20
-5405.055438488888
 30
0.0
 40
10.699790501663
 50
200.836746373359
 51
339.163253626641
  0
LINE
  8
DUN
 10
-1661.71164226727
 20
-5408.861422826677
 30
0.0
 11
-1661.71164226727
 21
-5405.861422826677
 31
0.0
  0
LINE
  8
DUN
 10
-1611.71164226727
 20
-5408.861422826677
 30
0.0
 11
-1611.71164226727
 21
-5405.861422826677
 31
0.0
  0
LINE
  8
DUN
 10
-1661.71164226727
 20
-5408.861422826677
 30
0.0
 11
-1611.71164226727
 21
-5408.861422826677
 31
0.0
  0
CIRCLE
  8
DUN
 10
-1598.74619721508
 20
-5283.038049171125
 30
0.0
 40
5.25
  0
CIRCLE
  8
DUN
 10
-1625.332193153373
 20
-5276.162443123853
 30
0.0
 40
5.25
  0
CIRCLE
  8
DUN
 10
-1642.31596192799
 20
-5269.300555125394
 30
0.0
 40
5.25
  0
CIRCLE
  8
DUN
 10
-1568.357766123367
 20
-5285.696692393988
 30
0.0
 40
5.25
  0
CIRCLE
  8
DUN
 10
-1568.357766123367
 20
-5285.696692393988
 30
0.0
 40
5.25
  0
LINE
  8
DUN
 10
-1677.838706267007
 20
-5280.571845426789
 30
0.0
 11
-1679.607837254169
 21
-5279.962684776382
 31
0.0
  0
LINE
  8
DUN
 10
-1488.357766123367
 20
-5320.696692393982
 30
0.0
 11
-1488.357766123367
 21
-5322.696692393983
 31
0.0
  0
LINE
  8
DUN
 10
-1508.357766123367
 20
-5320.696692393982
 30
0.0
 11
-1508.357766123367
 21
-5322.696692393983
 31
0.0
  0
LINE
  8
DUN
 10
-1488.357766123367
 20
-5320.696692393982
 30
0.0
 11
-1508.357766123367
 21
-5320.696692393982
 31
0.0
  0
ARC
  8
DUN
 10
-1503.874485417515
 20
-5319.696692393983
 30
0.0
 40
1.0
 50
270.0
 51
360.0
  0
ARC
  8
DUN
 10
-1505.857766123367
 20
-5319.696692393983
 30
0.0
 40
1.0
 50
180.0
 51
270.0
  0
ARC
  8
DUN
 10
-1494.841046829219
 20
-5319.696692393983
 30
0.0
 40
1.0
 50
270.0
 51
360.0
  0
ARC
  8
DUN
 10
-1490.857766123367
 20
-5319.696692393983
 30
0.0
 40
1.0
 50
270.0
 51
360.0
  0
ARC
  8
DUN
 10
-1492.841046829219
 20
-5319.696692393983
 30
0.0
 40
1.0
 50
180.0
 51
270.0
  0
ARC
  8
DUN
 10
-1501.874485417515
 20
-5319.696692393983
 30
0.0
 40
1.0
 50
180.0
 51
270.0
  0
LINE
  8
DUN
 10
-1502.874485417515
 20
-5319.696692393983
 30
0.0
 11
-1502.874485417515
 21
-5313.696692393983
 31
0.0
  0
LINE
  8
DUN
 10
-1506.857766123367
 20
-5319.696692393983
 30
0.0
 11
-1506.857766123367
 21
-5313.696692393983
 31
0.0
  0
ARC
  8
DUN
 10
-1505.857766123367
 20
-5313.696692393983
 30
0.0
 40
1.0
 50
90.0
 51
180.0
  0
ARC
  8
DUN
 10
-1503.874485417515
 20
-5313.696692393983
 30
0.0
 40
1.0
 50
360.0
 51
90.0
  0
LINE
  8
DUN
 10
-1502.357766123367
 20
-5312.696692393982
 30
0.0
 11
-1502.357766123367
 21
-5307.696692393983
 31
0.0
  0
LINE
  8
DUN
 10
-1503.357766123367
 20
-5308.696692393983
 30
0.0
 11
-1502.357766123367
 21
-5307.696692393983
 31
0.0
  0
LINE
  8
DUN
 10
-1503.357766123367
 20
-5312.696692393982
 30
0.0
 11
-1503.357766123367
 21
-5308.696692393983
 31
0.0
  0
ARC
  8
DUN
 10
-1501.874485417515
 20
-5313.696692393983
 30
0.0
 40
1.0
 50
89.999999999999
 51
180.0
  0
LINE
  8
DUN
 10
-1493.841046829219
 20
-5319.696692393983
 30
0.0
 11
-1493.841046829219
 21
-5313.696692393983
 31
0.0
  0
LINE
  8
DUN
 10
-1489.857766123367
 20
-5319.696692393983
 30
0.0
 11
-1489.857766123367
 21
-5313.696692393983
 31
0.0
  0
ARC
  8
DUN
 10
-1492.841046829219
 20
-5313.696692393983
 30
0.0
 40
1.0
 50
90.0
 51
180.0
  0
ARC
  8
DUN
 10
-1490.857766123367
 20
-5313.696692393983
 30
0.0
 40
1.0
 50
360.0
 51
90.0
  0
LINE
  8
DUN
 10
-1493.357766123367
 20
-5308.696692393983
 30
0.0
 11
-1494.357766123367
 21
-5307.696692393983
 31
0.0
  0
LINE
  8
DUN
 10
-1494.357766123367
 20
-5312.696692393982
 30
0.0
 11
-1494.357766123367
 21
-5307.696692393983
 31
0.0
  0
LINE
  8
DUN
 10
-1493.357766123367
 20
-5312.696692393982
 30
0.0
 11
-1493.357766123367
 21
-5308.696692393983
 31
0.0
  0
ARC
  8
DUN
 10
-1494.841046829219
 20
-5313.696692393983
 30
0.0
 40
1.0
 50
360.0
 51
89.999999999999
  0
LINE
  8
DUN
 10
-1493.357766123367
 20
-5308.696692393983
 30
0.0
 11
-1503.357766123367
 21
-5308.696692393983
 31
0.0
  0
LINE
  8
DUN
 10
-1494.357766123367
 20
-5307.696692393983
 30
0.0
 11
-1502.357766123367
 21
-5307.696692393983
 31
0.0
  0
LINE
  8
DUN
 10
-1490.857766123367
 20
-5312.696692393982
 30
0.0
 11
-1505.857766123367
 21
-5312.696692393982
 31
0.0
  0
LINE
  8
DUN
 10
-1471.71164226727
 20
-5408.861422826677
 30
0.0
 11
-1521.71164226727
 21
-5408.861422826677
 31
0.0
  0
LINE
  8
DUN
 10
-1471.71164226727
 20
-5408.861422826677
 30
0.0
 11
-1471.71164226727
 21
-5405.861422826677
 31
0.0
  0
ARC
  8
DUN
 10
-1496.71164226727
 20
-5405.055438488888
 30
0.0
 40
10.699790501663
 50
200.836746373359
 51
339.163253626641
  0
LINE
  8
DUN
 10
-1521.71164226727
 20
-5408.861422826677
 30
0.0
 11
-1521.71164226727
 21
-5405.861422826677
 31
0.0
  0
CIRCLE
  8
DUN
 10
-1494.399570318745
 20
-5269.300555125401
 30
0.0
 40
5.25
  0
CIRCLE
  8
DUN
 10
-1511.383339093365
 20
-5276.162443123868
 30
0.0
 40
5.25
  0
CIRCLE
  8
DUN
 10
-1511.383339093363
 20
-5276.162443123868
 30
0.0
 40
5.25
  0
CIRCLE
  8
DUN
 10
-1541.940085566562
 20
-5120.948947374821
 30
0.0
 40
5.25
  0
LINE
  8
DUN
 10
-1521.989955967972
 20
-5082.137377379376
 30
0.0
 11
-1614.718277582771
 21
-5082.137377379376
 31
0.0
  0
LINE
  8
DUN
 10
-1521.989955967972
 20
-5082.137377379376
 30
0.0
 11
-1614.718277582771
 21
-5082.137377379376
 31
0.0
  0
CIRCLE
  8
DUN
 10
-1620.461073871013
 20
-5137.787876652331
 30
0.0
 40
5.25
  0
CIRCLE
  8
DUN
 10
-1568.357766123366
 20
-5105.696692393988
 30
0.0
 40
5.25
  0
CIRCLE
  8
DUN
 10
-1568.357766123366
 20
-5105.696692393988
 30
0.0
 40
8.5
  0
POLYLINE
  8
DUN
 66
     1
 10
0.0
 20
0.0
 30
0.0
 70
     1
  0
VERTEX
  8
DUN
 10
-1563.450288835254
 20
-5097.196692393988
 30
0.0
  0
VERTEX
  8
DUN
 10
-1558.542811547143
 20
-5105.696692393988
 30
0.0
  0
VERTEX
  8
DUN
 10
-1563.450288835254
 20
-5114.196692393988
 30
0.0
  0
VERTEX
  8
DUN
 10
-1573.265243411478
 20
-5114.196692393988
 30
0.0
  0
VERTEX
  8
DUN
 10
-1578.172720699588
 20
-5105.696692393988
 30
0.0
  0
VERTEX
  8
DUN
 10
-1573.265243411478
 20
-5097.196692393988
 30
0.0
  0
SEQEND
  8
DUN
  0
CIRCLE
  8
DUN
 10
-1594.775446680168
 20
-5120.948947374821
 30
0.0
 40
5.25
  0
CIRCLE
  8
DUN
 10
-1568.357766123366
 20
-5105.696692393988
 30
0.0
 40
5.25
  0
CIRCLE
  8
DUN
 10
-1568.357766123366
 20
-5105.696692393988
 30
0.0
 40
5.25
  0
CIRCLE
  8
DUN
 10
-1516.254458375719
 20
-5137.787876652333
 30
0.0
 40
5.25
  0
LINE
  8
DUN
 10
-1267.218277582771
 20
-5325.696692393987
 30
0.0
 11
-1267.218277582772
 21
-5405.696692393986
 31
0.0
  0
LINE
  8
DIK
 10
-1518.268185735974
 20
-4905.696692393986
 30
0.0
 11
-1017.214628234776
 21
-4905.696692393986
 31
0.0
  0
POLYLINE
  8
DUN
 66
     1
 10
0.0
 20
0.0
 30
0.0
  0
VERTEX
  8
DUN
 10
-1718.268185735974
 20
-4505.696692393985
 30
0.0
  0
VERTEX
  8
DUN
 10
-1718.268185735974
 20
-4605.696692393984
 30
0.0
  0
VERTEX
  8
DUN
 10
-1618.268185735974
 20
-4605.696692393984
 30
0.0
  0
SEQEND
  8
DUN
  0
POLYLINE
  8
DUN
 66
     1
 10
0.0
 20
0.0
 30
0.0
  0
VERTEX
  8
DUN
 10
-1518.268185735974
 20
-4605.696692393984
 30
0.0
  0
VERTEX
  8
DUN
 10
-1418.268185735974
 20
-4605.696692393984
 30
0.0
  0
VERTEX
  8
DUN
 10
-1418.268185735974
 20
-4505.696692393985
 30
0.0
  0
VERTEX
  8
DUN
 10
-1718.268185735974
 20
-4505.696692393985
 30
0.0
  0
SEQEND
  8
DUN
  0
LINE
  8
DUN
 10
-844.243594038468
 20
-5322.696692393984
 30
0.0
 11
-1090.192961127075
 21
-5322.696692393984
 31
0.0
  0
LINE
  8
DUN
 10
-666.078789042175
 20
-5325.696692393988
 30
0.0
 11
-1267.218277582771
 21
-5325.696692393987
 31
0.0
  0
LINE
  8
DUN
 10
-666.078789042176
 20
-5405.696692393989
 30
0.0
 11
-1267.218277582772
 21
-5405.696692393986
 31
0.0
  0
INSERT
  8
DUN
 62
     8
  2
*X19
 10
-4032.867921269671
 20
-3872.419779033564
 30
0.0
 41
-0.5
 42
0.5
 50
360.0
 43
0.5
1001
ACAD
1000
HATCH
1002
{
1070
    16
1000
AR-CONC
1040
0.5
1040
0.0
1002
}
  0
LINE
  8
DUN
 10
-1060.572153726675
 20
-5408.861422826679
 30
0.0
 11
-1060.572153726675
 21
-5405.861422826679
 31
0.0
  0
LINE
  8
DUN
 10
-1010.572153726674
 20
-5408.861422826679
 30
0.0
 11
-1010.572153726674
 21
-5405.861422826679
 31
0.0
  0
ARC
  8
DUN
 10
-1035.572153726675
 20
-5405.05543848889
 30
0.0
 40
10.699790501663
 50
200.836746373359
 51
339.163253626641
  0
LINE
  8
DUN
 10
-1060.572153726675
 20
-5408.861422826679
 30
0.0
 11
-1010.572153726674
 21
-5408.861422826679
 31
0.0
  0
LINE
  8
DUN
 10
-1267.218277582771
 20
-5325.696692393987
 30
0.0
 11
-1267.218277582772
 21
-5405.696692393986
 31
0.0
  0
LINE
  8
DUN
 10
-1013.578789042175
 20
-5082.137377379377
 30
0.0
 11
-1089.92088340351
 21
-5322.137377379374
 31
0.0
  0
CIRCLE
  8
DUN
 10
-1024.192704612778
 20
-5276.162443123856
 30
0.0
 40
5.25
  0
POLYLINE
  8
DUN
 66
     1
 10
0.0
 20
0.0
 30
0.0
 70
     1
  0
VERTEX
  8
DUN
 10
-1019.285227324666
 20
-5267.412443123856
 30
0.0
  0
VERTEX
  8
DUN
 10
-1014.377750036556
 20
-5275.912443123857
 30
0.0
  0
VERTEX
  8
DUN
 10
-1019.285227324666
 20
-5284.412443123855
 30
0.0
  0
VERTEX
  8
DUN
 10
-1029.10018190089
 20
-5284.412443123855
 30
0.0
  0
VERTEX
  8
DUN
 10
-1034.007659189001
 20
-5275.912443123855
 30
0.0
  0
VERTEX
  8
DUN
 10
-1029.10018190089
 20
-5267.412443123856
 30
0.0
  0
SEQEND
  8
DUN
  0
CIRCLE
  8
DUN
 10
-1024.192704612778
 20
-5276.162443123856
 30
0.0
 40
5.25
  0
CIRCLE
  8
DUN
 10
-1024.192704612778
 20
-5275.912443123855
 30
0.0
 40
8.5
  0
CIRCLE
  8
DUN
 10
-1041.176473387395
 20
-5269.300555125396
 30
0.0
 40
5.25
  0
LINE
  8
DUN
 10
-1029.718277582772
 20
-5312.696692393985
 30
0.0
 11
-1044.718277582771
 21
-5312.696692393985
 31
0.0
  0
LINE
  8
DUN
 10
-1027.218277582771
 20
-5320.696692393984
 30
0.0
 11
-1047.218277582772
 21
-5320.696692393984
 31
0.0
  0
ARC
  8
DUN
 10
-1033.701558288623
 20
-5313.696692393985
 30
0.0
 40
1.0
 50
360.0
 51
89.999999999999
  0
ARC
  8
DUN
 10
-1029.718277582772
 20
-5313.696692393985
 30
0.0
 40
1.0
 50
360.0
 51
90.0
  0
ARC
  8
DUN
 10
-1031.701558288623
 20
-5313.696692393985
 30
0.0
 40
1.0
 50
90.0
 51
180.0
  0
LINE
  8
DUN
 10
-1028.718277582771
 20
-5319.696692393985
 30
0.0
 11
-1028.718277582771
 21
-5313.696692393985
 31
0.0
  0
LINE
  8
DUN
 10
-1032.701558288623
 20
-5319.696692393985
 30
0.0
 11
-1032.701558288623
 21
-5313.696692393985
 31
0.0
  0
ARC
  8
DUN
 10
-1031.701558288623
 20
-5319.696692393985
 30
0.0
 40
1.0
 50
180.0
 51
270.0
  0
ARC
  8
DUN
 10
-1029.718277582772
 20
-5319.696692393985
 30
0.0
 40
1.0
 50
270.0
 51
360.0
  0
ARC
  8
DUN
 10
-1033.701558288623
 20
-5319.696692393985
 30
0.0
 40
1.0
 50
270.0
 51
360.0
  0
ARC
  8
DUN
 10
-1042.734996876919
 20
-5313.696692393985
 30
0.0
 40
1.0
 50
360.0
 51
90.0
  0
LINE
  8
DUN
 10
-1041.734996876919
 20
-5319.696692393985
 30
0.0
 11
-1041.734996876919
 21
-5313.696692393985
 31
0.0
  0
ARC
  8
DUN
 10
-1042.734996876919
 20
-5319.696692393985
 30
0.0
 40
1.0
 50
270.0
 51
360.0
  0
ARC
  8
DUN
 10
-1040.734996876919
 20
-5313.696692393985
 30
0.0
 40
1.0
 50
89.999999999999
 51
180.0
  0
ARC
  8
DUN
 10
-1040.734996876919
 20
-5319.696692393985
 30
0.0
 40
1.0
 50
180.0
 51
270.0
  0
LINE
  8
DUN
 10
-1041.218277582771
 20
-5312.696692393985
 30
0.0
 11
-1041.218277582771
 21
-5307.696692393984
 31
0.0
  0
LINE
  8
DUN
 10
-1042.218277582771
 20
-5308.696692393984
 30
0.0
 11
-1041.218277582771
 21
-5307.696692393984
 31
0.0
  0
LINE
  8
DUN
 10
-1042.218277582771
 20
-5312.696692393985
 30
0.0
 11
-1042.218277582771
 21
-5308.696692393984
 31
0.0
  0
LINE
  8
DUN
 10
-1032.218277582771
 20
-5308.696692393984
 30
0.0
 11
-1042.218277582771
 21
-5308.696692393984
 31
0.0
  0
LINE
  8
DUN
 10
-1033.218277582771
 20
-5307.696692393984
 30
0.0
 11
-1041.218277582771
 21
-5307.696692393984
 31
0.0
  0
LINE
  8
DUN
 10
-1032.218277582771
 20
-5308.696692393984
 30
0.0
 11
-1033.218277582771
 21
-5307.696692393984
 31
0.0
  0
LINE
  8
DUN
 10
-1033.218277582771
 20
-5312.696692393985
 30
0.0
 11
-1033.218277582771
 21
-5307.696692393984
 31
0.0
  0
LINE
  8
DUN
 10
-1032.218277582771
 20
-5312.696692393985
 30
0.0
 11
-1032.218277582771
 21
-5308.696692393984
 31
0.0
  0
ARC
  8
DUN
 10
-1044.718277582771
 20
-5313.696692393985
 30
0.0
 40
1.0
 50
90.0
 51
180.0
  0
LINE
  8
DUN
 10
-1045.718277582772
 20
-5319.696692393985
 30
0.0
 11
-1045.718277582772
 21
-5313.696692393985
 31
0.0
  0
ARC
  8
DUN
 10
-1044.718277582771
 20
-5319.696692393985
 30
0.0
 40
1.0
 50
180.0
 51
270.0
  0
LINE
  8
DUN
 10
-1027.218277582771
 20
-5320.696692393984
 30
0.0
 11
-1027.218277582771
 21
-5322.696692393984
 31
0.0
  0
LINE
  8
DUN
 10
-1047.218277582772
 20
-5320.696692393984
 30
0.0
 11
-1047.218277582772
 21
-5322.696692393984
 31
0.0
  0
LINE
  8
DUN
 10
-1076.699217726412
 20
-5280.57184542679
 30
0.0
 11
-1078.468348713573
 21
-5279.962684776384
 31
0.0
  0
LINE
  8
DUN
 10
-920.572153726675
 20
-5408.861422826679
 30
0.0
 11
-920.572153726675
 21
-5405.861422826679
 31
0.0
  0
LINE
  8
DUN
 10
-870.572153726675
 20
-5408.861422826679
 30
0.0
 11
-870.572153726675
 21
-5405.861422826679
 31
0.0
  0
LINE
  8
DUN
 10
-870.572153726675
 20
-5408.861422826679
 30
0.0
 11
-920.572153726675
 21
-5408.861422826679
 31
0.0
  0
ARC
  8
DUN
 10
-895.572153726675
 20
-5405.05543848889
 30
0.0
 40
10.699790501663
 50
200.836746373359
 51
339.163253626641
  0
LINE
  8
DUN
 10
-920.850467427377
 20
-5082.137377379377
 30
0.0
 11
-843.376183221441
 21
-5325.696692393984
 31
0.0
  0
CIRCLE
  8
DUN
 10
-910.243850552768
 20
-5276.16244312387
 30
0.0
 40
5.25
  0
CIRCLE
  8
DUN
 10
-910.24385055277
 20
-5276.16244312387
 30
0.0
 40
5.25
  0
CIRCLE
  8
DUN
 10
-936.829846491059
 20
-5283.038049171127
 30
0.0
 40
5.25
  0
CIRCLE
  8
DUN
 10
-967.218277582772
 20
-5285.69669239399
 30
0.0
 40
5.25
  0
CIRCLE
  8
DUN
 10
-967.218277582772
 20
-5285.69669239399
 30
0.0
 40
5.25
  0
CIRCLE
  8
DUN
 10
-997.606708674484
 20
-5283.038049171127
 30
0.0
 40
5.25
  0
CIRCLE
  8
DUN
 10
-893.26008177815
 20
-5269.300555125404
 30
0.0
 40
5.25
  0
LINE
  8
DUN
 10
-889.718277582772
 20
-5312.696692393985
 30
0.0
 11
-904.718277582772
 21
-5312.696692393985
 31
0.0
  0
LINE
  8
DUN
 10
-893.218277582772
 20
-5307.696692393984
 30
0.0
 11
-901.218277582772
 21
-5307.696692393984
 31
0.0
  0
LINE
  8
DUN
 10
-892.218277582772
 20
-5308.696692393984
 30
0.0
 11
-902.218277582772
 21
-5308.696692393984
 31
0.0
  0
ARC
  8
DUN
 10
-893.701558288624
 20
-5313.696692393985
 30
0.0
 40
1.0
 50
360.0
 51
89.999999999999
  0
LINE
  8
DUN
 10
-892.218277582772
 20
-5312.696692393985
 30
0.0
 11
-892.218277582772
 21
-5308.696692393984
 31
0.0
  0
LINE
  8
DUN
 10
-893.218277582772
 20
-5312.696692393985
 30
0.0
 11
-893.218277582772
 21
-5307.696692393984
 31
0.0
  0
LINE
  8
DUN
 10
-892.218277582772
 20
-5308.696692393984
 30
0.0
 11
-893.218277582772
 21
-5307.696692393984
 31
0.0
  0
ARC
  8
DUN
 10
-889.718277582772
 20
-5313.696692393985
 30
0.0
 40
1.0
 50
360.0
 51
90.0
  0
ARC
  8
DUN
 10
-891.701558288624
 20
-5313.696692393985
 30
0.0
 40
1.0
 50
90.0
 51
180.0
  0
LINE
  8
DUN
 10
-888.718277582772
 20
-5319.696692393985
 30
0.0
 11
-888.718277582772
 21
-5313.696692393985
 31
0.0
  0
LINE
  8
DUN
 10
-892.701558288624
 20
-5319.696692393985
 30
0.0
 11
-892.701558288624
 21
-5313.696692393985
 31
0.0
  0
ARC
  8
DUN
 10
-900.73499687692
 20
-5313.696692393985
 30
0.0
 40
1.0
 50
89.999999999999
 51
180.0
  0
LINE
  8
DUN
 10
-902.218277582772
 20
-5312.696692393985
 30
0.0
 11
-902.218277582772
 21
-5308.696692393984
 31
0.0
  0
LINE
  8
DUN
 10
-902.218277582772
 20
-5308.696692393984
 30
0.0
 11
-901.218277582772
 21
-5307.696692393984
 31
0.0
  0
LINE
  8
DUN
 10
-901.218277582772
 20
-5312.696692393985
 30
0.0
 11
-901.218277582772
 21
-5307.696692393984
 31
0.0
  0
ARC
  8
DUN
 10
-902.73499687692
 20
-5313.696692393985
 30
0.0
 40
1.0
 50
360.0
 51
90.0
  0
ARC
  8
DUN
 10
-904.718277582772
 20
-5313.696692393985
 30
0.0
 40
1.0
 50
90.0
 51
180.0
  0
LINE
  8
DUN
 10
-905.718277582772
 20
-5319.696692393985
 30
0.0
 11
-905.718277582772
 21
-5313.696692393985
 31
0.0
  0
LINE
  8
DUN
 10
-901.73499687692
 20
-5319.696692393985
 30
0.0
 11
-901.73499687692
 21
-5313.696692393985
 31
0.0
  0
ARC
  8
DUN
 10
-900.73499687692
 20
-5319.696692393985
 30
0.0
 40
1.0
 50
180.0
 51
270.0
  0
ARC
  8
DUN
 10
-891.701558288624
 20
-5319.696692393985
 30
0.0
 40
1.0
 50
180.0
 51
270.0
  0
ARC
  8
DUN
 10
-889.718277582772
 20
-5319.696692393985
 30
0.0
 40
1.0
 50
270.0
 51
360.0
  0
ARC
  8
DUN
 10
-893.701558288624
 20
-5319.696692393985
 30
0.0
 40
1.0
 50
270.0
 51
360.0
  0
ARC
  8
DUN
 10
-904.718277582772
 20
-5319.696692393985
 30
0.0
 40
1.0
 50
180.0
 51
270.0
  0
ARC
  8
DUN
 10
-902.73499687692
 20
-5319.696692393985
 30
0.0
 40
1.0
 50
270.0
 51
360.0
  0
LINE
  8
DUN
 10
-887.218277582772
 20
-5320.696692393984
 30
0.0
 11
-907.218277582772
 21
-5320.696692393984
 31
0.0
  0
LINE
  8
DUN
 10
-907.218277582772
 20
-5320.696692393984
 30
0.0
 11
-907.218277582772
 21
-5322.696692393984
 31
0.0
  0
LINE
  8
DUN
 10
-887.218277582772
 20
-5320.696692393984
 30
0.0
 11
-887.218277582772
 21
-5322.696692393984
 31
0.0
  0
LINE
  8
DUN
 10
-666.078789042175
 20
-5325.696692393988
 30
0.0
 11
-666.078789042176
 21
-5405.696692393989
 31
0.0
  0
LINE
  8
DUN
 10
-920.850467427377
 20
-5082.137377379377
 30
0.0
 11
-1013.578789042175
 21
-5082.137377379377
 31
0.0
  0
LINE
  8
DUN
 10
-920.850467427377
 20
-5082.137377379377
 30
0.0
 11
-1013.578789042175
 21
-5082.137377379377
 31
0.0
  0
POINT
  8
DUN
 10
-1203.002336744225
 20
-5139.457925649842
 30
0.0
  0
CIRCLE
  8
DUN
 10
-1019.321585330418
 20
-5137.787876652333
 30
0.0
 40
5.25
  0
CIRCLE
  8
DUN
 10
-940.800597025967
 20
-5120.948947374823
 30
0.0
 40
5.25
  0
CIRCLE
  8
DUN
 10
-915.114969835124
 20
-5137.787876652335
 30
0.0
 40
5.25
  0
CIRCLE
  8
DUN
 10
-967.218277582771
 20
-5105.69669239399
 30
0.0
 40
5.25
  0
CIRCLE
  8
DUN
 10
-967.218277582771
 20
-5105.69669239399
 30
0.0
 40
5.25
  0
CIRCLE
  8
DUN
 10
-993.635958139573
 20
-5120.948947374823
 30
0.0
 40
5.25
  0
POLYLINE
  8
DUN
 66
     1
 10
0.0
 20
0.0
 30
0.0
 70
     1
  0
VERTEX
  8
DUN
 10
-962.310800294659
 20
-5097.19669239399
 30
0.0
  0
VERTEX
  8
DUN
 10
-957.403323006548
 20
-5105.69669239399
 30
0.0
  0
VERTEX
  8
DUN
 10
-962.310800294659
 20
-5114.196692393989
 30
0.0
  0
VERTEX
  8
DUN
 10
-972.125754870883
 20
-5114.196692393989
 30
0.0
  0
VERTEX
  8
DUN
 10
-977.033232158993
 20
-5105.69669239399
 30
0.0
  0
VERTEX
  8
DUN
 10
-972.125754870883
 20
-5097.19669239399
 30
0.0
  0
SEQEND
  8
DUN
  0
CIRCLE
  8
DUN
 10
-967.218277582771
 20
-5105.69669239399
 30
0.0
 40
8.5
  0
CIRCLE
  8
DUN
 10
-967.218277582771
 20
-5105.69669239399
 30
0.0
 40
5.25
  0
LINE
  8
DUN
 10
-1017.214628234776
 20
-4155.696692393985
 30
0.0
 11
-1017.214628234776
 21
-5093.567524973891
 31
0.0
  0
LINE
  8
DUN
 10
-917.214628234776
 20
-5093.567524973892
 30
0.0
 11
-917.214628234776
 21
-4155.696692393985
 31
0.0
  0
LINE
  8
DUN
 10
-417.411686251045
 20
-5093.837670162173
 30
0.0
 11
-417.411686251046
 21
-4505.696692393985
 31
0.0
  0
LINE
  8
DUN
 10
-317.411686251046
 20
-4505.696692393985
 30
0.0
 11
-317.411686251045
 21
-5093.297379785604
 31
0.0
  0
CIRCLE
  8
DUN
 10
-367.411686251046
 20
-4585.696692393984
 30
0.0
 40
12.5
  0
CIRCLE
  8
DUN
 10
-367.411686251046
 20
-4585.696692393984
 30
0.0
 40
17.5
  0
CIRCLE
  8
DUN
 10
-367.411686251046
 20
-4525.696692393984
 30
0.0
 40
12.5
  0
CIRCLE
  8
DUN
 10
-367.411686251046
 20
-4525.696692393984
 30
0.0
 40
17.5
  0
LINE
  8
DUN
 10
-417.411686251046
 20
-4505.696692393985
 30
0.0
 11
-317.411686251046
 21
-4505.696692393985
 31
0.0
  0
POLYLINE
  8
DUN
 66
     1
 10
0.0
 20
0.0
 30
0.0
  0
VERTEX
  8
DUN
 10
-417.411686251046
 20
-4605.696692393984
 30
0.0
  0
VERTEX
  8
DUN
 10
-517.411686251046
 20
-4605.696692393984
 30
0.0
  0
VERTEX
  8
DUN
 10
-517.411686251046
 20
-4505.696692393985
 30
0.0
  0
VERTEX
  8
DUN
 10
-217.411686251045
 20
-4505.696692393985
 30
0.0
  0
SEQEND
  8
DUN
  0
POLYLINE
  8
DUN
 66
     1
 10
0.0
 20
0.0
 30
0.0
  0
VERTEX
  8
DUN
 10
-217.411686251045
 20
-4505.696692393985
 30
0.0
  0
VERTEX
  8
DUN
 10
-217.411686251045
 20
-4605.696692393984
 30
0.0
  0
VERTEX
  8
DUN
 10
-317.411686251045
 20
-4605.696692393984
 30
0.0
  0
SEQEND
  8
DUN
  0
LINE
  8
DUN
 10
-413.689916019047
 20
-5082.137377379376
 30
0.0
 11
-320.961594404249
 21
-5082.137377379376
 31
0.0
  0
LINE
  8
DUN
 10
-413.689916019047
 20
-5082.137377379376
 30
0.0
 11
-320.961594404249
 21
-5082.137377379376
 31
0.0
  0
LINE
  8
DUN
 10
-490.296789407957
 20
-5322.696692393983
 30
0.0
 11
-244.347422319349
 21
-5322.696692393983
 31
0.0
  0
LINE
  8
DUN
 10
-668.461594404249
 20
-5325.696692393987
 30
0.0
 11
-67.322105863654
 21
-5325.696692393984
 31
0.0
  0
LINE
  8
DUN
 10
-668.461594404248
 20
-5405.696692393986
 30
0.0
 11
-67.322105863653
 21
-5405.696692393985
 31
0.0
  0
INSERT
  8
DUN
 62
     8
  2
*X19
 10
2698.327537823247
 20
-3872.419779033562
 30
0.0
 41
0.5
 42
0.5
 50
0.0
 43
0.5
1001
ACAD
1000
HATCH
1002
{
1070
    16
1000
AR-CONC
1040
0.5
1040
0.0
1002
}
  0
LINE
  8
DUN
 10
-273.96822971975
 20
-5408.861422826677
 30
0.0
 11
-273.96822971975
 21
-5405.861422826677
 31
0.0
  0
LINE
  8
DUN
 10
-323.96822971975
 20
-5408.861422826677
 30
0.0
 11
-323.96822971975
 21
-5405.861422826677
 31
0.0
  0
LINE
  8
DUN
 10
-273.96822971975
 20
-5408.861422826677
 30
0.0
 11
-323.96822971975
 21
-5408.861422826677
 31
0.0
  0
ARC
  8
DUN
 10
-298.96822971975
 20
-5405.055438488888
 30
0.0
 40
10.699790501663
 50
200.836746373359
 51
339.163253626642
  0
LINE
  8
DUN
 10
-67.322105863654
 20
-5325.696692393984
 30
0.0
 11
-67.322105863653
 21
-5405.696692393985
 31
0.0
  0
POINT
  8
DUN
 10
-69.785511823988
 20
-5052.309669571499
 30
0.0
  0
POINT
  8
DUN
 10
-131.538046702199
 20
-5139.45792564984
 30
0.0
  0
POINT
  8
DUN
 10
-102.478030288923
 20
-5103.146107378285
 30
0.0
  0
LINE
  8
DUN
 10
-320.961594404249
 20
-5082.137377379376
 30
0.0
 11
-244.619500042914
 21
-5322.137377379372
 31
0.0
  0
LINE
  8
DUN
 10
-257.841165720012
 20
-5280.571845426789
 30
0.0
 11
-256.072034732851
 21
-5279.962684776382
 31
0.0
  0
CIRCLE
  8
DUN
 10
-367.322105863653
 20
-5285.696692393988
 30
0.0
 40
5.25
  0
CIRCLE
  8
DUN
 10
-367.322105863653
 20
-5285.696692393988
 30
0.0
 40
5.25
  0
CIRCLE
  8
DUN
 10
-336.93367477194
 20
-5283.038049171125
 30
0.0
 40
5.25
  0
CIRCLE
  8
DUN
 10
-310.347678833646
 20
-5276.162443123853
 30
0.0
 40
5.25
  0
POLYLINE
  8
DUN
 66
     1
 10
0.0
 20
0.0
 30
0.0
 70
     1
  0
VERTEX
  8
DUN
 10
-315.255156121758
 20
-5267.412443123853
 30
0.0
  0
VERTEX
  8
DUN
 10
-320.162633409868
 20
-5275.912443123855
 30
0.0
  0
VERTEX
  8
DUN
 10
-315.255156121758
 20
-5284.412443123853
 30
0.0
  0
VERTEX
  8
DUN
 10
-305.440201545534
 20
-5284.412443123853
 30
0.0
  0
VERTEX
  8
DUN
 10
-300.532724257424
 20
-5275.912443123853
 30
0.0
  0
VERTEX
  8
DUN
 10
-305.440201545534
 20
-5267.412443123853
 30
0.0
  0
SEQEND
  8
DUN
  0
CIRCLE
  8
DUN
 10
-310.347678833646
 20
-5276.162443123853
 30
0.0
 40
5.25
  0
CIRCLE
  8
DUN
 10
-310.347678833646
 20
-5275.912443123853
 30
0.0
 40
8.5
  0
CIRCLE
  8
DUN
 10
-293.36391005903
 20
-5269.300555125394
 30
0.0
 40
5.25
  0
LINE
  8
DUN
 10
-304.822105863653
 20
-5312.696692393982
 30
0.0
 11
-289.822105863653
 21
-5312.696692393982
 31
0.0
  0
LINE
  8
DUN
 10
-307.322105863653
 20
-5320.696692393982
 30
0.0
 11
-287.322105863653
 21
-5320.696692393982
 31
0.0
  0
ARC
  8
DUN
 10
-300.838825157801
 20
-5313.696692393983
 30
0.0
 40
1.0
 50
90.000000000001
 51
180.0
  0
ARC
  8
DUN
 10
-304.822105863653
 20
-5313.696692393983
 30
0.0
 40
1.0
 50
90.0
 51
180.0
  0
ARC
  8
DUN
 10
-302.838825157801
 20
-5313.696692393983
 30
0.0
 40
1.0
 50
0.0
 51
90.0
  0
LINE
  8
DUN
 10
-305.822105863653
 20
-5319.696692393983
 30
0.0
 11
-305.822105863653
 21
-5313.696692393983
 31
0.0
  0
LINE
  8
DUN
 10
-301.838825157801
 20
-5319.696692393983
 30
0.0
 11
-301.838825157801
 21
-5313.696692393983
 31
0.0
  0
ARC
  8
DUN
 10
-302.838825157801
 20
-5319.696692393983
 30
0.0
 40
1.0
 50
270.0
 51
0.0
  0
ARC
  8
DUN
 10
-304.822105863653
 20
-5319.696692393983
 30
0.0
 40
1.0
 50
180.0
 51
270.0
  0
ARC
  8
DUN
 10
-300.838825157801
 20
-5319.696692393983
 30
0.0
 40
1.0
 50
180.0
 51
270.0
  0
ARC
  8
DUN
 10
-291.805386569505
 20
-5313.696692393983
 30
0.0
 40
1.0
 50
90.0
 51
180.0
  0
LINE
  8
DUN
 10
-292.805386569505
 20
-5319.696692393983
 30
0.0
 11
-292.805386569505
 21
-5313.696692393983
 31
0.0
  0
ARC
  8
DUN
 10
-291.805386569505
 20
-5319.696692393983
 30
0.0
 40
1.0
 50
180.0
 51
270.0
  0
ARC
  8
DUN
 10
-293.805386569505
 20
-5313.696692393983
 30
0.0
 40
1.0
 50
0.0
 51
90.000000000001
  0
ARC
  8
DUN
 10
-293.805386569505
 20
-5319.696692393983
 30
0.0
 40
1.0
 50
270.0
 51
0.0
  0
LINE
  8
DUN
 10
-293.322105863653
 20
-5312.696692393982
 30
0.0
 11
-293.322105863653
 21
-5307.696692393983
 31
0.0
  0
LINE
  8
DUN
 10
-292.322105863653
 20
-5308.696692393983
 30
0.0
 11
-293.322105863653
 21
-5307.696692393983
 31
0.0
  0
LINE
  8
DUN
 10
-292.322105863653
 20
-5312.696692393982
 30
0.0
 11
-292.322105863653
 21
-5308.696692393983
 31
0.0
  0
LINE
  8
DUN
 10
-302.322105863653
 20
-5308.696692393983
 30
0.0
 11
-292.322105863653
 21
-5308.696692393983
 31
0.0
  0
LINE
  8
DUN
 10
-301.322105863653
 20
-5307.696692393983
 30
0.0
 11
-293.322105863653
 21
-5307.696692393983
 31
0.0
  0
LINE
  8
DUN
 10
-302.322105863653
 20
-5308.696692393983
 30
0.0
 11
-301.322105863653
 21
-5307.696692393983
 31
0.0
  0
LINE
  8
DUN
 10
-301.322105863653
 20
-5312.696692393982
 30
0.0
 11
-301.322105863653
 21
-5307.696692393983
 31
0.0
  0
LINE
  8
DUN
 10
-302.322105863653
 20
-5312.696692393982
 30
0.0
 11
-302.322105863653
 21
-5308.696692393983
 31
0.0
  0
ARC
  8
DUN
 10
-289.822105863653
 20
-5313.696692393983
 30
0.0
 40
1.0
 50
0.0
 51
90.0
  0
LINE
  8
DUN
 10
-288.822105863653
 20
-5319.696692393983
 30
0.0
 11
-288.822105863653
 21
-5313.696692393983
 31
0.0
  0
ARC
  8
DUN
 10
-289.822105863653
 20
-5319.696692393983
 30
0.0
 40
1.0
 50
270.0
 51
0.0
  0
LINE
  8
DUN
 10
-307.322105863653
 20
-5320.696692393982
 30
0.0
 11
-307.322105863653
 21
-5322.696692393983
 31
0.0
  0
LINE
  8
DUN
 10
-287.322105863653
 20
-5320.696692393982
 30
0.0
 11
-287.322105863653
 21
-5322.696692393983
 31
0.0
  0
CIRCLE
  8
DUN
 10
-367.322105863654
 20
-5105.696692393988
 30
0.0
 40
5.25
  0
CIRCLE
  8
DUN
 10
-367.322105863654
 20
-5105.696692393988
 30
0.0
 40
5.25
  0
CIRCLE
  8
DUN
 10
-340.904425306852
 20
-5120.948947374821
 30
0.0
 40
5.25
  0
POLYLINE
  8
DUN
 66
     1
 10
0.0
 20
0.0
 30
0.0
 70
     1
  0
VERTEX
  8
DUN
 10
-372.229583151766
 20
-5097.196692393988
 30
0.0
  0
VERTEX
  8
DUN
 10
-377.137060439876
 20
-5105.696692393988
 30
0.0
  0
VERTEX
  8
DUN
 10
-372.229583151766
 20
-5114.196692393988
 30
0.0
  0
VERTEX
  8
DUN
 10
-362.414628575542
 20
-5114.196692393988
 30
0.0
  0
VERTEX
  8
DUN
 10
-357.507151287431
 20
-5105.696692393988
 30
0.0
  0
VERTEX
  8
DUN
 10
-362.414628575542
 20
-5097.196692393988
 30
0.0
  0
SEQEND
  8
DUN
  0
CIRCLE
  8
DUN
 10
-367.322105863654
 20
-5105.696692393988
 30
0.0
 40
8.5
  0
CIRCLE
  8
DUN
 10
-367.322105863654
 20
-5105.696692393988
 30
0.0
 40
5.25
  0
CIRCLE
  8
DUN
 10
-315.218798116006
 20
-5137.787876652331
 30
0.0
 40
5.25
  0
LINE
  8
DUN
 10
-463.96822971975
 20
-5408.861422826677
 30
0.0
 11
-463.96822971975
 21
-5405.861422826677
 31
0.0
  0
LINE
  8
DUN
 10
-413.96822971975
 20
-5408.861422826677
 30
0.0
 11
-413.96822971975
 21
-5405.861422826677
 31
0.0
  0
ARC
  8
DUN
 10
-438.96822971975
 20
-5405.055438488888
 30
0.0
 40
10.699790501663
 50
200.836746373359
 51
339.163253626642
  0
LINE
  8
DUN
 10
-463.96822971975
 20
-5408.861422826677
 30
0.0
 11
-413.96822971975
 21
-5408.861422826677
 31
0.0
  0
LINE
  8
DUN
 10
-413.689916019047
 20
-5082.137377379376
 30
0.0
 11
-491.164200224984
 21
-5325.696692393983
 31
0.0
  0
CIRCLE
  8
DUN
 10
-441.280301668275
 20
-5269.300555125401
 30
0.0
 40
5.25
  0
LINE
  8
DUN
 10
-444.822105863653
 20
-5312.696692393982
 30
0.0
 11
-429.822105863653
 21
-5312.696692393982
 31
0.0
  0
LINE
  8
DUN
 10
-441.322105863653
 20
-5307.696692393983
 30
0.0
 11
-433.322105863653
 21
-5307.696692393983
 31
0.0
  0
LINE
  8
DUN
 10
-442.322105863653
 20
-5308.696692393983
 30
0.0
 11
-432.322105863653
 21
-5308.696692393983
 31
0.0
  0
ARC
  8
DUN
 10
-440.838825157801
 20
-5313.696692393983
 30
0.0
 40
1.0
 50
90.000000000001
 51
180.0
  0
LINE
  8
DUN
 10
-442.322105863653
 20
-5312.696692393982
 30
0.0
 11
-442.322105863653
 21
-5308.696692393983
 31
0.0
  0
LINE
  8
DUN
 10
-441.322105863653
 20
-5312.696692393982
 30
0.0
 11
-441.322105863653
 21
-5307.696692393983
 31
0.0
  0
LINE
  8
DUN
 10
-442.322105863653
 20
-5308.696692393983
 30
0.0
 11
-441.322105863653
 21
-5307.696692393983
 31
0.0
  0
ARC
  8
DUN
 10
-444.822105863653
 20
-5313.696692393983
 30
0.0
 40
1.0
 50
90.0
 51
180.0
  0
ARC
  8
DUN
 10
-442.838825157801
 20
-5313.696692393983
 30
0.0
 40
1.0
 50
0.0
 51
90.0
  0
LINE
  8
DUN
 10
-445.822105863653
 20
-5319.696692393983
 30
0.0
 11
-445.822105863653
 21
-5313.696692393983
 31
0.0
  0
LINE
  8
DUN
 10
-441.838825157801
 20
-5319.696692393983
 30
0.0
 11
-441.838825157801
 21
-5313.696692393983
 31
0.0
  0
ARC
  8
DUN
 10
-433.805386569505
 20
-5313.696692393983
 30
0.0
 40
1.0
 50
0.0
 51
90.000000000001
  0
LINE
  8
DUN
 10
-432.322105863653
 20
-5312.696692393982
 30
0.0
 11
-432.322105863653
 21
-5308.696692393983
 31
0.0
  0
LINE
  8
DUN
 10
-432.322105863653
 20
-5308.696692393983
 30
0.0
 11
-433.322105863653
 21
-5307.696692393983
 31
0.0
  0
LINE
  8
DUN
 10
-433.322105863653
 20
-5312.696692393982
 30
0.0
 11
-433.322105863653
 21
-5307.696692393983
 31
0.0
  0
ARC
  8
DUN
 10
-431.805386569505
 20
-5313.696692393983
 30
0.0
 40
1.0
 50
90.0
 51
180.0
  0
ARC
  8
DUN
 10
-429.822105863653
 20
-5313.696692393983
 30
0.0
 40
1.0
 50
0.0
 51
90.0
  0
LINE
  8
DUN
 10
-428.822105863653
 20
-5319.696692393983
 30
0.0
 11
-428.822105863653
 21
-5313.696692393983
 31
0.0
  0
LINE
  8
DUN
 10
-432.805386569505
 20
-5319.696692393983
 30
0.0
 11
-432.805386569505
 21
-5313.696692393983
 31
0.0
  0
ARC
  8
DUN
 10
-433.805386569505
 20
-5319.696692393983
 30
0.0
 40
1.0
 50
270.0
 51
0.0
  0
ARC
  8
DUN
 10
-442.838825157801
 20
-5319.696692393983
 30
0.0
 40
1.0
 50
270.0
 51
0.0
  0
ARC
  8
DUN
 10
-444.822105863653
 20
-5319.696692393983
 30
0.0
 40
1.0
 50
180.0
 51
270.0
  0
ARC
  8
DUN
 10
-440.838825157801
 20
-5319.696692393983
 30
0.0
 40
1.0
 50
180.0
 51
270.0
  0
ARC
  8
DUN
 10
-429.822105863653
 20
-5319.696692393983
 30
0.0
 40
1.0
 50
270.0
 51
0.0
  0
ARC
  8
DUN
 10
-431.805386569505
 20
-5319.696692393983
 30
0.0
 40
1.0
 50
180.0
 51
270.0
  0
LINE
  8
DUN
 10
-447.322105863653
 20
-5320.696692393982
 30
0.0
 11
-427.322105863653
 21
-5320.696692393982
 31
0.0
  0
LINE
  8
DUN
 10
-427.322105863653
 20
-5320.696692393982
 30
0.0
 11
-427.322105863653
 21
-5322.696692393983
 31
0.0
  0
LINE
  8
DUN
 10
-447.322105863653
 20
-5320.696692393982
 30
0.0
 11
-447.322105863653
 21
-5322.696692393983
 31
0.0
  0
CIRCLE
  8
DUN
 10
-397.710536955366
 20
-5283.038049171125
 30
0.0
 40
5.25
  0
CIRCLE
  8
DUN
 10
-424.296532893656
 20
-5276.162443123868
 30
0.0
 40
5.25
  0
CIRCLE
  8
DUN
 10
-424.296532893654
 20
-5276.162443123868
 30
0.0
 40
5.25
  0
CIRCLE
  8
DUN
 10
-393.739786420458
 20
-5120.948947374821
 30
0.0
 40
5.25
  0
CIRCLE
  8
DUN
 10
-419.425413611301
 20
-5137.787876652333
 30
0.0
 40
5.25
  0
LINE
  8
DUN
 10
-668.461594404249
 20
-5325.696692393987
 30
0.0
 11
-668.461594404248
 21
-5405.696692393986
 31
0.0
  0
LINE
  8
DIK
 10
210.473237221027
 20
-4905.696692393986
 30
0.0
 11
-317.411686251045
 21
-4905.696692393986
 31
0.0
  0
INSERT
  8
MATEN
  2
*X20
 10
-2126.678330304188
 20
1073.664837230781
 30
0.0
 41
0.5
 42
0.5
 43
0.5
1001
ACAD
1000
HATCH
1002
{
1070
    16
1000
ANSI31
1040
50.0
1040
0.0
1002
}
  0
LINE
  8
DIK
 10
-917.214628234776
 20
-4905.696692393986
 30
0.0
 11
-417.411686251045
 21
-4905.696692393985
 31
0.0
  0
ARC
  8
DUN
 10
-881.83626210105
 20
-4255.696692393986
 30
0.0
 40
17.5
 50
180.0
 51
0.0
  0
LINE
  8
DUN
 10
-868.248920160938
 20
-4266.725479226746
 30
0.0
 11
-895.423604041163
 21
-4266.725479226746
 31
0.0
  0
LINE
  8
DUN
 10
-724.918396611957
 20
-4265.862868666243
 30
0.0
 11
-752.093080492181
 21
-4265.862868666243
 31
0.0
  0
ARC
  8
DUN
 10
-738.505738552069
 20
-4254.834081833482
 30
0.0
 40
17.5
 50
180.0
 51
0.0
  0
ARC
  8
DUN
 10
-1196.786436050899
 20
-4255.696692393986
 30
0.0
 40
17.5
 50
180.0
 51
0.0
  0
LINE
  8
DUN
 10
-1210.373777991011
 20
-4266.725479226746
 30
0.0
 11
-1183.199094110787
 21
-4266.725479226746
 31
0.0
  0
LINE
  8
DUN
 10
-1067.906172575443
 20
-4266.725479226746
 30
0.0
 11
-1040.731488695219
 21
-4266.725479226746
 31
0.0
  0
ARC
  8
DUN
 10
-1054.318830635331
 20
-4255.696692393986
 30
0.0
 40
17.5
 50
180.0
 51
0.0
  0
LINE
  8
DUN
 10
-917.214628234776
 20
-4255.696692393986
 30
0.0
 11
-678.505738552067
 21
-4255.696692393986
 31
0.0
  0
LINE
  8
DUN
 10
-678.505738552067
 20
-4255.696692393986
 30
0.0
 11
-678.505738552067
 21
-4154.834081833481
 31
0.0
  0
LINE
  8
DUN
 10
-664.214628234776
 20
-4155.696692393985
 30
0.0
 11
-1273.214628234776
 21
-4155.696692393986
 31
0.0
  0
POLYLINE
  8
DUN
 66
     1
 10
0.0
 20
0.0
 30
0.0
 70
     1
  0
VERTEX
  8
DUN
 10
-1410.768185735974
 20
-4455.696692393985
 30
0.0
  0
VERTEX
  8
DUN
 10
-1410.768185735974
 20
-4505.696692393986
 30
0.0
  0
VERTEX
  8
DUN
 10
-1510.768185735974
 20
-4505.696692393986
 30
0.0
  0
VERTEX
  8
DUN
 10
-1510.768185735974
 20
-4455.696692393985
 30
0.0
  0
SEQEND
  8
DUN
  0
POLYLINE
  8
DUN
 66
     1
 10
0.0
 20
0.0
 30
0.0
 70
     1
  0
VERTEX
  8
DUN
 10
-1724.768185735975
 20
-4455.696692393985
 30
0.0
  0
VERTEX
  8
DUN
 10
-1724.768185735975
 20
-4505.696692393986
 30
0.0
  0
VERTEX
  8
DUN
 10
-1624.768185735975
 20
-4505.696692393986
 30
0.0
  0
VERTEX
  8
DUN
 10
-1624.768185735975
 20
-4455.696692393985
 30
0.0
  0
SEQEND
  8
DUN
  0
POLYLINE
  8
DUN
 66
     1
 10
0.0
 20
0.0
 30
0.0
 70
     1
  0
VERTEX
  8
DUN
 10
-1618.268185735974
 20
-4455.696692393985
 30
0.0
  0
VERTEX
  8
DUN
 10
-1618.268185735974
 20
-4505.696692393986
 30
0.0
  0
VERTEX
  8
DUN
 10
-1518.268185735974
 20
-4505.696692393986
 30
0.0
  0
VERTEX
  8
DUN
 10
-1518.268185735974
 20
-4455.696692393985
 30
0.0
  0
SEQEND
  8
DUN
  0
POLYLINE
  8
DUN
 66
     1
 10
0.0
 20
0.0
 30
0.0
 70
     1
  0
VERTEX
  8
DUN
 10
-209.911686251044
 20
-4455.696692393985
 30
0.0
  0
VERTEX
  8
DUN
 10
-209.911686251044
 20
-4505.696692393986
 30
0.0
  0
VERTEX
  8
DUN
 10
-309.911686251044
 20
-4505.696692393986
 30
0.0
  0
VERTEX
  8
DUN
 10
-309.911686251044
 20
-4455.696692393985
 30
0.0
  0
SEQEND
  8
DUN
  0
POLYLINE
  8
DUN
 66
     1
 10
0.0
 20
0.0
 30
0.0
 70
     1
  0
VERTEX
  8
DUN
 10
-523.911686251045
 20
-4455.696692393985
 30
0.0
  0
VERTEX
  8
DUN
 10
-523.911686251045
 20
-4505.696692393986
 30
0.0
  0
VERTEX
  8
DUN
 10
-423.911686251045
 20
-4505.696692393986
 30
0.0
  0
VERTEX
  8
DUN
 10
-423.911686251045
 20
-4455.696692393985
 30
0.0
  0
SEQEND
  8
DUN
  0
POLYLINE
  8
DUN
 66
     1
 10
0.0
 20
0.0
 30
0.0
 70
     1
  0
VERTEX
  8
DUN
 10
-417.411686251044
 20
-4455.696692393985
 30
0.0
  0
VERTEX
  8
DUN
 10
-417.411686251044
 20
-4505.696692393986
 30
0.0
  0
VERTEX
  8
DUN
 10
-317.411686251044
 20
-4505.696692393986
 30
0.0
  0
VERTEX
  8
DUN
 10
-317.411686251044
 20
-4455.696692393985
 30
0.0
  0
SEQEND
  8
DUN
  0
DIMENSION
  8
MATEN
  2
*D42
 10
-209.911686251044
 20
-3830.693133198558
 30
0.0
 11
-967.33993599351
 21
-3750.693133198558
 31
0.0
 13
-1724.768185735975
 23
-4470.706795597555
 33
0.0
 14
-209.911686251044
 24
-4481.198814266791
 34
0.0
  3
STANDAARD
  0
LINE
  8
DUN
 10
-965.714628234776
 20
-4155.696692393985
 30
0.0
 11
-765.714628234776
 21
-4155.696692393985
 31
0.0
  0
LINE
  8
DUN
 10
-1168.714628234776
 20
-4155.696692393985
 30
0.0
 11
-968.714628234776
 21
-4155.696692393985
 31
0.0
  0
LINE
  8
DUN
 10
-1120.214628234776
 20
-4155.696692393985
 30
0.0
 11
-1120.214628234776
 21
-4105.696692393985
 31
0.0
  0
LINE
  8
DUN
 10
-970.214628234776
 20
-4105.696692393985
 30
0.0
 11
-970.214628234776
 21
-4155.696692393985
 31
0.0
  0
LINE
  8
DUN
 10
-1120.214628234776
 20
-4105.696692393985
 30
0.0
 11
-970.214628234776
 21
-4105.696692393985
 31
0.0
  0
LINE
  8
DUN
 10
-967.214628234776
 20
-4105.696692393985
 30
0.0
 11
-817.214628234776
 21
-4105.696692393985
 31
0.0
  0
LINE
  8
DUN
 10
-817.214628234776
 20
-4105.696692393985
 30
0.0
 11
-817.214628234776
 21
-4155.696692393985
 31
0.0
  0
LINE
  8
DUN
 10
-967.214628234776
 20
-4155.696692393985
 30
0.0
 11
-967.214628234776
 21
-4105.696692393985
 31
0.0
  0
LINE
  8
DUN
 10
-814.214628234776
 20
-4155.696692393985
 30
0.0
 11
-814.214628234776
 21
-4105.696692393985
 31
0.0
  0
LINE
  8
DUN
 10
-814.214628234776
 20
-4105.696692393985
 30
0.0
 11
-664.214628234776
 21
-4105.696692393985
 31
0.0
  0
LINE
  8
DUN
 10
-664.214628234776
 20
-4105.696692393985
 30
0.0
 11
-664.214628234776
 21
-4155.696692393985
 31
0.0
  0
LINE
  8
DUN
 10
-1273.214628234776
 20
-4105.696692393985
 30
0.0
 11
-1123.214628234776
 21
-4105.696692393985
 31
0.0
  0
LINE
  8
DUN
 10
-1123.214628234776
 20
-4105.696692393985
 30
0.0
 11
-1123.214628234776
 21
-4155.696692393985
 31
0.0
  0
LINE
  8
DUN
 10
-1273.214628234776
 20
-4155.696692393985
 30
0.0
 11
-1273.214628234776
 21
-4105.696692393985
 31
0.0
  0
POLYLINE
  8
DUN
 66
     1
 10
0.0
 20
0.0
 30
0.0
  0
VERTEX
  8
DUN
 10
-1256.7864360509
 20
-4155.696692393985
 30
0.0
  0
VERTEX
  8
DUN
 10
-1256.7864360509
 20
-4255.696692393986
 30
0.0
  0
VERTEX
  8
DUN
 10
-1017.214628234776
 20
-4255.696692393986
 30
0.0
  0
SEQEND
  8
DUN
  0
LINE
  8
DIK
 10
-1479.999940506619
 20
-8381.268280059911
 30
0.0
 11
-1479.999940506619
 21
-7383.768280059911
 31
0.0
  0
LINE
  8
DIK
 10
-1329.999940506619
 20
-7383.768280059911
 30
0.0
 11
-1329.999940506619
 21
-8381.268280059911
 31
0.0
  0
LINE
  8
DIK
 10
-1479.999940506619
 20
-7383.768280059911
 30
0.0
 11
-1329.999940506619
 21
-7383.768280059911
 31
0.0
  0
LINE
  8
DIK
 10
-870.99994050662
 20
-7383.768280059911
 30
0.0
 11
-870.99994050662
 21
-8381.268280059911
 31
0.0
  0
LINE
  8
DIK
 10
-1020.999940506619
 20
-7383.768280059911
 30
0.0
 11
-870.99994050662
 21
-7383.768280059911
 31
0.0
  0
LINE
  8
DIK
 10
-1020.999940506619
 20
-8381.268280059911
 30
0.0
 11
-1020.999940506619
 21
-7383.768280059911
 31
0.0
  0
LINE
  8
DIK
 10
-1173.999940506619
 20
-8381.268280059911
 30
0.0
 11
-1173.999940506619
 21
-7383.768280059911
 31
0.0
  0
LINE
  8
DIK
 10
-1023.99994050662
 20
-7383.768280059911
 30
0.0
 11
-1023.99994050662
 21
-8381.268280059911
 31
0.0
  0
LINE
  8
DIK
 10
-1173.999940506619
 20
-7383.768280059911
 30
0.0
 11
-1023.99994050662
 21
-7383.768280059911
 31
0.0
  0
LINE
  8
DIK
 10
-1326.999940506619
 20
-7383.768280059911
 30
0.0
 11
-1176.999940506619
 21
-7383.768280059911
 31
0.0
  0
LINE
  8
DIK
 10
-1176.999940506619
 20
-7383.768280059911
 30
0.0
 11
-1176.999940506619
 21
-8381.268280059911
 31
0.0
  0
LINE
  8
DIK
 10
-1326.999940506619
 20
-8381.268280059911
 30
0.0
 11
-1326.999940506619
 21
-7383.768280059911
 31
0.0
  0
LINE
  8
DIK
 10
-1617.553498007818
 20
-7383.768280059911
 30
0.0
 11
-1617.553498007818
 21
-8381.268280059911
 31
0.0
  0
LINE
  8
DIK
 10
-1717.553498007818
 20
-8381.268280059911
 30
0.0
 11
-1717.553498007818
 21
-7383.768280059911
 31
0.0
  0
LINE
  8
DIK
 10
-1717.553498007818
 20
-7383.768280059911
 30
0.0
 11
-1617.553498007818
 21
-7383.768280059911
 31
0.0
  0
LINE
  8
DIK
 10
-1931.553498007818
 20
-7383.768280059911
 30
0.0
 11
-1931.553498007818
 21
-8381.268280059911
 31
0.0
  0
LINE
  8
DIK
 10
-1831.553498007819
 20
-8381.268280059911
 30
0.0
 11
-1831.553498007819
 21
-7383.768280059911
 31
0.0
  0
LINE
  8
DIK
 10
-1831.553498007819
 20
-7383.768280059911
 30
0.0
 11
-1931.553498007818
 21
-7383.768280059911
 31
0.0
  0
LINE
  8
DIK
 10
-1825.053498007818
 20
-7383.768280059911
 30
0.0
 11
-1825.053498007818
 21
-8381.268280059911
 31
0.0
  0
LINE
  8
DIK
 10
-1725.053498007818
 20
-8381.268280059911
 30
0.0
 11
-1725.053498007818
 21
-7383.768280059911
 31
0.0
  0
LINE
  8
DIK
 10
-1725.053498007818
 20
-7383.768280059911
 30
0.0
 11
-1825.053498007818
 21
-7383.768280059911
 31
0.0
  0
LINE
  8
DIK
 10
-416.696998522888
 20
-7383.768280059911
 30
0.0
 11
-416.696998522888
 21
-8381.268280059911
 31
0.0
  0
LINE
  8
DIK
 10
-516.696998522888
 20
-8381.268280059911
 30
0.0
 11
-516.696998522888
 21
-7383.768280059911
 31
0.0
  0
LINE
  8
DIK
 10
-516.696998522888
 20
-7383.768280059911
 30
0.0
 11
-416.696998522888
 21
-7383.768280059911
 31
0.0
  0
LINE
  8
DIK
 10
-730.696998522889
 20
-7383.768280059911
 30
0.0
 11
-730.696998522889
 21
-8381.268280059911
 31
0.0
  0
LINE
  8
DIK
 10
-630.696998522889
 20
-8381.268280059911
 30
0.0
 11
-630.696998522889
 21
-7383.768280059911
 31
0.0
  0
LINE
  8
DIK
 10
-630.696998522889
 20
-7383.768280059911
 30
0.0
 11
-730.696998522889
 21
-7383.768280059911
 31
0.0
  0
LINE
  8
DIK
 10
-624.196998522888
 20
-7383.768280059911
 30
0.0
 11
-624.196998522888
 21
-8381.268280059911
 31
0.0
  0
LINE
  8
DIK
 10
-524.196998522888
 20
-8381.268280059911
 30
0.0
 11
-524.196998522888
 21
-7383.768280059911
 31
0.0
  0
LINE
  8
DIK
 10
-524.196998522888
 20
-7383.768280059911
 30
0.0
 11
-624.196998522888
 21
-7383.768280059911
 31
0.0
  0
LINE
  8
DIK
 10
-524.196998522888
 20
-9378.768280059913
 30
0.0
 11
-624.196998522888
 21
-9378.768280059913
 31
0.0
  0
LINE
  8
DIK
 10
-524.196998522888
 20
-8381.268280059911
 30
0.0
 11
-524.196998522888
 21
-9378.768280059913
 31
0.0
  0
LINE
  8
DIK
 10
-624.196998522888
 20
-9378.768280059913
 30
0.0
 11
-624.196998522888
 21
-8381.268280059911
 31
0.0
  0
LINE
  8
DIK
 10
-630.696998522889
 20
-9378.768280059913
 30
0.0
 11
-730.696998522889
 21
-9378.768280059913
 31
0.0
  0
LINE
  8
DIK
 10
-630.696998522889
 20
-8381.268280059911
 30
0.0
 11
-630.696998522889
 21
-9378.768280059913
 31
0.0
  0
LINE
  8
DIK
 10
-730.696998522889
 20
-9378.768280059913
 30
0.0
 11
-730.696998522889
 21
-8381.268280059911
 31
0.0
  0
LINE
  8
DIK
 10
-516.696998522888
 20
-9378.768280059913
 30
0.0
 11
-416.696998522888
 21
-9378.768280059913
 31
0.0
  0
LINE
  8
DIK
 10
-516.696998522888
 20
-8381.268280059911
 30
0.0
 11
-516.696998522888
 21
-9378.768280059913
 31
0.0
  0
LINE
  8
DIK
 10
-416.696998522888
 20
-9378.768280059913
 30
0.0
 11
-416.696998522888
 21
-8381.268280059911
 31
0.0
  0
LINE
  8
DIK
 10
-1725.053498007818
 20
-9378.768280059913
 30
0.0
 11
-1825.053498007818
 21
-9378.768280059913
 31
0.0
  0
LINE
  8
DIK
 10
-1725.053498007818
 20
-8381.268280059911
 30
0.0
 11
-1725.053498007818
 21
-9378.768280059913
 31
0.0
  0
LINE
  8
DIK
 10
-1825.053498007818
 20
-9378.768280059913
 30
0.0
 11
-1825.053498007818
 21
-8381.268280059911
 31
0.0
  0
LINE
  8
DIK
 10
-1831.553498007819
 20
-9378.768280059913
 30
0.0
 11
-1931.553498007818
 21
-9378.768280059913
 31
0.0
  0
LINE
  8
DIK
 10
-1831.553498007819
 20
-8381.268280059911
 30
0.0
 11
-1831.553498007819
 21
-9378.768280059913
 31
0.0
  0
LINE
  8
DIK
 10
-1931.553498007818
 20
-9378.768280059913
 30
0.0
 11
-1931.553498007818
 21
-8381.268280059911
 31
0.0
  0
LINE
  8
DIK
 10
-1717.553498007818
 20
-9378.768280059913
 30
0.0
 11
-1617.553498007818
 21
-9378.768280059913
 31
0.0
  0
LINE
  8
DIK
 10
-1717.553498007818
 20
-8381.268280059911
 30
0.0
 11
-1717.553498007818
 21
-9378.768280059913
 31
0.0
  0
LINE
  8
DIK
 10
-1617.553498007818
 20
-9378.768280059913
 30
0.0
 11
-1617.553498007818
 21
-8381.268280059911
 31
0.0
  0
LINE
  8
DIK
 10
-1326.999940506619
 20
-8381.268280059911
 30
0.0
 11
-1326.999940506619
 21
-9378.768280059913
 31
0.0
  0
LINE
  8
DIK
 10
-1176.999940506619
 20
-9378.768280059913
 30
0.0
 11
-1176.999940506619
 21
-8381.268280059911
 31
0.0
  0
LINE
  8
DIK
 10
-1326.999940506619
 20
-9378.768280059913
 30
0.0
 11
-1176.999940506619
 21
-9378.768280059913
 31
0.0
  0
LINE
  8
DIK
 10
-1173.999940506619
 20
-9378.768280059913
 30
0.0
 11
-1023.99994050662
 21
-9378.768280059913
 31
0.0
  0
LINE
  8
DIK
 10
-1023.99994050662
 20
-9378.768280059913
 30
0.0
 11
-1023.99994050662
 21
-8381.268280059911
 31
0.0
  0
LINE
  8
DIK
 10
-1173.999940506619
 20
-8381.268280059911
 30
0.0
 11
-1173.999940506619
 21
-9378.768280059913
 31
0.0
  0
LINE
  8
DIK
 10
-1020.999940506619
 20
-8381.268280059911
 30
0.0
 11
-1020.999940506619
 21
-9378.768280059913
 31
0.0
  0
LINE
  8
DIK
 10
-1020.999940506619
 20
-9378.768280059913
 30
0.0
 11
-870.99994050662
 21
-9378.768280059913
 31
0.0
  0
LINE
  8
DIK
 10
-870.99994050662
 20
-9378.768280059913
 30
0.0
 11
-870.99994050662
 21
-8381.268280059911
 31
0.0
  0
LINE
  8
DIK
 10
-1479.999940506619
 20
-9378.768280059913
 30
0.0
 11
-1329.999940506619
 21
-9378.768280059913
 31
0.0
  0
LINE
  8
DIK
 10
-1329.999940506619
 20
-9378.768280059913
 30
0.0
 11
-1329.999940506619
 21
-8381.268280059911
 31
0.0
  0
LINE
  8
DIK
 10
-1479.999940506619
 20
-8381.268280059911
 30
0.0
 11
-1479.999940506619
 21
-9378.768280059913
 31
0.0
  0
DIMENSION
  8
DUN
  2
*D43
 10
-6.189717985231
 20
-9378.768280059913
 30
0.0
 11
-86.189717985231
 21
-8381.268280059911
 31
0.0
 12
-206.785312271844
 22
0.0
 32
0.0
 13
-416.696998522888
 23
-7383.768280059911
 33
0.0
 14
-416.696998522888
 24
-9378.768280059913
 34
0.0
 50
90.0
  3
STANDAARD
  0
DIMENSION
  8
DUN
  2
*D44
 10
-416.696998522888
 20
-7098.035012212515
 30
0.0
 11
-1174.125248265353
 21
-7018.035012212514
 31
0.0
 12
-206.785312271844
 22
0.0
 32
0.0
 13
-1931.553498007818
 23
-7383.768280059911
 33
0.0
 14
-416.696998522888
 24
-7383.768280059911
 34
0.0
  3
STANDAARD
  0
TEXT
  8
DUN
 10
-1434.567264488077
 20
-7789.814216075233
 30
0.0
 40
72.0
  1
Wico Comfa AK781
 50
270.0
  7
ROMANS
  0
TEXT
  8
DUN
 10
-1964.085377347554
 20
-9753.844524848998
 30
0.0
 40
84.0
  1
Obstakelvrije ruimte nvt
  7
ROMANS
  0
POLYLINE
  8
DUN
 66
     1
 10
0.0
 20
0.0
 30
0.0
 70
     1
  0
VERTEX
  8
DUN
 10
-2118.007911517862
 20
-6848.259133004601
 30
0.0
  0
VERTEX
  8
DUN
 10
-2118.007911517862
 20
-9836.100386235777
 30
0.0
  0
VERTEX
  8
DUN
 10
205.159638222483
 20
-9836.100386235777
 30
0.0
  0
VERTEX
  8
DUN
 10
205.159638222483
 20
-6848.259133004601
 30
0.0
  0
SEQEND
  8
DUN
  0
POLYLINE
  8
DUN
 66
     1
 10
0.0
 20
0.0
 30
0.0
 70
     1
  0
VERTEX
  8
DUN
 10
-2118.007911517862
 20
-3427.879633067774
 30
0.0
  0
VERTEX
  8
DUN
 10
-2118.007911517862
 20
-6415.720886298951
 30
0.0
  0
VERTEX
  8
DUN
 10
205.159638222483
 20
-6415.720886298951
 30
0.0
  0
VERTEX
  8
DUN
 10
205.159638222483
 20
-3427.879633067774
 30
0.0
  0
SEQEND
  8
DUN
  0
ENDSEC
  0
EOF
