  0
SECTION
  2
HEADER
  9
$ACADVER
  1
AC1009
  9
$INSBASE
 10
0.0
 20
0.0
 30
0.0
  9
$EXTMIN
 10
-714.295715812734
 20
5115.81233483929
 30
0.0
  9
$EXTMAX
 10
4127.211850504247
 20
10138.07318774252
 30
0.0
  9
$LIMMIN
 10
0.0
 20
0.0
  9
$LIMMAX
 10
420.0
 20
297.0
  9
$ORTHOMODE
 70
     0
  9
$REGENMODE
 70
     1
  9
$FILLMODE
 70
     1
  9
$QTEXTMODE
 70
     0
  9
$MIRRTEXT
 70
     1
  9
$DRAGMODE
 70
     2
  9
$LTSCALE
 40
20.0
  9
$OSMODE
 70
     1
  9
$ATTMODE
 70
     1
  9
$TEXTSIZE
 40
80.0
  9
$TRACEWID
 40
0.05
  9
$TEXTSTYLE
  7
ROMANS
  9
$CLAYER
  8
DUN
  9
$CELTYPE
  6
BYLAYER
  9
$CECOLOR
 62
   256
  9
$DIMSCALE
 40
0.0
  9
$DIMASZ
 40
100.0
  9
$DIMEXO
 40
0.0
  9
$DIMDLI
 40
7.0
  9
$DIMRND
 40
0.1
  9
$DIMDLE
 40
0.0
  9
$DIMEXE
 40
1.0
  9
$DIMTP
 40
0.0
  9
$DIMTM
 40
0.0
  9
$DIMTXT
 40
80.0
  9
$DIMCEN
 40
1.75
  9
$DIMTSZ
 40
0.0
  9
$DIMTOL
 70
     0
  9
$DIMLIM
 70
     0
  9
$DIMTIH
 70
     0
  9
$DIMTOH
 70
     0
  9
$DIMSE1
 70
     0
  9
$DIMSE2
 70
     0
  9
$DIMTAD
 70
     1
  9
$DIMZIN
 70
     8
  9
$DIMBLK
  1

  9
$DIMASO
 70
     1
  9
$DIMSHO
 70
     0
  9
$DIMPOST
  1

  9
$DIMAPOST
  1

  9
$DIMALT
 70
     0
  9
$DIMALTD
 70
     2
  9
$DIMALTF
 40
25.4
  9
$DIMLFAC
 40
-1.0
  9
$DIMTOFL
 70
     1
  9
$DIMTVP
 40
0.0
  9
$DIMTIX
 70
     0
  9
$DIMSOXD
 70
     0
  9
$DIMSAH
 70
     0
  9
$DIMBLK1
  1

  9
$DIMBLK2
  1

  9
$DIMSTYLE
  2
STANDAARD
  9
$DIMCLRD
 70
   256
  9
$DIMCLRE
 70
   256
  9
$DIMCLRT
 70
   256
  9
$DIMTFAC
 40
0.03125
  9
$DIMGAP
 40
0.0
  9
$LUNITS
 70
     2
  9
$LUPREC
 70
     4
  9
$SKETCHINC
 40
0.1
  9
$FILLETRAD
 40
1500.0
  9
$AUNITS
 70
     0
  9
$AUPREC
 70
     0
  9
$MENU
  1
acad
  9
$ELEVATION
 40
0.0
  9
$PELEVATION
 40
0.0
  9
$THICKNESS
 40
0.0
  9
$LIMCHECK
 70
     0
  9
$BLIPMODE
 70
     1
  9
$CHAMFERA
 40
0.0
  9
$CHAMFERB
 40
0.0
  9
$SKPOLY
 70
     0
  9
$TDCREATE
 40
2450735.517183796
  9
$TDUPDATE
 40
2454126.693463541
  9
$TDINDWG
 40
0.4205428241
  9
$TDUSRTIMER
 40
0.4205428241
  9
$USRTIMER
 70
     1
  9
$ANGBASE
 50
0.0
  9
$ANGDIR
 70
     0
  9
$PDMODE
 70
     0
  9
$PDSIZE
 40
0.0
  9
$PLINEWID
 40
0.0
  9
$COORDS
 70
     2
  9
$SPLFRAME
 70
     0
  9
$SPLINETYPE
 70
     6
  9
$SPLINESEGS
 70
     8
  9
$ATTDIA
 70
     1
  9
$ATTREQ
 70
     1
  9
$HANDLING
 70
     0
  9
$HANDSEED
  5
0
  9
$SURFTAB1
 70
     6
  9
$SURFTAB2
 70
     6
  9
$SURFTYPE
 70
     6
  9
$SURFU
 70
     6
  9
$SURFV
 70
     6
  9
$UCSNAME
  2

  9
$UCSORG
 10
0.0
 20
0.0
 30
0.0
  9
$UCSXDIR
 10
1.0
 20
0.0
 30
0.0
  9
$UCSYDIR
 10
0.0
 20
1.0
 30
0.0
  9
$PUCSNAME
  2

  9
$PUCSORG
 10
0.0
 20
0.0
 30
0.0
  9
$PUCSXDIR
 10
1.0
 20
0.0
 30
0.0
  9
$PUCSYDIR
 10
0.0
 20
1.0
 30
0.0
  9
$USERI1
 70
     0
  9
$USERI2
 70
     0
  9
$USERI3
 70
     0
  9
$USERI4
 70
     0
  9
$USERI5
 70
     0
  9
$USERR1
 40
0.0
  9
$USERR2
 40
0.0
  9
$USERR3
 40
0.0
  9
$USERR4
 40
0.0
  9
$USERR5
 40
0.0
  9
$WORLDVIEW
 70
     1
  9
$SHADEDGE
 70
     3
  9
$SHADEDIF
 70
    70
  9
$TILEMODE
 70
     1
  9
$MAXACTVP
 70
    16
  9
$PINSBASE
 10
0.0
 20
0.0
 30
0.0
  9
$PLIMCHECK
 70
     0
  9
$PEXTMIN
 10
0.0
 20
0.0
 30
0.0
  9
$PEXTMAX
 10
420.0
 20
297.0
 30
0.0
  9
$PLIMMIN
 10
0.0
 20
0.0
  9
$PLIMMAX
 10
12.0
 20
9.0
  9
$UNITMODE
 70
     0
  9
$VISRETAIN
 70
     0
  9
$PLINEGEN
 70
     0
  9
$PSLTSCALE
 70
     0
  9
$TREEDEPTH
 70
  3020
  9
$DWGCODEPAGE
  3
iso8859-1
  0
ENDSEC
  0
SECTION
  2
TABLES
  0
TABLE
  2
VPORT
 70
     2
  0
VPORT
  2
*ACTIVE
 70
     0
 10
0.0
 20
0.0
 11
1.0
 21
1.0
 12
2862.247508498649
 22
7626.942761290909
 13
0.0
 23
0.0
 14
10.0
 24
10.0
 15
10.0
 25
10.0
 16
0.0
 26
0.0
 36
1.0
 17
0.0
 27
0.0
 37
0.0
 40
5022.260852903239
 41
1.424276169265
 42
50.0
 43
0.0
 44
0.0
 50
0.0
 51
0.0
 71
     0
 72
 20000
 73
     1
 74
     0
 75
     0
 76
     0
 77
     0
 78
     0
  0
ENDTAB
  0
TABLE
  2
LTYPE
 70
    10
  0
LTYPE
  2
CONTINUOUS
 70
    64
  3
Solid line
 72
    65
 73
     0
 40
0.0
  0
LTYPE
  2
CENTER
 70
    64
  3
____ _ ____ _ ____ _ ____ _ ____ _ ____ _ ____
 72
    65
 73
     4
 40
2.0
 49
1.25
 49
-0.25
 49
0.25
 49
-0.25
  0
LTYPE
  2
PHANTOM
 70
    64
  3
_____ _ _ _____ _ _ _____ _ _ _____ _ _ ____
 72
    65
 73
     6
 40
2.5
 49
1.25
 49
-0.25
 49
0.25
 49
-0.25
 49
0.25
 49
-0.25
  0
LTYPE
  2
DASHED
 70
    64
  3
__ __ __ __ __ __ __ __ __ __ __ __ __ __ __
 72
    65
 73
     2
 40
0.75
 49
0.5
 49
-0.25
  0
LTYPE
  2
CENTER2
 70
     0
  3
___ _ ___ _ ___ _ ___ _ ___ _ ___ _ ___ _ ___ _
 72
    65
 73
     4
 40
1.125
 49
0.75
 49
-0.125
 49
0.125
 49
-0.125
  0
LTYPE
  2
CENTERX2
 70
     0
  3
________  __  ________  __  ________  __  _____
 72
    65
 73
     4
 40
4.0
 49
2.5
 49
-0.5
 49
0.5
 49
-0.5
  0
LTYPE
  2
DASHED2
 70
     0
  3
_ _ _ _ _ _ _ _ _ _ _ _ _ _ _ _ _ _ _ _ _ _ _ _
 72
    65
 73
     2
 40
0.375
 49
0.25
 49
-0.125
  0
LTYPE
  2
DASHEDX2
 70
     0
  3
____  ____  ____  ____  ____  ____  ____  ____ 
 72
    65
 73
     2
 40
1.5
 49
1.0
 49
-0.5
  0
LTYPE
  2
PHANTOM2
 70
     0
  3
___ _ _ ___ _ _ ___ _ _ ___ _ _ ___ _ _ ___ _ _
 72
    65
 73
     6
 40
1.25
 49
0.625
 49
-0.125
 49
0.125
 49
-0.125
 49
0.125
 49
-0.125
  0
LTYPE
  2
PHANTOMX2
 70
     0
  3
____________    ____    ____    ____________   
 72
    65
 73
     6
 40
5.0
 49
2.5
 49
-0.5
 49
0.5
 49
-0.5
 49
0.5
 49
-0.5
  0
ENDTAB
  0
TABLE
  2
LAYER
 70
     8
  0
LAYER
  2
0
 70
    64
 62
     7
  6
CONTINUOUS
  0
LAYER
  2
DIK
 70
    64
 62
     2
  6
CONTINUOUS
  0
LAYER
  2
DUN
 70
    64
 62
     6
  6
CONTINUOUS
  0
LAYER
  2
HARTLIJN
 70
    64
 62
     1
  6
CENTER
  0
LAYER
  2
STREEPLIJN
 70
    64
 62
     5
  6
DASHED
  0
LAYER
  2
HARTLIJN-DUBBEL
 70
    64
 62
     1
  6
PHANTOM
  0
LAYER
  2
HARTLIJN-DIK
 70
     0
 62
     2
  6
CENTER
  0
LAYER
  2
DEFPOINTS
 70
    64
 62
     7
  6
CONTINUOUS
  0
ENDTAB
  0
TABLE
  2
STYLE
 70
     4
  0
STYLE
  2
STANDARD
 70
    64
 40
0.0
 41
1.0
 50
0.0
 71
     0
 42
0.2
  3
txt
  4

  0
STYLE
  2
ROMANS
 70
    64
 40
0.0
 41
1.0
 50
0.0
 71
     0
 42
80.0
  3
romans
  4

  0
STYLE
  2
ROMAND
 70
     0
 40
0.0
 41
1.0
 50
0.0
 71
     0
 42
5.591715976331
  3
romand
  4

  0
STYLE
  2
SANSSERIFBOLD
 70
    64
 40
10.0
 41
1.0
 50
0.0
 71
     0
 42
10.0
  3
sasb____.pfb
  4

  0
ENDTAB
  0
TABLE
  2
VIEW
 70
     0
  0
ENDTAB
  0
TABLE
  2
UCS
 70
     0
  0
ENDTAB
  0
TABLE
  2
APPID
 70
     1
  0
APPID
  2
ACAD
 70
    64
  0
ENDTAB
  0
TABLE
  2
DIMSTYLE
 70
     2
  0
DIMSTYLE
  2
STANDAARD
 70
    64
  3

  4

  5

  6

  7

 40
0.0
 41
100.0
 42
0.0
 43
7.0
 44
1.0
 45
0.1
 46
0.0
 47
0.0
 48
0.0
140
80.0
141
1.75
142
0.0
143
25.4
144
-1.0
145
0.0
146
0.03125
147
0.0
 71
     0
 72
     0
 73
     0
 74
     0
 75
     0
 76
     0
 77
     1
 78
     8
170
     0
171
     2
172
     1
173
     0
174
     0
175
     0
176
   256
177
   256
178
   256
  0
DIMSTYLE
  2
TOLERANTIE
 70
     0
  3

  4

  5
PIJLP
  6

  7

 40
0.0
 41
3.5
 42
0.0
 43
7.0
 44
1.0
 45
0.1
 46
0.0
 47
0.3
 48
0.7
140
3.5
141
1.75
142
0.0
143
25.4
144
-1.0
145
0.0
146
0.714285714286
147
0.0
 71
     1
 72
     0
 73
     0
 74
     0
 75
     0
 76
     0
 77
     1
 78
     8
170
     0
171
     2
172
     1
173
     0
174
     0
175
     0
176
   256
177
   256
178
   256
  0
ENDTAB
  0
ENDSEC
  0
SECTION
  2
BLOCKS
  0
BLOCK
  8
0
  2
TEKENH
 70
    64
 10
0.0
 20
0.0
 30
0.0
  3
TEKENH
  0
LINE
  8
DUN
 10
0.0
 20
15.0
 30
0.0
 11
-105.0
 21
15.0
 31
0.0
  0
LINE
  8
DUN
 10
0.0
 20
29.0
 30
0.0
 11
-180.0
 21
29.0
 31
0.0
  0
LINE
  8
DUN
 10
-45.0
 20
35.0
 30
0.0
 11
-145.0
 21
35.0
 31
0.0
  0
LINE
  8
DUN
 10
-45.0
 20
41.0
 30
0.0
 11
-145.0
 21
41.0
 31
0.0
  0
LINE
  8
DUN
 10
0.0
 20
47.0
 30
0.0
 11
-180.0
 21
47.0
 31
0.0
  0
LINE
  8
DUN
 10
0.0
 20
54.0
 30
0.0
 11
-180.0
 21
54.0
 31
0.0
  0
LINE
  8
DIK
 10
-180.0
 20
5.0
 30
0.0
 11
0.0
 21
5.0
 31
0.0
  0
LINE
  8
DIK
 10
-180.0
 20
57.0
 30
0.0
 11
-180.0
 21
0.0
 31
0.0
  0
TEXT
  8
DUN
 10
-143.75
 20
36.25
 30
0.0
 40
2.5
  1
Maateenheid
  7
ROMANS
  0
TEXT
  8
DIK
 10
-148.440362545074
 20
19.340461725786
 30
0.0
 40
2.5
  1
SECTOR TECHNIEK
  7
ROMANS
  0
TEXT
  8
DIK
 10
-148.440362545074
 20
23.388080773405
 30
0.0
 40
2.5
  1
HAAGSE HOGESCHOOL
  7
ROMANS
  0
TEXT
  8
DIK
 10
-148.440362545074
 20
13.066876305898
 30
0.0
 40
2.5
  1
AFDELING INDUSTRIEEL
  7
ROMANS
  0
TEXT
  8
DIK
 10
-148.440362545074
 20
9.019257258279
 30
0.0
 40
2.5
  1
PRODUKTONTWERPEN
  7
ROMANS
  0
LINE
  8
DUN
 10
-155.0
 20
57.0
 30
0.0
 11
-155.0
 21
47.0
 31
0.0
  0
LINE
  8
DUN
 10
-167.5
 20
57.0
 30
0.0
 11
-167.5
 21
47.0
 31
0.0
  0
LINE
  8
HARTLIJN
 10
-176.886088794123
 20
35.230609663178
 30
0.0
 11
-146.820300421814
 21
35.230609663178
 31
0.0
  0
LINE
  8
DIK
 10
-162.450142380332
 20
36.730609663178
 30
0.0
 11
-152.450142380332
 21
38.730609663178
 31
0.0
  0
LINE
  8
DIK
 10
-152.450142380332
 20
31.730609663178
 30
0.0
 11
-162.450142380332
 21
33.730609663178
 31
0.0
  0
TEXT
  8
DUN
 10
-178.75
 20
43.25
 30
0.0
 40
2.5
  1
Amerik. proj.
  7
ROMANS
  0
CIRCLE
  8
DIK
 10
-155.16399605453
 20
19.101995476601
 30
0.0
 40
2.738926691931
  0
ARC
  8
DIK
 10
-155.16399605453
 20
19.101995476601
 30
0.0
 40
5.08244644145
 50
217.58615827382
 51
136.945859517254
  0
LINE
  8
DIK
 10
-160.606534081057
 20
13.81954903515
 30
0.0
 11
-149.881549613079
 21
13.81954903515
 31
0.0
  0
LINE
  8
DIK
 10
-160.738999640542
 20
24.384441918051
 30
0.0
 11
-149.881549613079
 21
24.384441918051
 31
0.0
  0
POLYLINE
  8
DIK
 66
     1
 10
0.0
 20
0.0
 30
0.0
  0
VERTEX
  8
DIK
 10
-173.299933916411
 20
19.893020206338
 30
0.0
 42
0.01519296989
  0
VERTEX
  8
DIK
 10
-173.80806199825
 20
19.191293308404
 30
0.0
 42
0.04059810252
  0
VERTEX
  8
DIK
 10
-174.638507094833
 20
17.724574301424
 30
0.0
 42
0.106995455646
 70
     2
 50
254.39619560055
  0
SEQEND
  8
DIK
  0
POLYLINE
  8
DIK
 66
     1
 10
0.0
 20
0.0
 30
0.0
  0
VERTEX
  8
DIK
 10
-174.369010352572
 20
10.671836157203
 30
0.0
 42
0.068010394449
  0
VERTEX
  8
DIK
 10
-173.430811033457
 20
9.820574846878
 30
0.0
 42
0.106995455646
  0
SEQEND
  8
DIK
  0
LINE
  8
DIK
 10
-173.430811033457
 20
9.820574846878
 30
0.0
 11
-175.038295632455
 21
7.779878286816
 31
0.0
  0
LINE
  8
DIK
 10
-175.665796239655
 20
21.060062653769
 30
0.0
 11
-173.299933916411
 21
19.893020206338
 31
0.0
  0
POLYLINE
  8
DIK
 66
     1
 10
0.0
 20
0.0
 30
0.0
  0
VERTEX
  8
DIK
 10
-175.06979071136
 20
16.637763287061
 30
0.0
 42
0.012293677113
  0
VERTEX
  8
DIK
 10
-175.219344929091
 20
16.148974448758
 30
0.0
 42
0.106995455646
 70
     2
 50
254.39619560055
  0
VERTEX
  8
DIK
 10
-175.408142861391
 20
12.961273310181
 30
0.0
 42
0.136872673305
 50
254.39619560055
  0
VERTEX
  8
DIK
 10
-174.369010352572
 20
10.671836157203
 30
0.0
 42
0.136872673305
  0
SEQEND
  8
DIK
  0
POLYLINE
  8
DIK
 66
     1
 10
0.0
 20
0.0
 30
0.0
  0
VERTEX
  8
DIK
 10
-177.533246919684
 20
17.450717667179
 30
0.0
 42
0.01215599776
  0
VERTEX
  8
DIK
 10
-177.717860069696
 20
16.846751246235
 30
0.0
 42
0.106995455646
 70
     2
 50
254.39619560055
  0
VERTEX
  8
DIK
 10
-177.971556021955
 20
12.563299271861
 30
0.0
 42
0.136872673305
 50
254.39619560055
  0
VERTEX
  8
DIK
 10
-176.356223304524
 20
9.00436650215
 30
0.0
 42
0.136872673305
  0
SEQEND
  8
DIK
  0
POLYLINE
  8
DIK
 66
     1
 10
0.0
 20
0.0
 30
0.0
  0
VERTEX
  8
DIK
 10
-176.356223304524
 20
9.00436650215
 30
0.0
 42
0.062080649113
  0
VERTEX
  8
DIK
 10
-175.038295632455
 20
7.779878286816
 30
0.0
 42
0.106995455646
  0
SEQEND
  8
DIK
  0
POLYLINE
  8
DIK
 66
     1
 10
0.0
 20
0.0
 30
0.0
  0
VERTEX
  8
DIK
 10
-175.665796239655
 20
21.060062653769
 30
0.0
 42
0.007460633215
  0
VERTEX
  8
DIK
 10
-175.954427875157
 20
20.648202327313
 30
0.0
 42
0.041760377079
  0
VERTEX
  8
DIK
 10
-177.017316923261
 20
18.760741908652
 30
0.0
 42
0.106995455646
 70
     2
 50
254.39619560055
  0
SEQEND
  8
DIK
  0
LINE
  8
DIK
 10
-175.06979071136
 20
16.637763287061
 30
0.0
 11
-177.533246919684
 21
17.450717667179
 31
0.0
  0
LINE
  8
DIK
 10
-177.017316923261
 20
18.760741908652
 30
0.0
 11
-174.638507094833
 21
17.724574301424
 31
0.0
  0
ARC
  8
DIK
 10
-166.836551726683
 20
17.489108830784
 30
0.0
 40
3.024136079487
 50
270.0
 51
90.0
  0
LINE
  8
DIK
 10
-168.670154683362
 20
20.513244910271
 30
0.0
 11
-168.670154683362
 21
12.447690434973
 31
0.0
  0
POLYLINE
  8
DIK
 66
     1
 10
0.0
 20
0.0
 30
0.0
  0
VERTEX
  8
DIK
 10
-160.606534081057
 20
13.81954903515
 30
0.0
 42
0.020212941293
  0
VERTEX
  8
DIK
 10
-159.92129908168
 20
14.746139761985
 30
0.0
 42
0.034969919681
  0
VERTEX
  8
DIK
 10
-159.191514773802
 20
16.001938251947
 30
0.0
 42
0.106995455646
 70
     2
 50
74.39619560055
  0
SEQEND
  8
DIK
  0
LINE
  8
DIK
 10
-166.836551726683
 20
14.464972751297
 30
0.0
 11
-166.836551726683
 21
12.447690434973
 31
0.0
  0
LINE
  8
DIK
 10
-168.670154683362
 20
12.447690434973
 30
0.0
 11
-166.836551726683
 21
12.447690434973
 31
0.0
  0
ARC
  8
DIK
 10
-166.836551726683
 20
17.489108830784
 30
0.0
 40
1.190136079487
 50
270.0
 51
90.0
  0
POLYLINE
  8
DIK
 66
     1
 10
0.0
 20
0.0
 30
0.0
  0
VERTEX
  8
DIK
 10
-164.821453945582
 20
25.51055579841
 30
0.0
 42
0.077262734149
 70
     2
 50
185.60380439945
  0
VERTEX
  8
DIK
 10
-168.042895588918
 20
24.62734996957
 30
0.0
 42
0.050945521512
 50
185.60380439945
  0
VERTEX
  8
DIK
 10
-170.636781555084
 20
23.129724656625
 30
0.0
 42
0.069190866296
  0
SEQEND
  8
DIK
  0
POLYLINE
  8
DIK
 66
     1
 10
0.0
 20
0.0
 30
0.0
  0
VERTEX
  8
DIK
 10
-164.816465222912
 20
25.031365508669
 30
0.0
 42
0.076071376639
 70
     2
 50
185.60380439945
  0
VERTEX
  8
DIK
 10
-167.847785840809
 20
24.192558833828
 30
0.0
 42
0.048801187094
 50
185.60380439945
  0
VERTEX
  8
DIK
 10
-170.258569566301
 20
22.81436839439
 30
0.0
 42
0.069190866296
  0
SEQEND
  8
DIK
  0
LINE
  8
DIK
 10
-166.836551726683
 20
18.679244910271
 30
0.0
 11
-166.836551726683
 21
16.298972751297
 31
0.0
  0
LINE
  8
DIK
 10
-166.836551726683
 20
20.513244910271
 30
0.0
 11
-168.670154683362
 21
20.513244910271
 31
0.0
  0
LINE
  8
DIK
 10
-170.636781555084
 20
23.129724656625
 30
0.0
 11
-170.258569566301
 21
22.81436839439
 31
0.0
  0
LINE
  8
DIK
 10
-164.821453945582
 20
25.51055579841
 30
0.0
 11
-164.816465222912
 21
25.031365508669
 31
0.0
  0
POLYLINE
  8
DIK
 66
     1
 10
0.0
 20
0.0
 30
0.0
  0
VERTEX
  8
DIK
 10
-158.877785079489
 20
22.571726432785
 30
0.0
 42
0.045257321946
 50
74.39619560055
  0
VERTEX
  8
DIK
 10
-159.360350727358
 20
23.265596913186
 30
0.0
 42
0.095750765923
  0
VERTEX
  8
DIK
 10
-160.738999640542
 20
24.384441918051
 30
0.0
 42
0.106995455646
  0
SEQEND
  8
DIK
  0
TEXT
  8
DUN
 10
-178.75
 20
48.25
 30
0.0
 40
2.5
  1
Pos
  7
ROMANS
  0
CIRCLE
  8
DIK
 10
-172.011475615595
 20
35.230609663178
 30
0.0
 40
3.5
  0
LINE
  8
HARTLIJN
 10
-172.011475615595
 20
40.304753886429
 30
0.0
 11
-172.011475615595
 21
30.156465439926
 31
0.0
  0
CIRCLE
  8
DIK
 10
-172.011475615595
 20
35.230609663178
 30
0.0
 40
1.5
  0
LINE
  8
DIK
 10
-162.450142380332
 20
35.230609663178
 30
0.0
 11
-162.450142380332
 21
36.730609663178
 31
0.0
  0
LINE
  8
DIK
 10
-162.450142380332
 20
35.230609663178
 30
0.0
 11
-162.450142380332
 21
33.730609663178
 31
0.0
  0
TEXT
  8
DUN
 10
-166.25
 20
48.25
 30
0.0
 40
2.5
  1
Aant.
  7
ROMANS
  0
LINE
  8
DIK
 10
-149.881549613079
 20
24.384441918051
 30
0.0
 11
-149.881549613079
 21
13.81954903515
 31
0.0
  0
TEXT
  8
DUN
 10
-143.75
 20
30.25
 30
0.0
 40
2.5
  1
Datum
  7
ROMANS
  0
TEXT
  8
DUN
 10
-153.75
 20
48.25
 30
0.0
 40
2.5
  1
Benaming
  7
ROMANS
  0
TEXT
  8
DUN
 10
-143.75
 20
42.25
 30
0.0
 40
2.5
  1
Schaal
  7
ROMANS
  0
LINE
  8
DUN
 10
-145.0
 20
47.0
 30
0.0
 11
-145.0
 21
29.0
 31
0.0
  0
LINE
  8
DIK
 10
-152.450142380332
 20
38.730609663178
 30
0.0
 11
-152.450142380332
 21
31.730609663178
 31
0.0
  0
LINE
  8
DUN
 10
-105.0
 20
57.0
 30
0.0
 11
-105.0
 21
5.0
 31
0.0
  0
LINE
  8
DUN
 10
-80.0
 20
57.0
 30
0.0
 11
-80.0
 21
47.0
 31
0.0
  0
TEXT
  8
DUN
 10
-103.75
 20
48.25
 30
0.0
 40
2.5
  1
Materiaal
  7
ROMANS
  0
TEXT
  8
DUN
 10
-103.75
 20
42.25
 30
0.0
 40
2.5
  1
Getekend
  7
ROMANS
  0
TEXT
  8
DUN
 10
-103.75
 20
36.25
 30
0.0
 40
2.5
  1
Semester
  7
ROMANS
  0
TEXT
  8
DUN
 10
-103.75
 20
11.25
 30
0.0
 40
2.5
  1
Opdracht
  7
ROMANS
  0
TEXT
  8
DUN
 10
-103.75
 20
25.25
 30
0.0
 40
2.5
  1
Benaming
  7
ROMANS
  0
TEXT
  8
DUN
 10
-103.75
 20
30.25
 30
0.0
 40
2.5
  1
Gezien
  7
ROMANS
  0
TEXT
  8
DUN
 10
-78.75
 20
48.25
 30
0.0
 40
2.5
  1
Afmetingen
  7
ROMANS
  0
LINE
  8
DUN
 10
-40.0
 20
57.0
 30
0.0
 11
-40.0
 21
47.0
 31
0.0
  0
TEXT
  8
DUN
 10
-43.75
 20
42.25
 30
0.0
 40
2.5
  1
Ruwheid NEN 3634
  7
ROMANS
  0
TEXT
  8
DUN
 10
-43.75
 20
36.25
 30
0.0
 40
2.5
  1
Maattol. NEN 406
  7
ROMANS
  0
TEXT
  8
DUN
 10
-43.75
 20
30.25
 30
0.0
 40
2.5
  1
Vorm/pl.tol NEN 1101
  7
ROMANS
  0
TEXT
  8
DUN
 10
-38.75
 20
48.25
 30
0.0
 40
2.5
  1
Opmerking
  7
ROMANS
  0
LINE
  8
DUN
 10
-55.0
 20
15.0
 30
0.0
 11
-55.0
 21
5.0
 31
0.0
  0
TEXT
  8
DUN
 10
-53.75
 20
11.25
 30
0.0
 40
2.5
  1
Tek.nr.
  7
ROMANS
  0
LINE
  8
DUN
 10
-45.0
 20
47.0
 30
0.0
 11
-45.0
 21
29.0
 31
0.0
  0
LINE
  8
DUN
 10
-12.5
 20
5.0
 30
0.0
 11
-12.5
 21
15.0
 31
0.0
  0
POINT
  8
DUN
 10
0.0
 20
5.0
 30
0.0
  0
POINT
  8
DIK
 10
0.0
 20
5.0
 30
0.0
  0
ENDBLK
  8
0
  0
BLOCK
  8
0
  2
REGEL
 70
     2
 10
0.0
 20
0.0
 30
0.0
  3
REGEL
  0
ATTDEF
  8
DUN
 10
-178.75
 20
1.25
 30
0.0
 40
2.5
  1

  3

  2
POS.NR.
 70
     0
  7
ROMANS
  0
ATTDEF
  8
DUN
 10
-166.25
 20
1.25
 30
0.0
 40
2.5
  1

  3

  2
AANTAL
 70
     0
  7
ROMANS
  0
ATTDEF
  8
DUN
 10
-153.75
 20
1.25
 30
0.0
 40
2.5
  1

  3

  2
BENAMING
 70
     0
  7
ROMANS
  0
ATTDEF
  8
DUN
 10
-103.75
 20
1.25
 30
0.0
 40
2.5
  1

  3

  2
MATERIAAL
 70
     0
  7
ROMANS
  0
ATTDEF
  8
DUN
 10
-78.75
 20
1.25
 30
0.0
 40
2.5
  1

  3

  2
AFMETINGEN
 70
     0
  7
ROMANS
  0
ATTDEF
  8
DUN
 10
-38.75
 20
1.25
 30
0.0
 40
2.5
  1

  3

  2
OPMERKINGEN
 70
     0
  7
ROMANS
  0
LINE
  8
DUN
 10
0.0
 20
5.0
 30
0.0
 11
-180.0
 21
5.0
 31
0.0
  0
LINE
  8
DUN
 10
-40.0
 20
5.0
 30
0.0
 11
-40.0
 21
0.0
 31
0.0
  0
LINE
  8
DUN
 10
-80.0
 20
5.0
 30
0.0
 11
-80.0
 21
0.0
 31
0.0
  0
LINE
  8
DUN
 10
-105.0
 20
5.0
 30
0.0
 11
-105.0
 21
0.0
 31
0.0
  0
LINE
  8
DUN
 10
-155.0
 20
5.0
 30
0.0
 11
-155.0
 21
0.0
 31
0.0
  0
LINE
  8
DUN
 10
-167.5
 20
5.0
 30
0.0
 11
-167.5
 21
0.0
 31
0.0
  0
LINE
  8
DIK
 10
-180.0
 20
5.0
 30
0.0
 11
-180.0
 21
0.0
 31
0.0
  0
ENDBLK
  8
0
  0
BLOCK
  8
0
  2
A0L
 70
     2
 10
0.0
 20
0.0
 30
0.0
  3
A0L
  0
LINE
  8
DUN
 10
0.0
 20
841.0
 30
0.0
 11
-1189.0
 21
841.0
 31
0.0
  0
LINE
  8
DUN
 10
-1189.0
 20
0.0
 30
0.0
 11
0.0
 21
0.0
 31
0.0
  0
POLYLINE
  8
DIK
 66
     1
 10
0.0
 20
0.0
 30
0.0
 70
     1
  0
VERTEX
  8
DIK
 10
-1169.0
 20
10.0
 30
0.0
  0
VERTEX
  8
DIK
 10
-10.0
 20
10.0
 30
0.0
  0
VERTEX
  8
DIK
 10
-10.0
 20
831.0
 30
0.0
  0
VERTEX
  8
DIK
 10
-1169.0
 20
831.0
 30
0.0
  0
SEQEND
  8
DIK
  0
LINE
  8
DUN
 10
-1189.0
 20
841.0
 30
0.0
 11
-1189.0
 21
0.0
 31
0.0
  0
LINE
  8
DUN
 10
-979.0
 20
0.0
 30
0.0
 11
-979.0
 21
10.0
 31
0.0
  0
LINE
  8
DUN
 10
-869.5
 20
0.0
 30
0.0
 11
-869.5
 21
10.0
 31
0.0
  0
LINE
  8
DUN
 10
-760.0
 20
0.0
 30
0.0
 11
-760.0
 21
10.0
 31
0.0
  0
LINE
  8
DUN
 10
-1189.0
 20
297.0
 30
0.0
 11
-1169.0
 21
297.0
 31
0.0
  0
LINE
  8
DUN
 10
-1189.0
 20
594.0
 30
0.0
 11
-1169.0
 21
594.0
 31
0.0
  0
LINE
  8
DUN
 10
-979.0
 20
831.0
 30
0.0
 11
-979.0
 21
841.0
 31
0.0
  0
LINE
  8
DUN
 10
-869.5
 20
831.0
 30
0.0
 11
-869.5
 21
841.0
 31
0.0
  0
LINE
  8
DUN
 10
-760.0
 20
831.0
 30
0.0
 11
-760.0
 21
841.0
 31
0.0
  0
LINE
  8
DUN
 10
0.0
 20
0.0
 30
0.0
 11
0.0
 21
841.0
 31
0.0
  0
LINE
  8
DUN
 10
-570.0
 20
0.0
 30
0.0
 11
-570.0
 21
10.0
 31
0.0
  0
LINE
  8
DUN
 10
-380.0
 20
0.0
 30
0.0
 11
-380.0
 21
10.0
 31
0.0
  0
INSERT
  8
HARTLIJN-DUBBEL
  2
TEKENH
 10
-10.0
 20
10.0
 30
0.0
  0
ATTDEF
  8
DUN
 10
-69.916666666667
 20
16.25
 30
0.0
 40
3.5
  1

  3

  2
TEKENINGNUMMER
 70
     0
  7
ROMANS
 72
     2
 11
-23.75
 21
16.25
 31
0.0
  0
LINE
  8
DUN
 10
-190.0
 20
0.0
 30
0.0
 11
-190.0
 21
10.0
 31
0.0
  0
ATTDEF
  8
DUN
 10
-140.416666666667
 20
46.25
 30
0.0
 40
2.5
  1
mm
  3

  2
MAATEENHEID
 70
     8
  7
ROMANS
 72
     2
 11
-116.25
 21
46.25
 31
0.0
  0
ATTDEF
  8
DUN
 10
-129.940476190476
 20
52.25
 30
0.0
 40
2.5
  1

  3

  2
SCHAAL
 70
     0
  7
ROMANS
 72
     2
 11
-116.25
 21
52.25
 31
0.0
  0
ATTDEF
  8
DUN
 10
-127.797619047619
 20
40.25
 30
0.0
 40
2.5
  1

  3

  2
DATUM
 70
     0
  7
ROMANS
 72
     2
 11
-116.25
 21
40.25
 31
0.0
  0
ATTDEF
  8
DUN
 10
-93.083333333333
 20
16.25
 30
0.0
 40
3.5
  1

  3

  2
OPDRACHT
 70
     0
  7
ROMANS
 72
     2
 11
-66.25
 21
16.25
 31
0.0
  0
ATTDEF
  8
DUN
 10
-74.702380952381
 20
52.25
 30
0.0
 40
2.5
  1

  3

  2
GETEKEND
 70
     0
  7
ROMANS
 72
     2
 11
-56.25
 21
52.25
 31
0.0
  0
ATTDEF
  8
DUN
 10
-74.702380952381
 20
46.25
 30
0.0
 40
2.5
  1

  3

  2
SEMESTER
 70
     0
  7
ROMANS
 72
     2
 11
-56.25
 21
46.25
 31
0.0
  0
ATTDEF
  8
DIK
 10
-48.690476190476
 20
27.5
 30
0.0
 40
5.0
  1

  3

  2
BENAMING
 70
     0
  7
ROMANS
 72
     2
 11
-12.5
 21
27.5
 31
0.0
  0
TEXT
  8
DUN
 10
-19.5
 20
18.5
 30
0.0
 40
3.0
  1
A0
 72
     2
 11
-15.0
 21
18.5
 31
0.0
  0
LINE
  8
DUN
 10
-570.0
 20
831.0
 30
0.0
 11
-570.0
 21
841.0
 31
0.0
  0
LINE
  8
DUN
 10
-380.0
 20
831.0
 30
0.0
 11
-380.0
 21
841.0
 31
0.0
  0
LINE
  8
DUN
 10
-10.0
 20
297.0
 30
0.0
 11
0.0
 21
297.0
 31
0.0
  0
LINE
  8
DUN
 10
-10.0
 20
594.0
 30
0.0
 11
0.0
 21
594.0
 31
0.0
  0
LINE
  8
DUN
 10
-190.0
 20
831.0
 30
0.0
 11
-190.0
 21
841.0
 31
0.0
  0
ENDBLK
  8
0
  0
BLOCK
  8
0
  2
A0S
 70
     2
 10
0.0
 20
0.0
 30
0.0
  3
A0S
  0
LINE
  8
DUN
 10
-841.0
 20
1188.0
 30
0.0
 11
-841.0
 21
0.0
 31
0.0
  0
LINE
  8
DUN
 10
0.0
 20
0.0
 30
0.0
 11
0.0
 21
1188.0
 31
0.0
  0
POLYLINE
  8
DIK
 66
     1
 10
0.0
 20
0.0
 30
0.0
 70
     1
  0
VERTEX
  8
DIK
 10
-821.0
 20
10.0
 30
0.0
  0
VERTEX
  8
DIK
 10
-10.0
 20
10.0
 30
0.0
  0
VERTEX
  8
DIK
 10
-10.0
 20
1178.0
 30
0.0
  0
VERTEX
  8
DIK
 10
-821.0
 20
1178.0
 30
0.0
  0
SEQEND
  8
DIK
  0
LINE
  8
DUN
 10
-841.0
 20
0.0
 30
0.0
 11
0.0
 21
0.0
 31
0.0
  0
LINE
  8
DUN
 10
-631.0
 20
0.0
 30
0.0
 11
-631.0
 21
10.0
 31
0.0
  0
LINE
  8
DUN
 10
-505.5
 20
0.0
 30
0.0
 11
-505.5
 21
10.0
 31
0.0
  0
LINE
  8
DUN
 10
-380.0
 20
0.0
 30
0.0
 11
-380.0
 21
10.0
 31
0.0
  0
INSERT
  8
DUN
  2
TEKENH
 10
-10.0
 20
10.0
 30
0.0
  0
ATTDEF
  8
DUN
 10
-69.916666666667
 20
16.25
 30
0.0
 40
3.5
  1

  3

  2
TEKENINGNUMMER
 70
     0
  7
ROMANS
 72
     2
 11
-23.75
 21
16.25
 31
0.0
  0
LINE
  8
DUN
 10
-190.0
 20
0.0
 30
0.0
 11
-190.0
 21
10.0
 31
0.0
  0
ATTDEF
  8
DUN
 10
-140.416666666667
 20
46.25
 30
0.0
 40
2.5
  1
mm
  3

  2
MAATEENHEID
 70
     8
  7
ROMANS
 72
     2
 11
-116.25
 21
46.25
 31
0.0
  0
ATTDEF
  8
DUN
 10
-129.940476190476
 20
52.25
 30
0.0
 40
2.5
  1

  3

  2
SCHAAL
 70
     0
  7
ROMANS
 72
     2
 11
-116.25
 21
52.25
 31
0.0
  0
ATTDEF
  8
DUN
 10
-127.797619047619
 20
40.25
 30
0.0
 40
2.5
  1

  3

  2
DATUM
 70
     0
  7
ROMANS
 72
     2
 11
-116.25
 21
40.25
 31
0.0
  0
ATTDEF
  8
DUN
 10
-93.083333333333
 20
16.25
 30
0.0
 40
3.5
  1

  3

  2
OPDRACHT
 70
     0
  7
ROMANS
 72
     2
 11
-66.25
 21
16.25
 31
0.0
  0
ATTDEF
  8
DUN
 10
-74.702380952381
 20
52.25
 30
0.0
 40
2.5
  1

  3

  2
GETEKEND
 70
     0
  7
ROMANS
 72
     2
 11
-56.25
 21
52.25
 31
0.0
  0
ATTDEF
  8
DUN
 10
-74.702380952381
 20
46.25
 30
0.0
 40
2.5
  1

  3

  2
SEMESTER
 70
     0
  7
ROMANS
 72
     2
 11
-56.25
 21
46.25
 31
0.0
  0
ATTDEF
  8
DIK
 10
-48.690476190476
 20
27.5
 30
0.0
 40
5.0
  1

  3

  2
BENAMING
 70
     0
  7
ROMANS
 72
     2
 11
-12.5
 21
27.5
 31
0.0
  0
TEXT
  8
DUN
 10
-19.5
 20
18.5
 30
0.0
 40
3.0
  1
A0
 72
     2
 11
-15.0
 21
18.5
 31
0.0
  0
LINE
  8
DUN
 10
0.0
 20
1188.0
 30
0.0
 11
-841.0
 21
1188.0
 31
0.0
  0
LINE
  8
DUN
 10
-841.0
 20
297.0
 30
0.0
 11
-821.0
 21
297.0
 31
0.0
  0
LINE
  8
DUN
 10
-841.0
 20
594.0
 30
0.0
 11
-821.0
 21
594.0
 31
0.0
  0
LINE
  8
DUN
 10
-841.0
 20
891.0
 30
0.0
 11
-821.0
 21
891.0
 31
0.0
  0
LINE
  8
DUN
 10
-10.0
 20
297.0
 30
0.0
 11
0.0
 21
297.0
 31
0.0
  0
LINE
  8
DUN
 10
-10.0
 20
594.0
 30
0.0
 11
0.0
 21
594.0
 31
0.0
  0
LINE
  8
DUN
 10
-631.0
 20
1178.0
 30
0.0
 11
-631.0
 21
1188.0
 31
0.0
  0
LINE
  8
DUN
 10
-505.5
 20
1178.0
 30
0.0
 11
-505.5
 21
1188.0
 31
0.0
  0
LINE
  8
DUN
 10
-380.0
 20
1178.0
 30
0.0
 11
-380.0
 21
1188.0
 31
0.0
  0
LINE
  8
DUN
 10
-10.0
 20
891.0
 30
0.0
 11
0.0
 21
891.0
 31
0.0
  0
LINE
  8
DUN
 10
-190.0
 20
1178.0
 30
0.0
 11
-190.0
 21
1188.0
 31
0.0
  0
ENDBLK
  8
0
  0
BLOCK
  8
0
  2
A1S
 70
     2
 10
0.0
 20
0.0
 30
0.0
  3
A1S
  0
LINE
  8
DIK
 10
-10.0
 20
830.0
 30
0.0
 11
-574.0
 21
830.0
 31
0.0
  0
LINE
  8
DIK
 10
-574.0
 20
10.0
 30
0.0
 11
-10.0
 21
10.0
 31
0.0
  0
LINE
  8
DUN
 10
0.0
 20
840.0
 30
0.0
 11
-594.0
 21
840.0
 31
0.0
  0
LINE
  8
DUN
 10
-594.0
 20
0.0
 30
0.0
 11
0.0
 21
0.0
 31
0.0
  0
LINE
  8
DIK
 10
-574.0
 20
830.0
 30
0.0
 11
-574.0
 21
10.0
 31
0.0
  0
LINE
  8
DUN
 10
-594.0
 20
840.0
 30
0.0
 11
-594.0
 21
0.0
 31
0.0
  0
LINE
  8
DUN
 10
-594.0
 20
297.0
 30
0.0
 11
-574.0
 21
297.0
 31
0.0
  0
LINE
  8
DUN
 10
-594.0
 20
594.0
 30
0.0
 11
-574.0
 21
594.0
 31
0.0
  0
LINE
  8
DIK
 10
-10.0
 20
10.0
 30
0.0
 11
-10.0
 21
830.0
 31
0.0
  0
LINE
  8
DUN
 10
0.0
 20
0.0
 30
0.0
 11
0.0
 21
840.0
 31
0.0
  0
INSERT
  8
DUN
  2
TEKENH
 10
-10.0
 20
10.0
 30
0.0
  0
ATTDEF
  8
DUN
 10
-74.702380952381
 20
52.25
 30
0.0
 40
2.5
  1

  3

  2
GETEKEND
 70
     0
  7
ROMANS
 72
     2
 11
-56.25
 21
52.25
 31
0.0
  0
ATTDEF
  8
DUN
 10
-74.702380952381
 20
46.25
 30
0.0
 40
2.5
  1

  3

  2
SEMESTER
 70
     0
  7
ROMANS
 72
     2
 11
-56.25
 21
46.25
 31
0.0
  0
ATTDEF
  8
DUN
 10
-69.916666666667
 20
16.25
 30
0.0
 40
3.5
  1

  3

  2
TEKENINGNUMMER
 70
     0
  7
ROMANS
 72
     2
 11
-23.75
 21
16.25
 31
0.0
  0
LINE
  8
DUN
 10
-478.0
 20
0.0
 30
0.0
 11
-478.0
 21
10.0
 31
0.0
  0
LINE
  8
DUN
 10
-382.0
 20
0.0
 30
0.0
 11
-382.0
 21
10.0
 31
0.0
  0
LINE
  8
DUN
 10
-286.0
 20
0.0
 30
0.0
 11
-286.0
 21
10.0
 31
0.0
  0
LINE
  8
DUN
 10
-190.0
 20
0.0
 30
0.0
 11
-190.0
 21
10.0
 31
0.0
  0
ATTDEF
  8
DUN
 10
-129.940476190476
 20
52.25
 30
0.0
 40
2.5
  1

  3

  2
SCHAAL
 70
     0
  7
ROMANS
 72
     2
 11
-116.25
 21
52.25
 31
0.0
  0
ATTDEF
  8
DUN
 10
-140.416666666667
 20
46.25
 30
0.0
 40
2.5
  1
mm
  3

  2
MAATEENHEID
 70
     8
  7
ROMANS
 72
     2
 11
-116.25
 21
46.25
 31
0.0
  0
ATTDEF
  8
DUN
 10
-127.797619047619
 20
40.25
 30
0.0
 40
2.5
  1

  3

  2
DATUM
 70
     0
  7
ROMANS
 72
     2
 11
-116.25
 21
40.25
 31
0.0
  0
ATTDEF
  8
DUN
 10
-93.083333333333
 20
16.25
 30
0.0
 40
3.5
  1

  3

  2
OPDRACHT
 70
     0
  7
ROMANS
 72
     2
 11
-66.25
 21
16.25
 31
0.0
  0
TEXT
  8
DUN
 10
-19.0
 20
18.5
 30
0.0
 40
3.0
  1
A1
 72
     2
 11
-15.0
 21
18.5
 31
0.0
  0
ATTDEF
  8
DIK
 10
-48.690476190476
 20
27.5
 30
0.0
 40
5.0
  1

  3

  2
BENAMING
 70
     0
  7
ROMANS
 72
     2
 11
-12.5
 21
27.5
 31
0.0
  0
LINE
  8
DUN
 10
-478.0
 20
830.0
 30
0.0
 11
-478.0
 21
840.0
 31
0.0
  0
LINE
  8
DUN
 10
-382.0
 20
830.0
 30
0.0
 11
-382.0
 21
840.0
 31
0.0
  0
LINE
  8
DUN
 10
-286.0
 20
830.0
 30
0.0
 11
-286.0
 21
840.0
 31
0.0
  0
LINE
  8
DUN
 10
-190.0
 20
830.0
 30
0.0
 11
-190.0
 21
840.0
 31
0.0
  0
LINE
  8
DUN
 10
-10.0
 20
297.0
 30
0.0
 11
0.0
 21
297.0
 31
0.0
  0
LINE
  8
DUN
 10
-10.0
 20
594.0
 30
0.0
 11
0.0
 21
594.0
 31
0.0
  0
ENDBLK
  8
0
  0
BLOCK
  8
0
  2
A1L
 70
     2
 10
0.0
 20
0.0
 30
0.0
  3
A1L
  0
LINE
  8
DUN
 10
0.0
 20
594.0
 30
0.0
 11
-841.0
 21
594.0
 31
0.0
  0
LINE
  8
DUN
 10
-841.0
 20
0.0
 30
0.0
 11
0.0
 21
0.0
 31
0.0
  0
POLYLINE
  8
DIK
 66
     1
 10
0.0
 20
0.0
 30
0.0
 70
     1
  0
VERTEX
  8
DIK
 10
-821.0
 20
10.0
 30
0.0
  0
VERTEX
  8
DIK
 10
-10.0
 20
10.0
 30
0.0
  0
VERTEX
  8
DIK
 10
-10.0
 20
584.0
 30
0.0
  0
VERTEX
  8
DIK
 10
-821.0
 20
584.0
 30
0.0
  0
SEQEND
  8
DIK
  0
LINE
  8
DUN
 10
-841.0
 20
594.0
 30
0.0
 11
-841.0
 21
0.0
 31
0.0
  0
LINE
  8
DUN
 10
-631.0
 20
0.0
 30
0.0
 11
-631.0
 21
10.0
 31
0.0
  0
LINE
  8
DUN
 10
-505.5
 20
0.0
 30
0.0
 11
-505.5
 21
10.0
 31
0.0
  0
LINE
  8
DUN
 10
-505.5
 20
584.0
 30
0.0
 11
-505.5
 21
594.0
 31
0.0
  0
LINE
  8
DUN
 10
-631.0
 20
584.0
 30
0.0
 11
-631.0
 21
594.0
 31
0.0
  0
LINE
  8
DUN
 10
-841.0
 20
297.0
 30
0.0
 11
-821.0
 21
297.0
 31
0.0
  0
LINE
  8
DUN
 10
0.0
 20
0.0
 30
0.0
 11
0.0
 21
594.0
 31
0.0
  0
INSERT
  8
HARTLIJN-DUBBEL
  2
TEKENH
 10
-10.0
 20
10.0
 30
0.0
  0
ATTDEF
  8
DUN
 10
-93.083333333334
 20
16.25
 30
0.0
 40
3.5
  1

  3

  2
OPDRACHT
 70
     0
  7
ROMANS
 72
     2
 11
-66.25
 21
16.25
 31
0.0
  0
LINE
  8
DUN
 10
-380.0
 20
0.0
 30
0.0
 11
-380.0
 21
10.0
 31
0.0
  0
LINE
  8
DUN
 10
-190.0
 20
0.0
 30
0.0
 11
-190.0
 21
10.0
 31
0.0
  0
ATTDEF
  8
DUN
 10
-140.416666666667
 20
46.25
 30
0.0
 40
2.5
  1
mm
  3

  2
MAATEENHEID
 70
     8
  7
ROMANS
 72
     2
 11
-116.25
 21
46.25
 31
0.0
  0
ATTDEF
  8
DUN
 10
-129.940476190476
 20
52.25
 30
0.0
 40
2.5
  1

  3

  2
SCHAAL
 70
     0
  7
ROMANS
 72
     2
 11
-116.25
 21
52.25
 31
0.0
  0
ATTDEF
  8
DUN
 10
-127.797619047619
 20
40.25
 30
0.0
 40
2.5
  1

  3

  2
DATUM
 70
     0
  7
ROMANS
 72
     2
 11
-116.25
 21
40.25
 31
0.0
  0
ATTDEF
  8
DUN
 10
-69.916666666667
 20
16.25
 30
0.0
 40
3.5
  1

  3

  2
TEKENINGNUMMER
 70
     0
  7
ROMANS
 72
     2
 11
-23.75
 21
16.25
 31
0.0
  0
ATTDEF
  8
DIK
 10
-48.690476190476
 20
27.5
 30
0.0
 40
5.0
  1

  3

  2
BENAMING
 70
     0
  7
ROMANS
 72
     2
 11
-12.5
 21
27.5
 31
0.0
  0
ATTDEF
  8
DUN
 10
-74.702380952381
 20
52.25
 30
0.0
 40
2.5
  1

  3

  2
GETEKEND
 70
     0
  7
ROMANS
 72
     2
 11
-56.25
 21
52.25
 31
0.0
  0
ATTDEF
  8
DUN
 10
-74.702380952381
 20
46.25
 30
0.0
 40
2.5
  1

  3

  2
SEMESTER
 70
     0
  7
ROMANS
 72
     2
 11
-56.25
 21
46.25
 31
0.0
  0
TEXT
  8
DUN
 10
-19.0
 20
18.5
 30
0.0
 40
3.0
  1
A1
 72
     2
 11
-15.0
 21
18.5
 31
0.0
  0
LINE
  8
DUN
 10
-190.0
 20
584.0
 30
0.0
 11
-190.0
 21
594.0
 31
0.0
  0
LINE
  8
DUN
 10
-380.0
 20
584.0
 30
0.0
 11
-380.0
 21
594.0
 31
0.0
  0
LINE
  8
DUN
 10
-10.0
 20
297.0
 30
0.0
 11
0.0
 21
297.0
 31
0.0
  0
ENDBLK
  8
0
  0
BLOCK
  8
0
  2
A2L
 70
     2
 10
0.0
 20
0.0
 30
0.0
  3
A2L
  0
LINE
  8
DUN
 10
0.0
 20
420.0
 30
0.0
 11
-594.0
 21
420.0
 31
0.0
  0
LINE
  8
DUN
 10
-594.0
 20
0.0
 30
0.0
 11
0.0
 21
0.0
 31
0.0
  0
POLYLINE
  8
DIK
 66
     1
 10
0.0
 20
0.0
 30
0.0
 70
     1
  0
VERTEX
  8
DIK
 10
-574.0
 20
10.0
 30
0.0
  0
VERTEX
  8
DIK
 10
-10.0
 20
10.0
 30
0.0
  0
VERTEX
  8
DIK
 10
-10.0
 20
410.0
 30
0.0
  0
VERTEX
  8
DIK
 10
-574.0
 20
410.0
 30
0.0
  0
SEQEND
  8
DIK
  0
LINE
  8
DUN
 10
-594.0
 20
420.0
 30
0.0
 11
-594.0
 21
0.0
 31
0.0
  0
LINE
  8
DUN
 10
-594.0
 20
297.0
 30
0.0
 11
-574.0
 21
297.0
 31
0.0
  0
LINE
  8
DUN
 10
0.0
 20
0.0
 30
0.0
 11
0.0
 21
420.0
 31
0.0
  0
INSERT
  8
DIK
  2
TEKENH
 10
-10.0
 20
10.0
 30
0.0
  0
ATTDEF
  8
DUN
 10
-74.702380952381
 20
52.25
 30
0.0
 40
2.5
  1

  3

  2
GETEKEND
 70
     0
  7
ROMANS
 72
     2
 11
-56.25
 21
52.25
 31
0.0
  0
ATTDEF
  8
DUN
 10
-74.702380952381
 20
46.25
 30
0.0
 40
2.5
  1

  3

  2
SEMESTER
 70
     0
  7
ROMANS
 72
     2
 11
-56.25
 21
46.25
 31
0.0
  0
ATTDEF
  8
DUN
 10
-69.916666666667
 20
16.25
 30
0.0
 40
3.5
  1

  3

  2
TEKENINGNUMMER
 70
     0
  7
ROMANS
 72
     2
 11
-23.75
 21
16.25
 31
0.0
  0
LINE
  8
DUN
 10
-478.0
 20
0.0
 30
0.0
 11
-478.0
 21
10.0
 31
0.0
  0
LINE
  8
DUN
 10
-382.0
 20
0.0
 30
0.0
 11
-382.0
 21
10.0
 31
0.0
  0
LINE
  8
DUN
 10
-286.0
 20
0.0
 30
0.0
 11
-286.0
 21
10.0
 31
0.0
  0
LINE
  8
DUN
 10
-190.0
 20
0.0
 30
0.0
 11
-190.0
 21
10.0
 31
0.0
  0
ATTDEF
  8
DUN
 10
-140.416666666667
 20
46.25
 30
0.0
 40
2.5
  1
mm
  3

  2
MAATEENHEID
 70
     8
  7
ROMANS
 72
     2
 11
-116.25
 21
46.25
 31
0.0
  0
ATTDEF
  8
DUN
 10
-129.940476190476
 20
52.25
 30
0.0
 40
2.5
  1

  3

  2
SCHAAL
 70
     0
  7
ROMANS
 72
     2
 11
-116.25
 21
52.25
 31
0.0
  0
ATTDEF
  8
DUN
 10
-127.797619047619
 20
40.25
 30
0.0
 40
2.5
  1

  3

  2
DATUM
 70
     0
  7
ROMANS
 72
     2
 11
-116.25
 21
40.25
 31
0.0
  0
ATTDEF
  8
DUN
 10
-93.083333333333
 20
16.25
 30
0.0
 40
3.5
  1

  3

  2
OPDRACHT
 70
     0
  7
ROMANS
 72
     2
 11
-66.25
 21
16.25
 31
0.0
  0
ATTDEF
  8
DIK
 10
-48.690476190476
 20
27.5
 30
0.0
 40
5.0
  1

  3

  2
BENAMING
 70
     0
  7
ROMANS
 72
     2
 11
-12.5
 21
27.5
 31
0.0
  0
TEXT
  8
DUN
 10
-20.0
 20
18.5
 30
0.0
 40
3.0
  1
A2
 72
     2
 11
-15.0
 21
18.5
 31
0.0
  0
LINE
  8
DUN
 10
-478.0
 20
410.0
 30
0.0
 11
-478.0
 21
420.0
 31
0.0
  0
LINE
  8
DUN
 10
-382.0
 20
410.0
 30
0.0
 11
-382.0
 21
420.0
 31
0.0
  0
LINE
  8
DUN
 10
-286.0
 20
410.0
 30
0.0
 11
-286.0
 21
420.0
 31
0.0
  0
LINE
  8
DUN
 10
-190.0
 20
410.0
 30
0.0
 11
-190.0
 21
420.0
 31
0.0
  0
LINE
  8
DUN
 10
-10.0
 20
297.0
 30
0.0
 11
0.0
 21
297.0
 31
0.0
  0
ENDBLK
  8
0
  0
BLOCK
  8
0
  2
A2S
 70
     2
 10
0.0
 20
0.0
 30
0.0
  3
A2S
  0
LINE
  8
DIK
 10
-400.0
 20
584.0
 30
0.0
 11
-400.0
 21
10.0
 31
0.0
  0
LINE
  8
DIK
 10
-10.0
 20
10.0
 30
0.0
 11
-10.0
 21
584.0
 31
0.0
  0
LINE
  8
DUN
 10
-420.0
 20
594.0
 30
0.0
 11
-420.0
 21
0.0
 31
0.0
  0
LINE
  8
DUN
 10
0.0
 20
0.0
 30
0.0
 11
0.0
 21
594.0
 31
0.0
  0
LINE
  8
DIK
 10
-400.0
 20
10.0
 30
0.0
 11
-10.0
 21
10.0
 31
0.0
  0
LINE
  8
DUN
 10
-420.0
 20
0.0
 30
0.0
 11
0.0
 21
0.0
 31
0.0
  0
INSERT
  8
DIK
  2
TEKENH
 10
-10.0
 20
10.0
 30
0.0
  0
ATTDEF
  8
DUN
 10
-93.083333333334
 20
16.25
 30
0.0
 40
3.5
  1

  3

  2
OPDRACHT
 70
     0
  7
ROMANS
 72
     2
 11
-66.25
 21
16.25
 31
0.0
  0
LINE
  8
DUN
 10
-295.0
 20
0.0
 30
0.0
 11
-295.0
 21
10.0
 31
0.0
  0
LINE
  8
DUN
 10
-420.0
 20
297.0
 30
0.0
 11
-400.0
 21
297.0
 31
0.0
  0
LINE
  8
DUN
 10
-190.0
 20
0.0
 30
0.0
 11
-190.0
 21
10.0
 31
0.0
  0
ATTDEF
  8
DUN
 10
-140.416666666667
 20
46.25
 30
0.0
 40
2.5
  1
mm
  3

  2
MAATEENHEID
 70
     8
  7
ROMANS
 72
     2
 11
-116.25
 21
46.25
 31
0.0
  0
ATTDEF
  8
DUN
 10
-127.797619047619
 20
40.25
 30
0.0
 40
2.5
  1

  3

  2
DATUM
 70
     0
  7
ROMANS
 72
     2
 11
-116.25
 21
40.25
 31
0.0
  0
ATTDEF
  8
DUN
 10
-129.940476190476
 20
52.25
 30
0.0
 40
2.5
  1

  3

  2
SCHAAL
 70
     0
  7
ROMANS
 72
     2
 11
-116.25
 21
52.25
 31
0.0
  0
ATTDEF
  8
DUN
 10
-69.916666666667
 20
16.25
 30
0.0
 40
3.5
  1

  3

  2
TEKENINGNUMMER
 70
     0
  7
ROMANS
 72
     2
 11
-23.75
 21
16.25
 31
0.0
  0
ATTDEF
  8
DIK
 10
-48.690476190476
 20
27.5
 30
0.0
 40
5.0
  1

  3

  2
BENAMING
 70
     0
  7
ROMANS
 72
     2
 11
-12.5
 21
27.5
 31
0.0
  0
ATTDEF
  8
DUN
 10
-74.702380952381
 20
46.25
 30
0.0
 40
2.5
  1

  3

  2
SEMESTER
 70
     0
  7
ROMANS
 72
     2
 11
-56.25
 21
46.25
 31
0.0
  0
TEXT
  8
DUN
 10
-20.0
 20
28.5
 30
0.0
 40
3.0
  1
A2
 72
     2
 11
-15.0
 21
28.5
 31
0.0
  0
ATTDEF
  8
DUN
 10
-74.702380952381
 20
52.25
 30
0.0
 40
2.5
  1

  3

  2
GETEKEND
 70
     0
  7
ROMANS
 72
     2
 11
-56.25
 21
52.25
 31
0.0
  0
LINE
  8
DUN
 10
-10.0
 20
297.0
 30
0.0
 11
0.0
 21
297.0
 31
0.0
  0
LINE
  8
DIK
 10
-10.0
 20
584.0
 30
0.0
 11
-400.0
 21
584.0
 31
0.0
  0
LINE
  8
DUN
 10
0.0
 20
594.0
 30
0.0
 11
-420.0
 21
594.0
 31
0.0
  0
LINE
  8
DUN
 10
-295.0
 20
584.0
 30
0.0
 11
-295.0
 21
594.0
 31
0.0
  0
LINE
  8
DUN
 10
-190.0
 20
584.0
 30
0.0
 11
-190.0
 21
594.0
 31
0.0
  0
ENDBLK
  8
0
  0
BLOCK
  8
0
  2
A3S
 70
     2
 10
0.0
 20
0.0
 30
0.0
  3
A3S
  0
LINE
  8
DIK
 10
-277.0
 20
410.0
 30
0.0
 11
-277.0
 21
10.0
 31
0.0
  0
LINE
  8
DIK
 10
-10.0
 20
10.0
 30
0.0
 11
-10.0
 21
410.0
 31
0.0
  0
LINE
  8
DUN
 10
-297.0
 20
420.0
 30
0.0
 11
-297.0
 21
0.0
 31
0.0
  0
LINE
  8
DUN
 10
0.0
 20
0.0
 30
0.0
 11
0.0
 21
420.0
 31
0.0
  0
LINE
  8
DIK
 10
-277.0
 20
10.0
 30
0.0
 11
-10.0
 21
10.0
 31
0.0
  0
LINE
  8
DUN
 10
-297.0
 20
0.0
 30
0.0
 11
0.0
 21
0.0
 31
0.0
  0
LINE
  8
DUN
 10
-233.5
 20
0.0
 30
0.0
 11
-233.5
 21
10.0
 31
0.0
  0
LINE
  8
DUN
 10
-297.0
 20
297.0
 30
0.0
 11
-277.0
 21
297.0
 31
0.0
  0
INSERT
  8
0
  2
TEKENH
 10
-10.0
 20
10.0
 30
0.0
  0
ATTDEF
  8
DUN
 10
-129.940476190476
 20
52.25
 30
0.0
 40
2.5
  1

  3

  2
SCHAAL
 70
     0
  7
ROMANS
 72
     2
 11
-116.25
 21
52.25
 31
0.0
  0
LINE
  8
DUN
 10
-190.0
 20
0.0
 30
0.0
 11
-190.0
 21
10.0
 31
0.0
  0
ATTDEF
  8
DUN
 10
-140.416666666667
 20
46.25
 30
0.0
 40
2.5
  1
mm
  3

  2
MAATEENHEID
 70
     8
  7
ROMANS
 72
     2
 11
-116.25
 21
46.25
 31
0.0
  0
ATTDEF
  8
DUN
 10
-127.797619047619
 20
40.25
 30
0.0
 40
2.5
  1

  3

  2
DATUM
 70
     0
  7
ROMANS
 72
     2
 11
-116.25
 21
40.25
 31
0.0
  0
ATTDEF
  8
DUN
 10
-74.702380952381
 20
52.25
 30
0.0
 40
2.5
  1

  3

  2
GETEKEND
 70
     0
  7
ROMANS
 72
     2
 11
-56.25
 21
52.25
 31
0.0
  0
ATTDEF
  8
DUN
 10
-69.916666666667
 20
16.25
 30
0.0
 40
3.5
  1

  3

  2
TEKENINGNUMMER
 70
     0
  7
ROMANS
 72
     2
 11
-23.75
 21
16.25
 31
0.0
  0
ATTDEF
  8
DUN
 10
-93.083333333333
 20
16.25
 30
0.0
 40
3.5
  1

  3

  2
OPDRACHT
 70
     0
  7
ROMANS
 72
     2
 11
-66.25
 21
16.25
 31
0.0
  0
ATTDEF
  8
DUN
 10
-74.702380952381
 20
46.25
 30
0.0
 40
2.5
  1

  3

  2
SEMESTER
 70
     0
  7
ROMANS
 72
     2
 11
-56.25
 21
46.25
 31
0.0
  0
ATTDEF
  8
DIK
 10
-48.690476190476
 20
27.5
 30
0.0
 40
5.0
  1

  3

  2
BENAMING
 70
     0
  7
ROMANS
 72
     2
 11
-12.5
 21
27.5
 31
0.0
  0
TEXT
  8
DUN
 10
-20.0
 20
18.5
 30
0.0
 40
3.0
  1
A3
 72
     2
 11
-15.0
 21
18.5
 31
0.0
  0
LINE
  8
DUN
 10
-10.0
 20
297.0
 30
0.0
 11
0.0
 21
297.0
 31
0.0
  0
LINE
  8
DIK
 10
-10.0
 20
410.0
 30
0.0
 11
-277.0
 21
410.0
 31
0.0
  0
LINE
  8
DUN
 10
0.0
 20
420.0
 30
0.0
 11
-297.0
 21
420.0
 31
0.0
  0
LINE
  8
DUN
 10
-233.5
 20
410.0
 30
0.0
 11
-233.5
 21
420.0
 31
0.0
  0
LINE
  8
DUN
 10
-190.0
 20
410.0
 30
0.0
 11
-190.0
 21
420.0
 31
0.0
  0
ENDBLK
  8
0
  0
BLOCK
  8
0
  2
A3L
 70
     2
 10
0.0
 20
0.0
 30
0.0
  3
A3L
  0
LINE
  8
DUN
 10
-420.0
 20
297.0
 30
0.0
 11
0.0
 21
297.0
 31
0.0
  0
LINE
  8
DUN
 10
0.0
 20
0.0
 30
0.0
 11
-420.0
 21
0.0
 31
0.0
  0
LINE
  8
DIK
 10
-400.0
 20
287.0
 30
0.0
 11
-10.0
 21
287.0
 31
0.0
  0
LINE
  8
DIK
 10
-10.0
 20
10.0
 30
0.0
 11
-400.0
 21
10.0
 31
0.0
  0
LINE
  8
DUN
 10
-420.0
 20
0.0
 30
0.0
 11
-420.0
 21
297.0
 31
0.0
  0
LINE
  8
DIK
 10
-400.0
 20
10.0
 30
0.0
 11
-400.0
 21
287.0
 31
0.0
  0
INSERT
  8
0
  2
TEKENH
 10
-10.0
 20
10.0
 30
0.0
  0
LINE
  8
DUN
 10
-295.0
 20
10.0
 30
0.0
 11
-295.0
 21
0.0
 31
0.0
  0
LINE
  8
DUN
 10
-190.0
 20
10.0
 30
0.0
 11
-190.0
 21
0.0
 31
0.0
  0
ATTDEF
  8
DUN
 10
-127.797619047619
 20
40.25
 30
0.0
 40
2.5
  1

  3

  2
DATUM
 70
     0
  7
ROMANS
 72
     2
 11
-116.25
 21
40.25
 31
0.0
  0
ATTDEF
  8
DUN
 10
-129.940476190476
 20
52.25
 30
0.0
 40
2.5
  1

  3

  2
SCHAAL
 70
     0
  7
ROMANS
 72
     2
 11
-116.25
 21
52.25
 31
0.0
  0
ATTDEF
  8
DUN
 10
-140.416666666667
 20
46.25
 30
0.0
 40
2.5
  1
mm
  3

  2
MAATEENHEID
 70
     8
  7
ROMANS
 72
     2
 11
-116.25
 21
46.25
 31
0.0
  0
LINE
  8
DUN
 10
-295.0
 20
297.0
 30
0.0
 11
-295.0
 21
287.0
 31
0.0
  0
LINE
  8
DUN
 10
-190.0
 20
297.0
 30
0.0
 11
-190.0
 21
287.0
 31
0.0
  0
LINE
  8
DUN
 10
0.0
 20
297.0
 30
0.0
 11
0.0
 21
0.0
 31
0.0
  0
LINE
  8
DIK
 10
-10.0
 20
287.0
 30
0.0
 11
-10.0
 21
10.0
 31
0.0
  0
ATTDEF
  8
DUN
 10
-69.916666666667
 20
16.25
 30
0.0
 40
3.5
  1

  3

  2
TEKENINGNUMMER
 70
     0
  7
ROMANS
 72
     2
 11
-23.75
 21
16.25
 31
0.0
  0
ATTDEF
  8
DUN
 10
-93.083333333333
 20
16.25
 30
0.0
 40
3.5
  1

  3

  2
OPDRACHT
 70
     0
  7
ROMANS
 72
     2
 11
-66.25
 21
16.25
 31
0.0
  0
ATTDEF
  8
DIK
 10
-48.690476190476
 20
27.5
 30
0.0
 40
5.0
  1

  3

  2
BENAMING
 70
     0
  7
ROMANS
 72
     2
 11
-12.5
 21
27.5
 31
0.0
  0
TEXT
  8
DUN
 10
-20.0
 20
18.5
 30
0.0
 40
3.0
  1
A3
 72
     2
 11
-15.0
 21
18.5
 31
0.0
  0
ATTDEF
  8
DUN
 10
-74.702380952381
 20
52.25
 30
0.0
 40
2.5
  1

  3

  2
GETEKEND
 70
     0
  7
ROMANS
 72
     2
 11
-56.25
 21
52.25
 31
0.0
  0
ATTDEF
  8
DUN
 10
-74.702380952381
 20
46.25
 30
0.0
 40
2.5
  1

  3

  2
SEMESTER
 70
     0
  7
ROMANS
 72
     2
 11
-56.25
 21
46.25
 31
0.0
  0
ENDBLK
  8
0
  0
BLOCK
  8
0
  2
PIJLP
 70
     0
 10
0.0
 20
0.0
 30
0.0
  3
PIJLP
  0
LINE
  8
0
  6
BYBLOCK
 62
     0
 10
0.0
 20
0.0
 30
0.0
 11
-1.0
 21
0.1666665
 31
0.0
  0
LINE
  8
0
  6
BYBLOCK
 62
     0
 10
0.0
 20
0.0
 30
0.0
 11
-1.0
 21
-0.1666665
 31
0.0
  0
LINE
  8
0
  6
BYBLOCK
 62
     0
 10
-1.0
 20
0.1666665
 30
0.0
 11
-1.0
 21
-0.1666665
 31
0.0
  0
ENDBLK
  8
0
  0
BLOCK
  8
0
  2
ACAD0617
 70
     0
 10
0.0
 20
0.0
 30
0.0
  3
ACAD0617
  0
DIMENSION
  8
DUN
  2
*D13
 10
-570205.8703118726
 20
-427599.4335365928
 30
0.0
 11
-570230.8703118726
 21
-427509.1954413547
 31
0.0
 12
16638.91563857055
 22
8400.859155505257
 32
0.0
  1
20
 13
-569833.5829214887
 23
-427615.9024132598
 33
0.0
 14
-569852.3592661717
 24
-427599.4335365928
 34
0.0
 50
90.0
  3
STANDAARD
  0
LINE
  8
DUN
 10
-569852.3592661717
 20
-427599.4335365928
 30
0.0
 11
-569984.1988251715
 21
-427599.4335365928
 31
0.0
  0
LINE
  8
STREEPLIJN
 10
-569901.8762555149
 20
-427615.9024132598
 30
0.0
 11
-569801.8762555149
 21
-427615.9024132598
 31
0.0
  0
LINE
  8
DIK
 10
-569899.3762555149
 20
-427393.6024132598
 30
0.0
 11
-569975.7183498762
 21
-427633.6024132597
 31
0.0
  0
LINE
  8
DIK
 10
-569804.3762555149
 20
-427393.6024132598
 30
0.0
 11
-569728.0341611536
 21
-427633.6024132597
 31
0.0
  0
LINE
  8
DIK
 10
-569899.3762555149
 20
-427393.6024132598
 30
0.0
 11
-569804.3762555149
 21
-427393.6024132598
 31
0.0
  0
LINE
  8
DIK
 10
-569899.3762555149
 20
-427393.6024132598
 30
0.0
 11
-569804.3762555149
 21
-427393.6024132598
 31
0.0
  0
LINE
  8
DIK
 10
-569895.907221812
 20
-427393.6024132598
 30
0.0
 11
-569805.9072218121
 21
-427393.6024132598
 31
0.0
  0
CIRCLE
  8
DIK
 10
-569802.090764612
 20
-427453.4625892836
 30
0.0
 40
5.25
  0
CIRCLE
  8
DIK
 10
-569825.4585749581
 20
-427433.8546682406
 30
0.0
 40
5.25
  0
CIRCLE
  8
DIK
 10
-569878.2939360718
 20
-427433.8546682406
 30
0.0
 40
5.25
  0
CIRCLE
  8
DIK
 10
-569901.661746418
 20
-427453.4625892836
 30
0.0
 40
5.25
  0
CIRCLE
  8
DIK
 10
-569775.8049684017
 20
-427581.7378149263
 30
0.0
 40
5.25
  0
CIRCLE
  8
DIK
 10
-569793.2739877127
 20
-427588.7957568676
 30
0.0
 40
5.25
  0
CIRCLE
  8
DIK
 10
-569820.6195835349
 20
-427595.8678088019
 30
0.0
 40
5.25
  0
CIRCLE
  8
DIK
 10
-569908.9411169502
 20
-427589.3173850383
 30
0.0
 40
5.25
  0
CIRCLE
  8
DIK
 10
-569883.1329274949
 20
-427595.8678088019
 30
0.0
 40
5.25
  0
CIRCLE
  8
DIK
 10
-569927.9475426283
 20
-427581.7378149263
 30
0.0
 40
5.25
  0
INSERT
  8
DUN
  2
*X12
 10
-566786.2757159162
 20
-427646.227045116
 30
0.0
1001
ACAD
1000
HATCH
1002
{
1070
    16
1000
AR-CONC
1040
0.8
1040
0.0
1002
}
  0
LINE
  8
DIK
 10
-570139.8592661718
 20
-427633.6024132597
 30
0.0
 11
-570139.8592661718
 21
-427733.6024132597
 31
0.0
  0
LINE
  8
DIK
 10
-570139.8592661718
 20
-427633.6024132597
 30
0.0
 11
-569564.8592661717
 21
-427633.6024132597
 31
0.0
  0
LINE
  8
DIK
 10
-570139.8592661718
 20
-427733.6024132597
 30
0.0
 11
-569564.8592661717
 21
-427733.6024132597
 31
0.0
  0
LINE
  8
DIK
 10
-569564.8592661717
 20
-427633.6024132597
 30
0.0
 11
-569564.8592661717
 21
-427733.6024132597
 31
0.0
  0
LINE
  8
HARTLIJN
 10
-569862.3592661717
 20
-427409.6024132598
 30
0.0
 11
-569842.3592661717
 21
-427409.6024132598
 31
0.0
  0
CIRCLE
  8
DUN
 10
-569851.8762555149
 20
-427418.6024132597
 30
0.0
 40
8.579924160481
  0
POLYLINE
  8
DIK
 66
     1
 10
0.0
 20
0.0
 30
0.0
 70
     1
  0
VERTEX
  8
DIK
 10
-569843.0697499936
 20
-427413.5179749263
 30
0.0
  0
VERTEX
  8
DIK
 10
-569851.8762555149
 20
-427408.4335365929
 30
0.0
  0
VERTEX
  8
DIK
 10
-569860.6827610364
 20
-427413.5179749263
 30
0.0
  0
VERTEX
  8
DIK
 10
-569860.6827610364
 20
-427423.6868515932
 30
0.0
  0
VERTEX
  8
DIK
 10
-569851.8762555149
 20
-427428.7712899266
 30
0.0
  0
VERTEX
  8
DIK
 10
-569843.0697499936
 20
-427423.6868515932
 30
0.0
  0
SEQEND
  8
DIK
  0
ARC
  8
DIK
 10
-569773.3592661717
 20
-427623.9024132598
 30
0.0
 40
1.0
 50
0.0
 51
90.0
  0
LINE
  8
DIK
 10
-569772.3592661716
 20
-427629.9024132597
 30
0.0
 11
-569772.3592661716
 21
-427623.9024132598
 31
0.0
  0
LINE
  8
DIK
 10
-569777.3592661717
 20
-427618.9024132597
 30
0.0
 11
-569778.3592661718
 21
-427617.9024132598
 31
0.0
  0
LINE
  8
DUN
 10
-569778.3592661718
 20
-427622.9024132597
 30
0.0
 11
-569778.3592661718
 21
-427617.9024132598
 31
0.0
  0
LINE
  8
DIK
 10
-569777.3592661717
 20
-427622.9024132597
 30
0.0
 11
-569777.3592661717
 21
-427618.9024132597
 31
0.0
  0
ARC
  8
DIK
 10
-569789.3759854658
 20
-427623.9024132598
 30
0.0
 40
1.0
 50
0.0
 51
90.0
  0
ARC
  8
DIK
 10
-569791.3592661717
 20
-427623.9024132598
 30
0.0
 40
1.0
 50
90.0
 51
180.0
  0
LINE
  8
DIK
 10
-569787.3592661717
 20
-427618.9024132597
 30
0.0
 11
-569786.3592661717
 21
-427617.9024132598
 31
0.0
  0
LINE
  8
DUN
 10
-569786.3592661717
 20
-427622.9024132597
 30
0.0
 11
-569786.3592661717
 21
-427617.9024132598
 31
0.0
  0
LINE
  8
DIK
 10
-569787.3592661717
 20
-427622.9024132597
 30
0.0
 11
-569787.3592661717
 21
-427618.9024132597
 31
0.0
  0
ARC
  8
DIK
 10
-569787.3759854658
 20
-427623.9024132598
 30
0.0
 40
1.0
 50
90.0
 51
180.0
  0
LINE
  8
DUN
 10
-569787.3592661717
 20
-427618.9024132597
 30
0.0
 11
-569777.3592661717
 21
-427618.9024132597
 31
0.0
  0
LINE
  8
DIK
 10
-569786.3592661717
 20
-427617.9024132598
 30
0.0
 11
-569778.3592661718
 21
-427617.9024132598
 31
0.0
  0
LINE
  8
DIK
 10
-569788.3759854658
 20
-427629.9024132597
 30
0.0
 11
-569788.3759854658
 21
-427623.9024132598
 31
0.0
  0
LINE
  8
DIK
 10
-569792.3592661717
 20
-427629.9024132597
 30
0.0
 11
-569792.3592661717
 21
-427623.9024132598
 31
0.0
  0
LINE
  8
DIK
 10
-569776.3425468775
 20
-427629.9024132597
 30
0.0
 11
-569776.3425468775
 21
-427623.9024132598
 31
0.0
  0
LINE
  8
DIK
 10
-569791.3592661717
 20
-427622.9024132597
 30
0.0
 11
-569773.3592661717
 21
-427622.9024132597
 31
0.0
  0
ARC
  8
DIK
 10
-569775.3425468776
 20
-427623.9024132598
 30
0.0
 40
1.0
 50
90.0
 51
180.0
  0
ARC
  8
DIK
 10
-569777.3425468776
 20
-427623.9024132598
 30
0.0
 40
1.0
 50
0.0
 51
90.0
  0
LINE
  8
DIK
 10
-569757.3592661717
 20
-427736.6024132597
 30
0.0
 11
-569757.3592661717
 21
-427733.6024132597
 31
0.0
  0
ARC
  8
DIK
 10
-569782.3592661717
 20
-427732.7964289219
 30
0.0
 40
10.699790501663
 50
200.836746373359
 51
339.163253626641
  0
LINE
  8
STREEPLIJN
 10
-569777.3592661717
 20
-427713.6024132597
 30
0.0
 11
-569777.3592661717
 21
-427633.6024132597
 31
0.0
  0
LINE
  8
STREEPLIJN
 10
-569787.3592661717
 20
-427713.6024132597
 30
0.0
 11
-569787.3592661717
 21
-427633.6024132597
 31
0.0
  0
LINE
  8
HARTLIJN
 10
-569782.3592661717
 20
-427750.4784556116
 30
0.0
 11
-569782.3592661717
 21
-427613.8594870757
 31
0.0
  0
POLYLINE
  8
DIK
 66
     1
 10
0.0
 20
0.0
 30
0.0
 70
     1
  0
VERTEX
  8
DIK
 10
-569843.5527606502
 20
-427594.3490982593
 30
0.0
  0
VERTEX
  8
DIK
 10
-569852.3592661717
 20
-427589.264659926
 30
0.0
  0
VERTEX
  8
DIK
 10
-569861.1657716931
 20
-427594.3490982593
 30
0.0
  0
VERTEX
  8
DIK
 10
-569861.1657716931
 20
-427604.5179749263
 30
0.0
  0
VERTEX
  8
DIK
 10
-569852.3592661717
 20
-427609.6024132598
 30
0.0
  0
VERTEX
  8
DIK
 10
-569843.5527606502
 20
-427604.5179749263
 30
0.0
  0
SEQEND
  8
DIK
  0
CIRCLE
  8
DUN
 10
-569852.3592661717
 20
-427599.4335365928
 30
0.0
 40
8.579924160481
  0
ARC
  8
DIK
 10
-569917.3425468775
 20
-427623.9024132598
 30
0.0
 40
1.0
 50
0.0
 51
90.0
  0
LINE
  8
DIK
 10
-569917.3592661717
 20
-427622.9024132597
 30
0.0
 11
-569917.3592661717
 21
-427618.9024132597
 31
0.0
  0
LINE
  8
DIK
 10
-569917.3592661717
 20
-427618.9024132597
 30
0.0
 11
-569918.3592661717
 21
-427617.9024132598
 31
0.0
  0
LINE
  8
DUN
 10
-569918.3592661717
 20
-427622.9024132597
 30
0.0
 11
-569918.3592661717
 21
-427617.9024132598
 31
0.0
  0
ARC
  8
DIK
 10
-569915.3425468775
 20
-427623.9024132598
 30
0.0
 40
1.0
 50
90.0
 51
180.0
  0
ARC
  8
DIK
 10
-569913.3592661717
 20
-427623.9024132598
 30
0.0
 40
1.0
 50
0.0
 51
90.0
  0
LINE
  8
DIK
 10
-569912.3592661717
 20
-427629.9024132597
 30
0.0
 11
-569912.3592661717
 21
-427623.9024132598
 31
0.0
  0
LINE
  8
DIK
 10
-569916.3425468776
 20
-427629.9024132597
 30
0.0
 11
-569916.3425468776
 21
-427623.9024132598
 31
0.0
  0
ARC
  8
DIK
 10
-569927.3759854659
 20
-427623.9024132598
 30
0.0
 40
1.0
 50
90.0
 51
180.0
  0
LINE
  8
DIK
 10
-569927.3592661717
 20
-427622.9024132597
 30
0.0
 11
-569927.3592661717
 21
-427618.9024132597
 31
0.0
  0
LINE
  8
DUN
 10
-569926.3592661718
 20
-427622.9024132597
 30
0.0
 11
-569926.3592661718
 21
-427617.9024132598
 31
0.0
  0
LINE
  8
DIK
 10
-569927.3592661717
 20
-427618.9024132597
 30
0.0
 11
-569926.3592661718
 21
-427617.9024132598
 31
0.0
  0
ARC
  8
DIK
 10
-569931.3592661717
 20
-427623.9024132598
 30
0.0
 40
1.0
 50
90.0
 51
180.0
  0
ARC
  8
DIK
 10
-569929.3759854658
 20
-427623.9024132598
 30
0.0
 40
1.0
 50
0.0
 51
90.0
  0
LINE
  8
DIK
 10
-569932.3592661717
 20
-427629.9024132597
 30
0.0
 11
-569932.3592661717
 21
-427623.9024132598
 31
0.0
  0
LINE
  8
DIK
 10
-569928.3759854658
 20
-427629.9024132597
 30
0.0
 11
-569928.3759854658
 21
-427623.9024132598
 31
0.0
  0
LINE
  8
DIK
 10
-569931.3592661717
 20
-427622.9024132597
 30
0.0
 11
-569913.3592661717
 21
-427622.9024132597
 31
0.0
  0
LINE
  8
DIK
 10
-569926.3592661718
 20
-427617.9024132598
 30
0.0
 11
-569918.3592661717
 21
-427617.9024132598
 31
0.0
  0
LINE
  8
DUN
 10
-569927.3592661717
 20
-427618.9024132597
 30
0.0
 11
-569917.3592661717
 21
-427618.9024132597
 31
0.0
  0
LINE
  8
DIK
 10
-569807.3592661717
 20
-427736.6024132597
 30
0.0
 11
-569807.3592661717
 21
-427733.6024132597
 31
0.0
  0
LINE
  8
DIK
 10
-569897.3592661717
 20
-427736.6024132597
 30
0.0
 11
-569897.3592661717
 21
-427733.6024132597
 31
0.0
  0
LINE
  8
DIK
 10
-569947.3592661718
 20
-427736.6024132597
 30
0.0
 11
-569947.3592661718
 21
-427733.6024132597
 31
0.0
  0
LINE
  8
DIK
 10
-569947.3592661718
 20
-427736.6024132597
 30
0.0
 11
-569897.3592661717
 21
-427736.6024132597
 31
0.0
  0
ARC
  8
DIK
 10
-569922.3592661716
 20
-427732.7964289219
 30
0.0
 40
10.699790501663
 50
200.836746373359
 51
339.163253626641
  0
LINE
  8
HARTLIJN
 10
-569922.3592661716
 20
-427750.4784556116
 30
0.0
 11
-569922.3592661716
 21
-427613.8594870757
 31
0.0
  0
LINE
  8
STREEPLIJN
 10
-569927.3592661717
 20
-427713.6024132597
 30
0.0
 11
-569927.3592661717
 21
-427633.6024132597
 31
0.0
  0
LINE
  8
STREEPLIJN
 10
-569917.3592661717
 20
-427713.6024132597
 30
0.0
 11
-569917.3592661717
 21
-427633.6024132597
 31
0.0
  0
LINE
  8
DIK
 10
-569974.8595013147
 20
-427630.9024132598
 30
0.0
 11
-569728.8930097151
 21
-427630.9024132598
 31
0.0
  0
LINE
  8
DIK
 10
-569807.3592661717
 20
-427736.6024132597
 30
0.0
 11
-569757.3592661717
 21
-427736.6024132597
 31
0.0
  0
LINE
  8
STREEPLIJN
 10
-569801.8762555149
 20
-427401.4617732236
 30
0.0
 11
-569801.8762555149
 21
-427615.9024132598
 31
0.0
  0
LINE
  8
STREEPLIJN
 10
-569901.8762555149
 20
-427401.4617732238
 30
0.0
 11
-569901.8762555149
 21
-427615.9024132598
 31
0.0
  0
LINE
  8
DIK
 10
-569801.8762555149
 20
-427633.6024132597
 30
0.0
 11
-569901.8762555149
 21
-427633.6024132597
 31
0.0
  0
ENDBLK
  8
0
  0
BLOCK
  8
0
  2
*X12
 70
    65
 10
0.0
 20
0.0
 30
0.0
  3
*X
  0
LINE
  8
0
 62
     0
 10
-3004.31296485821
 20
-37.91431532387
 30
0.0
 11
-2994.516881686587
 21
-26.239798010737
 31
0.0
  0
LINE
  8
0
 62
     0
 10
-2858.565229661406
 20
-50.665583754993
 30
0.0
 11
-2848.769146489784
 21
-38.991066441859
 31
0.0
  0
LINE
  8
0
 62
     0
 10
-3150.060700055013
 20
-25.163046892748
 30
0.0
 11
-3140.26461688339
 21
-13.488529579614
 31
0.0
  0
LINE
  8
0
 62
     0
 10
-3295.808435251816
 20
-12.411778461625
 30
0.0
 11
-3286.012352080194
 21
-0.737261148492
 31
0.0
  0
LINE
  8
0
 62
     0
 10
-3295.798667960073
 20
-12.41225151156
 30
0.0
 11
-3283.653062200938
 21
-13.47485432714
 31
0.0
  0
LINE
  8
0
 62
     0
 10
-3150.051398850458
 20
-25.163485298514
 30
0.0
 11
-3137.905793091324
 21
-26.226088114093
 31
0.0
  0
LINE
  8
0
 62
     0
 10
-3004.304129740843
 20
-37.914719085467
 30
0.0
 11
-2992.158523981709
 21
-38.977321901047
 31
0.0
  0
LINE
  8
0
 62
     0
 10
-2858.556860631228
 20
-50.665952872421
 30
0.0
 11
-2846.411254872094
 21
-51.728555688
 31
0.0
  0
LINE
  8
0
 62
     0
 10
-2992.156746013126
 20
-38.956979511854
 30
0.0
 11
-2994.506168460604
 21
-26.219848038744
 31
0.0
  0
LINE
  8
0
 62
     0
 10
-2846.409675310621
 20
-51.709206932939
 30
0.0
 11
-2848.759097758099
 21
-38.972075459829
 31
0.0
  0
LINE
  8
0
 62
     0
 10
-3137.903816715631
 20
-26.204752090769
 30
0.0
 11
-3140.253239163109
 21
-13.46762061766
 31
0.0
  0
LINE
  8
0
 62
     0
 10
-3283.650887418136
 20
-13.452524669684
 30
0.0
 11
-3286.000309865614
 21
-0.715393196574
 31
0.0
  0
LINE
  8
0
 62
     0
 10
-2828.080303322344
 20
-35.94231823401
 30
0.0
 11
-2813.852537622527
 21
-30.480790682939
 31
0.0
  0
LINE
  8
0
 62
     0
 10
-3120.105395588459
 20
-19.668234033444
 30
0.0
 11
-3105.877629888642
 21
-14.206706482374
 31
0.0
  0
LINE
  8
0
 62
     0
 10
-2828.076596746058
 20
-35.943089438112
 30
0.0
 11
-2817.968970661467
 21
-42.760769317227
 31
0.0
  0
LINE
  8
0
 62
     0
 10
-3120.101245454362
 20
-19.6691452372
 30
0.0
 11
-3109.993619369771
 21
-26.486825116315
 31
0.0
  0
LINE
  8
0
 62
     0
 10
-2817.968950137032
 20
-42.762150783069
 30
0.0
 11
-2813.848803162357
 21
-30.48295321535
 31
0.0
  0
LINE
  8
0
 62
     0
 10
-3109.993571673125
 20
-26.488352316135
 30
0.0
 11
-3105.87342469845
 21
-14.209154748417
 31
0.0
  0
LINE
  8
0
 62
     0
 10
-3007.611099138036
 20
-6.639198886874
 30
0.0
 11
-3007.611099138036
 21
-6.639198886874
 31
0.0
  0
LINE
  8
0
 62
     0
 10
-3110.248744520723
 20
-19.647777976572
 30
0.0
 11
-3110.248744520723
 21
-19.647777976572
 31
0.0
  0
LINE
  8
0
 62
     0
 10
-3214.579088590256
 20
-33.955210451204
 30
0.0
 11
-3214.579088590256
 21
-33.955210451204
 31
0.0
  0
LINE
  8
0
 62
     0
 10
-3320.118503150392
 20
-49.190395343644
 30
0.0
 11
-3320.118503150392
 21
-49.190395343644
 31
0.0
  0
LINE
  8
0
 62
     0
 10
-2902.071684577899
 20
8.595986005567
 30
0.0
 11
-2902.071684577899
 21
8.595986005567
 31
0.0
  0
LINE
  8
0
 62
     0
 10
-2904.542567178373
 20
-59.048045092955
 30
0.0
 11
-2904.542567178373
 21
-59.048045092955
 31
0.0
  0
LINE
  8
0
 62
     0
 10
-2800.21222310884
 20
-44.740612618324
 30
0.0
 11
-2800.21222310884
 21
-44.740612618324
 31
0.0
  0
LINE
  8
0
 62
     0
 10
-3241.980887741724
 20
-61.280483559037
 30
0.0
 11
-3241.980887741724
 21
-61.280483559037
 31
0.0
  0
LINE
  8
0
 62
     0
 10
-3113.649851197276
 20
-44.385382079981
 30
0.0
 11
-3113.649851197276
 21
-44.385382079981
 31
0.0
  0
LINE
  8
0
 62
     0
 10
-3062.780798249909
 20
-37.688344209555
 30
0.0
 11
-3062.780798249909
 21
-37.688344209555
 31
0.0
  0
LINE
  8
0
 62
     0
 10
-2985.822468642406
 20
-27.556587906573
 30
0.0
 11
-2985.822468642406
 21
-27.556587906573
 31
0.0
  0
LINE
  8
0
 62
     0
 10
-2857.491432097959
 20
-10.661486427517
 30
0.0
 11
-2857.491432097959
 21
-10.661486427517
 31
0.0
  0
LINE
  8
0
 62
     0
 10
-2806.622379150591
 20
-3.964448557091
 30
0.0
 11
-2806.622379150591
 21
-3.964448557091
 31
0.0
  0
LINE
  8
0
 62
     0
 10
-3316.352540288349
 20
2.03518212205
 30
0.0
 11
-3316.352540288349
 21
2.03518212205
 31
0.0
  0
LINE
  8
0
 62
     0
 10
-3265.483487340981
 20
8.732219992477
 30
0.0
 11
-3265.483487340981
 21
8.732219992477
 31
0.0
  0
LINE
  8
0
 62
     0
 10
-2797.551999561568
 20
11.28621141319
 30
0.0
 11
-2797.551999561568
 21
11.28621141319
 31
0.0
  0
LINE
  8
0
 62
     0
 10
-3027.019213559567
 20
6.090410311762
 30
0.0
 11
-3027.019213559567
 21
6.090410311762
 31
0.0
  0
LINE
  8
0
 62
     0
 10
-2978.329418236626
 20
-38.525566999176
 30
0.0
 11
-2978.329418236626
 21
-38.525566999176
 31
0.0
  0
LINE
  8
0
 62
     0
 10
-2859.826073127812
 20
-18.18437417251
 30
0.0
 11
-2859.826073127812
 21
-18.18437417251
 31
0.0
  0
LINE
  8
0
 62
     0
 10
-3145.522558668381
 20
-14.250782514905
 30
0.0
 11
-3145.522558668381
 21
-14.250782514905
 31
0.0
  0
LINE
  8
0
 62
     0
 10
-3096.832763345441
 20
-58.866759825843
 30
0.0
 11
-3096.832763345441
 21
-58.866759825843
 31
0.0
  0
LINE
  8
0
 62
     0
 10
-3264.025903777195
 20
-34.591975341571
 30
0.0
 11
-3264.025903777195
 21
-34.591975341571
 31
0.0
  0
ENDBLK
  8
0
  0
BLOCK
  8
0
  2
*D13
 70
    65
 10
0.0
 20
0.0
 30
0.0
  3
*D
  0
LINE
  8
0
  6
BYBLOCK
 10
-586472.4985600592
 20
-436016.761568765
 30
0.0
 11
-586845.7859504431
 21
-436016.761568765
 31
0.0
  0
LINE
  8
0
  6
BYBLOCK
 10
-586491.2749047423
 20
-436000.2926920981
 30
0.0
 11
-586845.7859504431
 21
-436000.2926920981
 31
0.0
  0
LINE
  8
0
  6
BYBLOCK
 10
-586844.7859504431
 20
-436051.761568765
 30
0.0
 11
-586844.7859504431
 21
-436086.761568765
 31
0.0
  0
LINE
  8
0
  6
BYBLOCK
 10
-586844.7859504431
 20
-435965.2926920982
 30
0.0
 11
-586844.7859504431
 21
-435930.2926920981
 31
0.0
  0
LINE
  8
0
  6
BYBLOCK
 10
-586844.7859504431
 20
-435930.2926920981
 30
0.0
 11
-586844.7859504431
 21
-435889.816501622
 31
0.0
  0
SOLID
  8
0
  6
BYBLOCK
 10
-586850.6192837765
 20
-436051.761568765
 30
0.0
 11
-586838.9526171098
 21
-436051.761568765
 31
0.0
 12
-586844.7859504431
 22
-436016.761568765
 32
0.0
 13
-586844.7859504431
 23
-436016.761568765
 33
0.0
  0
SOLID
  8
0
  6
BYBLOCK
 10
-586850.6192837765
 20
-435965.2926920982
 30
0.0
 11
-586838.9526171098
 21
-435965.2926920982
 31
0.0
 12
-586844.7859504431
 22
-436000.2926920981
 32
0.0
 13
-586844.7859504431
 23
-436000.2926920981
 33
0.0
  0
LINE
  8
0
  6
BYBLOCK
 10
-586844.7859504431
 20
-436016.761568765
 30
0.0
 11
-586844.7859504431
 21
-436000.2926920981
 31
0.0
  0
TEXT
  8
0
  6
BYBLOCK
 10
-586857.2859504432
 20
-435933.8641206695
 30
0.0
 40
25.0
  1
20
 50
90.0
  7
ROMANS
 72
     1
 11
-586869.7859504432
 21
-435910.05459686
 31
0.0
 73
     2
  0
POINT
  8
DEFPOINTS
  6
BYBLOCK
 62
     0
 10
-586472.4985600592
 20
-436016.761568765
 30
0.0
  0
POINT
  8
DEFPOINTS
  6
BYBLOCK
 62
     0
 10
-586491.2749047423
 20
-436000.2926920981
 30
0.0
  0
POINT
  8
DEFPOINTS
  6
BYBLOCK
 62
     0
 10
-586844.7859504431
 20
-436000.2926920981
 30
0.0
  0
ENDBLK
  8
0
  0
BLOCK
  8
0
  2
A4S
 70
     2
 10
0.0
 20
0.0
 30
0.0
  3
A4S
  0
LINE
  8
DIK
 62
     7
 10
200.0
 20
265.0
 30
0.0
 11
0.0
 21
265.0
 31
0.0
  0
LINE
  8
DIK
 62
     7
 10
200.0
 20
0.0
 30
0.0
 11
200.0
 21
265.0
 31
0.0
  0
LINE
  8
DIK
 62
     7
 10
0.0
 20
265.0
 30
0.0
 11
0.0
 21
0.0
 31
0.0
  0
LINE
  8
DIK
 62
     7
 10
0.0
 20
0.0
 30
0.0
 11
200.0
 21
0.0
 31
0.0
  0
ATTDEF
  8
DUN
 10
147.865671307955
 20
22.434008393964
 30
0.0
 40
2.5
  1

  3
ENTER SCHAAL
  2
SCHAAL
 70
     0
  7
ROMANS
  0
ATTDEF
  8
DUN
 10
145.636377606345
 20
8.700113658062
 30
0.0
 40
2.5
  1

  3
ENTER DATUM
  2
DATUM
 70
     0
  7
ROMANS
  0
ATTDEF
  8
DUN
 10
156.445440055308
 20
1.78439242479
 30
0.0
 40
2.5
  1

  3
ENTER GETEKEND
  2
GETEKEND
 70
     0
  7
ROMANS
  0
ATTDEF
  8
DUN
 10
158.146500326126
 20
15.696951461516
 30
0.0
 40
2.5
  1

  3
ENTER MAATEENHEID
  2
MAATEENHEID
 70
     0
  7
ROMANS
  0
LINE
  8
DUN
 10
175.484930200881
 20
7.0
 30
0.0
 11
175.484930200888
 21
28.086824045226
 31
0.0
  0
TEXT
  8
DUN
 10
183.535447511735
 20
14.274654940444
 30
0.0
 40
6.0
  1
A4
 72
     2
 11
193.535447511735
 21
14.274654940444
 31
0.0
  0
LINE
  8
HARTLIJN
 10
99.397680541595
 20
9.205368291648
 30
0.0
 11
129.463468913906
 21
9.205368291648
 31
0.0
  0
TEXT
  8
DUN
 10
97.533769335721
 20
17.224758628468
 30
0.0
 40
2.5
  1
Amerik. proj.
  7
ROMANS
  0
LINE
  8
HARTLIJN
 10
104.272293720125
 20
14.279512514899
 30
0.0
 11
104.272293720125
 21
4.131224068395
 31
0.0
  0
LINE
  8
DIK
 10
123.833626955384
 20
12.705368291648
 30
0.0
 11
123.833626955384
 21
5.705368291648
 31
0.0
  0
LINE
  8
DIK
 10
113.833626955384
 20
9.205368291648
 30
0.0
 11
113.833626955384
 21
7.705368291648
 31
0.0
  0
CIRCLE
  8
DIK
 10
104.272293720125
 20
9.205368291648
 30
0.0
 40
1.5
  0
CIRCLE
  8
DIK
 10
104.272293720125
 20
9.205368291648
 30
0.0
 40
3.5
  0
LINE
  8
DIK
 10
123.833626955384
 20
5.705368291648
 30
0.0
 11
113.833626955384
 21
7.705368291648
 31
0.0
  0
LINE
  8
DIK
 10
113.833626955384
 20
10.705368291648
 30
0.0
 11
123.833626955384
 21
12.705368291648
 31
0.0
  0
LINE
  8
DIK
 10
113.833626955384
 20
9.205368291648
 30
0.0
 11
113.833626955384
 21
10.705368291648
 31
0.0
  0
ATTDEF
  8
DUN
 10
22.990016895914
 20
22.936080960895
 30
0.0
 40
2.5
  1

  3
ENTER BENAMING
  2
BENAMING
 70
     0
  7
ROMANS
  0
LINE
  8
DUN
 10
95.000000000007
 20
28.0
 30
0.0
 11
95.0
 21
0.0
 31
0.0
  0
LINE
  8
DIK
 10
72.961352999424
 20
21.0
 30
0.0
 11
75.000000000007
 21
15.11418104776
 31
0.0
  0
LINE
  8
DIK
 10
71.903066960927
 20
21.0
 30
0.0
 11
75.000000000007
 21
12.058782040262
 31
0.0
  0
LINE
  8
DIK
 10
70.844780922431
 20
21.0
 30
0.0
 11
75.000000000007
 21
9.003383032734
 31
0.0
  0
LINE
  8
DIK
 10
74.019639037913
 20
21.0
 30
0.0
 11
75.000000000007
 21
18.169580055273
 31
0.0
  0
LINE
  8
DUN
 10
75.000000000007
 20
21.0
 30
0.0
 11
65.55335072997
 21
21.0
 31
0.0
  0
LINE
  8
DIK
 10
68.728208845452
 20
21.0
 30
0.0
 11
75.000000000007
 21
2.8925850177
 31
0.0
  0
LINE
  8
DIK
 10
66.611636768466
 20
21.0
 30
0.0
 11
73.885320746791
 21
0.0
 31
0.0
  0
LINE
  8
DIK
 10
65.55335072997
 20
21.0
 30
0.0
 11
72.827034708302
 21
0.0
 31
0.0
  0
LINE
  8
DIK
 10
69.786494883942
 20
21.0
 30
0.0
 11
75.0
 21
5.947984025228
 31
0.0
  0
LINE
  8
DIK
 10
67.669922806963
 20
21.0
 30
0.0
 11
74.943606785295
 21
-0.000000000004
 31
0.0
  0
LINE
  8
DIK
 10
1.463804241401
 20
0.0
 30
0.0
 11
0.0
 21
5.316870944927
 31
0.0
  0
LINE
  8
DIK
 10
2.50101073242
 20
0.0
 30
0.0
 11
0.0
 21
9.084241540022
 31
0.0
  0
LINE
  8
DIK
 10
3.538217223446
 20
0.0
 30
0.0
 11
0.0
 21
12.851612135131
 31
0.0
  0
LINE
  8
DIK
 10
4.575423714472
 20
0.0
 30
0.0
 11
0.0
 21
16.618982730237
 31
0.0
  0
LINE
  8
DIK
 10
6.649836696524
 20
0.0
 30
0.0
 11
0.868261520503
 21
21.0
 31
0.0
  0
LINE
  8
DIK
 10
7.68704318755
 20
0.0
 30
0.0
 11
1.905468011537
 21
21.0
 31
0.0
  0
LINE
  8
DIK
 10
5.612630205498
 20
0.0
 30
0.0
 11
0.0
 21
20.38635332535
 31
0.0
  0
TEXT
  8
DIK
 10
2.433881911842
 20
11.266736841375
 30
0.0
 40
10.0
  1
WICO COMFA
  7
SANSSERIFBOLD
  0
TEXT
  8
DUN
 10
8.276180271525
 20
2.267660635709
 30
0.0
 40
2.5344
  1
SPEEL- EN SPORTTOESTELLEN
  7
ROMANS
  0
TEXT
  8
DUN
 10
1.851294722146
 20
23.170176683692
 30
0.0
 40
2.5
  1
Benaming
  7
ROMANS
  0
LINE
  8
DUN
 10
95.0
 20
21.0
 30
0.0
 11
0.0
 21
21.0
 31
0.0
  0
TEXT
  8
DUN
 10
78.169817738555
 20
15.777124798966
 30
0.0
 40
2.5
  1
Tek.nr
  7
ROMANS
  0
ATTDEF
  8
DUN
 10
77.691695399204
 20
3.737867561333
 30
0.0
 40
2.5
  1

  3
ENTER TEK.NR.
  2
TEK.NR.
 70
     0
  7
ROMANS
  0
LINE
  8
DUN
 10
75.0
 20
21.0
 30
0.0
 11
75.0
 21
0.0
 31
0.0
  0
LINE
  8
DUN
 10
131.283769335722
 20
28.086824045226
 30
0.0
 11
131.283769335722
 21
0.0
 31
0.0
  0
LINE
  8
0
 62
     7
 10
200.0
 20
28.0
 30
0.0
 11
0.0
 21
28.0
 31
0.0
  0
LINE
  8
DUN
 10
200.0
 20
7.0
 30
0.0
 11
131.283769335722
 21
7.0
 31
0.0
  0
TEXT
  8
DUN
 10
132.236321313925
 20
15.843244574979
 30
0.0
 40
2.5
  1
Maateenheid
  7
ROMANS
  0
TEXT
  8
DUN
 10
132.388336007127
 20
1.767244013554
 30
0.0
 40
2.5
  1
Getekend
  7
ROMANS
  0
TEXT
  8
DUN
 10
132.319605468445
 20
22.496726978341
 30
0.0
 40
2.5
  1
Schaal
  7
ROMANS
  0
TEXT
  8
DUN
 10
132.236321313925
 20
8.678189956896
 30
0.0
 40
2.5
  1
Datum
  7
ROMANS
  0
LINE
  8
DUN
 10
175.484930200888
 20
14.0
 30
0.0
 11
131.283769335722
 21
14.0
 31
0.0
  0
LINE
  8
DUN
 10
175.484930200888
 20
21.0
 30
0.0
 11
131.283769335722
 21
21.0
 31
0.0
  0
ENDBLK
  8
0
  0
BLOCK
  8
0
  2
ACAD1F33
 70
     0
 10
0.0
 20
0.0
 30
0.0
  3
ACAD1F33
  0
INSERT
  8
HARTLIJN
  2
*X16
 10
90.933145956075
 20
0.0
 30
0.0
1001
ACAD
1000
HATCH
1002
{
1070
    16
1000
AR-CONC
1040
0.2
1040
0.0
1002
}
  0
POLYLINE
  8
DIK
 66
     1
 10
0.0
 20
0.0
 30
0.0
 70
     1
  0
VERTEX
  8
DIK
 10
1060.171452970962
 20
1405.145422676743
 30
0.0
  0
VERTEX
  8
DIK
 10
1060.171452970962
 20
1325.145422676742
 30
0.0
  0
VERTEX
  8
DIK
 10
1330.171452970962
 20
1325.145422676742
 30
0.0
  0
VERTEX
  8
DIK
 10
1330.171452970962
 20
1405.145422676743
 30
0.0
  0
SEQEND
  8
DIK
  0
LINE
  8
STREEPLIJN
 10
1145.171452970962
 20
1450.145422676737
 30
0.0
 11
1245.171452970962
 21
1450.145422676737
 31
0.0
  0
LINE
  8
STREEPLIJN
 10
1145.171452970962
 20
1440.145422676737
 30
0.0
 11
1245.171452970962
 21
1440.145422676737
 31
0.0
  0
LINE
  8
HARTLIJN
 10
1089.278484783653
 20
1445.145422676737
 30
0.0
 11
1301.06442115827
 21
1445.145422676737
 31
0.0
  0
LINE
  8
HARTLIJN
 10
1089.278484783653
 20
1625.145422676737
 30
0.0
 11
1301.06442115827
 21
1625.145422676737
 31
0.0
  0
LINE
  8
STREEPLIJN
 10
1145.171452970962
 20
1630.145422676737
 30
0.0
 11
1245.171452970962
 21
1630.145422676737
 31
0.0
  0
LINE
  8
STREEPLIJN
 10
1145.171452970962
 20
1620.145422676737
 30
0.0
 11
1245.171452970962
 21
1620.145422676737
 31
0.0
  0
LINE
  8
DIK
 10
1290.171452970962
 20
1322.145422676743
 30
0.0
 11
1240.171452970962
 21
1322.145422676743
 31
0.0
  0
LINE
  8
DIK
 10
1145.171452970962
 20
1425.145422676737
 30
0.0
 11
1245.171452970962
 21
1425.145422676737
 31
0.0
  0
LINE
  8
DIK
 10
1120.171452970962
 20
1325.145422676742
 30
0.0
 11
1120.171452970962
 21
1394.645422676743
 31
0.0
  0
LINE
  8
DIK
 10
1130.171452970962
 20
1325.145422676742
 30
0.0
 11
1130.171452970962
 21
1394.645422676743
 31
0.0
  0
LINE
  8
DUN
 10
1129.171452970962
 20
1355.145422676743
 30
0.0
 11
1129.171452970962
 21
1394.645422676743
 31
0.0
  0
LINE
  8
DUN
 10
1121.171452970962
 20
1355.145422676743
 30
0.0
 11
1121.171452970962
 21
1394.645422676743
 31
0.0
  0
LINE
  8
HARTLIJN
 10
1125.171452970962
 20
1288.269380324962
 30
0.0
 11
1125.171452970962
 21
1424.888348860721
 31
0.0
  0
LINE
  8
DIK
 10
1100.171452970962
 20
1322.145422676743
 30
0.0
 11
1150.171452970962
 21
1322.145422676743
 31
0.0
  0
LINE
  8
DIK
 10
1100.171452970962
 20
1322.145422676743
 30
0.0
 11
1100.171452970962
 21
1325.145422676742
 31
0.0
  0
ARC
  8
DIK
 10
1125.171452970962
 20
1325.951407014531
 30
0.0
 40
10.699790501663
 50
200.836746373359
 51
339.163253626641
  0
LINE
  8
DIK
 10
1150.171452970962
 20
1322.145422676743
 30
0.0
 11
1150.171452970962
 21
1325.145422676742
 31
0.0
  0
POLYLINE
  8
DIK
 66
     1
 10
0.0
 20
0.0
 30
0.0
  0
VERTEX
  8
DIK
 10
1120.171452970962
 20
1355.145422676743
 30
0.0
  0
VERTEX
  8
DIK
 10
1130.171452970962
 20
1355.145422676743
 30
0.0
  0
SEQEND
  8
DIK
  0
LINE
  8
DUN
 10
1121.171452970962
 20
1355.145422676743
 30
0.0
 11
1120.171452970962
 21
1352.341256390708
 31
0.0
  0
LINE
  8
DUN
 10
1129.171452970962
 20
1355.145422676743
 30
0.0
 11
1130.171452970962
 21
1352.341256390708
 31
0.0
  0
LINE
  8
DIK
 10
1142.13493746578
 20
1450.162141970885
 30
0.0
 11
1142.13493746578
 21
1440.128703382589
 31
0.0
  0
LINE
  8
DIK
 10
1134.13493746578
 20
1436.145422676737
 30
0.0
 11
1134.13493746578
 21
1454.145422676737
 31
0.0
  0
LINE
  8
DIK
 10
1129.13493746578
 20
1441.145422676737
 30
0.0
 11
1129.13493746578
 21
1449.145422676737
 31
0.0
  0
LINE
  8
DUN
 10
1130.13493746578
 20
1440.145422676737
 30
0.0
 11
1130.13493746578
 21
1450.145422676737
 31
0.0
  0
LINE
  8
DIK
 10
1121.171452970962
 20
1423.145422676742
 30
0.0
 11
1129.171452970962
 21
1423.145422676742
 31
0.0
  0
LINE
  8
DUN
 10
1120.171452970962
 20
1422.145422676742
 30
0.0
 11
1130.171452970962
 21
1422.145422676742
 31
0.0
  0
ARC
  8
DIK
 10
1128.68817226511
 20
1411.145422676742
 30
0.0
 40
1.0
 50
270.0
 51
0.0
  0
ARC
  8
DIK
 10
1128.68817226511
 20
1417.145422676742
 30
0.0
 40
1.0
 50
0.0
 51
90.0
  0
ARC
  8
DIK
 10
1128.68817226511
 20
1403.645422676742
 30
0.0
 40
1.0
 50
0.0
 51
90.0
  0
ARC
  8
DIK
 10
1128.68817226511
 20
1397.645422676743
 30
0.0
 40
1.0
 50
270.0
 51
0.0
  0
POLYLINE
  8
DIK
 66
     1
 10
0.0
 20
0.0
 30
0.0
 70
     1
  0
VERTEX
  8
DIK
 10
1111.171452970962
 20
1405.145422676743
 30
0.0
  0
VERTEX
  8
DIK
 10
1111.171452970962
 20
1394.645422676743
 30
0.0
  0
VERTEX
  8
DIK
 10
1139.171452970962
 20
1394.645422676743
 30
0.0
  0
VERTEX
  8
DIK
 10
1139.171452970962
 20
1405.145422676743
 30
0.0
  0
SEQEND
  8
DIK
  0
LINE
  8
DIK
 10
1116.171452970962
 20
1396.645422676743
 30
0.0
 11
1134.171452970962
 21
1396.645422676743
 31
0.0
  0
POLYLINE
  8
DIK
 66
     1
 10
0.0
 20
0.0
 30
0.0
  0
VERTEX
  8
DIK
 10
1115.171452970962
 20
1396.645422676743
 30
0.0
  0
VERTEX
  8
DIK
 10
1135.171452970962
 20
1396.645422676743
 30
0.0
  0
SEQEND
  8
DIK
  0
LINE
  8
DIK
 10
1115.171452970962
 20
1410.145422676742
 30
0.0
 11
1135.171452970962
 21
1410.145422676742
 31
0.0
  0
LINE
  8
DIK
 10
1117.671452970962
 20
1418.145422676742
 30
0.0
 11
1132.671452970962
 21
1418.145422676742
 31
0.0
  0
LINE
  8
DIK
 10
1117.671452970962
 20
1404.645422676743
 30
0.0
 11
1132.671452970962
 21
1404.645422676743
 31
0.0
  0
LINE
  8
HARTLIJN
 10
1143.671452970962
 20
1406.645422676743
 30
0.0
 11
1108.671452970962
 21
1406.645422676743
 31
0.0
  0
LINE
  8
DIK
 10
1142.171452970962
 20
1408.145422676743
 30
0.0
 11
1108.671452970962
 21
1408.145422676742
 31
0.0
  0
LINE
  8
DIK
 10
1115.171452970962
 20
1394.645422676743
 30
0.0
 11
1115.171452970962
 21
1396.645422676743
 31
0.0
  0
LINE
  8
DIK
 10
1120.171452970962
 20
1394.645422676743
 30
0.0
 11
1120.171452970962
 21
1393.145422676743
 31
0.0
  0
LINE
  8
DIK
 10
1120.171452970962
 20
1418.145422676742
 30
0.0
 11
1120.171452970962
 21
1422.145422676742
 31
0.0
  0
LINE
  8
DUN
 10
1121.171452970962
 20
1418.145422676742
 30
0.0
 11
1121.171452970962
 21
1423.145422676742
 31
0.0
  0
LINE
  8
DIK
 10
1120.171452970962
 20
1422.145422676742
 30
0.0
 11
1121.171452970962
 21
1423.145422676742
 31
0.0
  0
LINE
  8
DIK
 10
1115.171452970962
 20
1410.145422676742
 30
0.0
 11
1115.171452970962
 21
1408.145422676742
 31
0.0
  0
ARC
  8
DIK
 10
1121.654733676814
 20
1411.145422676742
 30
0.0
 40
1.0
 50
180.0
 51
270.0
  0
ARC
  8
DIK
 10
1117.671452970962
 20
1411.145422676742
 30
0.0
 40
1.0
 50
180.0
 51
270.0
  0
ARC
  8
DIK
 10
1119.654733676814
 20
1411.145422676742
 30
0.0
 40
1.0
 50
270.0
 51
0.0
  0
LINE
  8
DIK
 10
1120.654733676814
 20
1411.145422676742
 30
0.0
 11
1120.654733676814
 21
1417.145422676742
 31
0.0
  0
LINE
  8
DIK
 10
1116.671452970962
 20
1411.145422676742
 30
0.0
 11
1116.671452970962
 21
1417.145422676742
 31
0.0
  0
ARC
  8
DIK
 10
1119.654733676814
 20
1417.145422676742
 30
0.0
 40
1.0
 50
0.0
 51
90.0
  0
ARC
  8
DIK
 10
1117.671452970962
 20
1417.145422676742
 30
0.0
 40
1.0
 50
90.0
 51
180.0
  0
ARC
  8
DIK
 10
1121.654733676814
 20
1417.145422676742
 30
0.0
 40
1.0
 50
90.0
 51
180.0
  0
LINE
  8
DIK
 10
1120.654733676814
 20
1403.645422676742
 30
0.0
 11
1120.654733676814
 21
1397.645422676743
 31
0.0
  0
LINE
  8
DIK
 10
1116.671452970962
 20
1403.645422676742
 30
0.0
 11
1116.671452970962
 21
1397.645422676743
 31
0.0
  0
ARC
  8
DIK
 10
1119.654733676814
 20
1403.645422676742
 30
0.0
 40
1.0
 50
0.0
 51
90.0
  0
ARC
  8
DIK
 10
1117.671452970962
 20
1403.645422676742
 30
0.0
 40
1.0
 50
90.0
 51
180.0
  0
ARC
  8
DIK
 10
1121.654733676814
 20
1403.645422676742
 30
0.0
 40
1.0
 50
90.0
 51
180.0
  0
ARC
  8
DIK
 10
1121.654733676814
 20
1397.645422676743
 30
0.0
 40
1.0
 50
180.0
 51
270.0
  0
ARC
  8
DIK
 10
1117.671452970962
 20
1397.645422676743
 30
0.0
 40
1.0
 50
180.0
 51
270.0
  0
ARC
  8
DIK
 10
1119.654733676814
 20
1397.645422676743
 30
0.0
 40
1.0
 50
270.0
 51
0.0
  0
LINE
  8
DIK
 10
1120.171452970962
 20
1405.145422676743
 30
0.0
 11
1120.171452970962
 21
1404.645422676743
 31
0.0
  0
LINE
  8
DIK
 10
1108.671452970962
 20
1405.145422676743
 30
0.0
 11
1108.671452970962
 21
1408.145422676742
 31
0.0
  0
LINE
  8
DIK
 10
1135.171452970962
 20
1394.645422676743
 30
0.0
 11
1135.171452970962
 21
1396.645422676743
 31
0.0
  0
LINE
  8
DIK
 10
1135.171452970962
 20
1410.145422676742
 30
0.0
 11
1135.171452970962
 21
1408.145422676742
 31
0.0
  0
ARC
  8
DIK
 10
1132.671452970962
 20
1411.145422676742
 30
0.0
 40
1.0
 50
270.0
 51
0.0
  0
LINE
  8
DIK
 10
1133.671452970962
 20
1411.145422676742
 30
0.0
 11
1133.671452970962
 21
1417.145422676742
 31
0.0
  0
ARC
  8
DIK
 10
1132.671452970962
 20
1417.145422676742
 30
0.0
 40
1.0
 50
0.0
 51
90.0
  0
LINE
  8
DIK
 10
1133.671452970962
 20
1403.645422676742
 30
0.0
 11
1133.671452970962
 21
1397.645422676743
 31
0.0
  0
ARC
  8
DIK
 10
1132.671452970962
 20
1403.645422676742
 30
0.0
 40
1.0
 50
0.0
 51
90.0
  0
ARC
  8
DIK
 10
1132.671452970962
 20
1397.645422676743
 30
0.0
 40
1.0
 50
270.0
 51
0.0
  0
LINE
  8
DIK
 10
1130.171452970962
 20
1405.145422676743
 30
0.0
 11
1130.171452970962
 21
1404.645422676743
 31
0.0
  0
LINE
  8
DIK
 10
1130.171452970962
 20
1394.645422676743
 30
0.0
 11
1130.171452970962
 21
1393.145422676743
 31
0.0
  0
LINE
  8
DIK
 10
1130.171452970962
 20
1418.145422676742
 30
0.0
 11
1130.171452970962
 21
1422.145422676742
 31
0.0
  0
LINE
  8
DIK
 10
1130.171452970962
 20
1422.145422676742
 30
0.0
 11
1129.171452970962
 21
1423.145422676742
 31
0.0
  0
LINE
  8
DUN
 10
1129.171452970962
 20
1418.145422676742
 30
0.0
 11
1129.171452970962
 21
1423.145422676742
 31
0.0
  0
ARC
  8
DIK
 10
1130.68817226511
 20
1411.145422676742
 30
0.0
 40
1.0
 50
180.0
 51
270.0
  0
LINE
  8
DIK
 10
1129.68817226511
 20
1411.145422676742
 30
0.0
 11
1129.68817226511
 21
1417.145422676742
 31
0.0
  0
ARC
  8
DIK
 10
1130.68817226511
 20
1417.145422676742
 30
0.0
 40
1.0
 50
90.0
 51
180.0
  0
LINE
  8
DIK
 10
1129.68817226511
 20
1403.645422676742
 30
0.0
 11
1129.68817226511
 21
1397.645422676743
 31
0.0
  0
ARC
  8
DIK
 10
1130.68817226511
 20
1403.645422676742
 30
0.0
 40
1.0
 50
90.0
 51
180.0
  0
ARC
  8
DIK
 10
1130.68817226511
 20
1397.645422676743
 30
0.0
 40
1.0
 50
180.0
 51
270.0
  0
ARC
  8
DIK
 10
1135.13493746578
 20
1436.145422676737
 30
0.0
 40
1.0
 50
180.000000000001
 51
270.0
  0
LINE
  8
DUN
 10
1134.13493746578
 20
1441.145422676737
 30
0.0
 11
1129.13493746578
 21
1441.145422676737
 31
0.0
  0
LINE
  8
DIK
 10
1134.13493746578
 20
1440.145422676737
 30
0.0
 11
1130.13493746578
 21
1440.145422676737
 31
0.0
  0
ARC
  8
DIK
 10
1135.13493746578
 20
1438.128703382589
 30
0.0
 40
1.0
 50
90.0
 51
180.0
  0
ARC
  8
DIK
 10
1135.13493746578
 20
1440.128703382589
 30
0.0
 40
1.0
 50
180.000000000001
 51
270.0
  0
LINE
  8
DIK
 10
1130.13493746578
 20
1440.145422676737
 30
0.0
 11
1129.13493746578
 21
1441.145422676737
 31
0.0
  0
LINE
  8
DIK
 10
1141.13493746578
 20
1439.128703382589
 30
0.0
 11
1135.13493746578
 21
1439.128703382589
 31
0.0
  0
LINE
  8
DIK
 10
1141.13493746578
 20
1435.145422676737
 30
0.0
 11
1135.13493746578
 21
1435.145422676737
 31
0.0
  0
ARC
  8
DIK
 10
1141.13493746578
 20
1438.128703382589
 30
0.0
 40
1.0
 50
0.0
 51
90.0
  0
ARC
  8
DIK
 10
1141.13493746578
 20
1436.145422676737
 30
0.0
 40
1.0
 50
270.0
 51
0.0
  0
ARC
  8
DIK
 10
1141.13493746578
 20
1440.128703382589
 30
0.0
 40
1.0
 50
270.0
 51
0.0
  0
ARC
  8
DIK
 10
1135.13493746578
 20
1452.162141970885
 30
0.0
 40
1.0
 50
180.0
 51
270.0
  0
LINE
  8
DIK
 10
1134.13493746578
 20
1450.145422676737
 30
0.0
 11
1130.13493746578
 21
1450.145422676737
 31
0.0
  0
LINE
  8
DIK
 10
1130.13493746578
 20
1450.145422676737
 30
0.0
 11
1129.13493746578
 21
1449.145422676737
 31
0.0
  0
LINE
  8
DUN
 10
1134.13493746578
 20
1449.145422676737
 30
0.0
 11
1129.13493746578
 21
1449.145422676737
 31
0.0
  0
ARC
  8
DIK
 10
1135.13493746578
 20
1450.162141970885
 30
0.0
 40
1.0
 50
90.0
 51
180.000000000001
  0
ARC
  8
DIK
 10
1135.13493746578
 20
1454.145422676737
 30
0.0
 40
1.0
 50
90.0
 51
180.0
  0
LINE
  8
DIK
 10
1141.13493746578
 20
1451.162141970885
 30
0.0
 11
1135.13493746578
 21
1451.162141970885
 31
0.0
  0
LINE
  8
DIK
 10
1141.13493746578
 20
1455.145422676737
 30
0.0
 11
1135.13493746578
 21
1455.145422676737
 31
0.0
  0
ARC
  8
DIK
 10
1141.13493746578
 20
1452.162141970885
 30
0.0
 40
1.0
 50
270.0
 51
0.0
  0
ARC
  8
DIK
 10
1141.13493746578
 20
1450.162141970885
 30
0.0
 40
1.0
 50
0.0
 51
90.0
  0
ARC
  8
DIK
 10
1141.13493746578
 20
1454.145422676737
 30
0.0
 40
1.0
 50
0.0
 51
90.000000000001
  0
LINE
  8
STREEPLIJN
 62
     1
 10
1201.171452970962
 20
1392.145422676743
 30
0.0
 11
1201.171452970962
 21
1325.145422676742
 31
0.0
  0
LINE
  8
STREEPLIJN
 62
     1
 10
1189.171452970962
 20
1392.145422676743
 30
0.0
 11
1189.171452970962
 21
1325.145422676742
 31
0.0
  0
LINE
  8
DIK
 10
1240.171452970962
 20
1322.145422676743
 30
0.0
 11
1240.171452970962
 21
1325.145422676742
 31
0.0
  0
POLYLINE
  8
STREEPLIJN
 62
     1
 66
     1
 10
0.0
 20
0.0
 30
0.0
 70
     1
  0
VERTEX
  8
STREEPLIJN
 62
     1
 10
1180.171452970961
 20
1405.145422676743
 30
0.0
  0
VERTEX
  8
STREEPLIJN
 62
     1
 10
1180.171452970961
 20
1392.145422676743
 30
0.0
  0
VERTEX
  8
STREEPLIJN
 62
     1
 10
1210.171452970962
 20
1392.145422676743
 30
0.0
  0
VERTEX
  8
STREEPLIJN
 62
     1
 10
1210.171452970962
 20
1405.145422676743
 30
0.0
  0
SEQEND
  8
STREEPLIJN
 62
     1
  0
LINE
  8
DIK
 10
1142.13493746578
 20
1630.162141970885
 30
0.0
 11
1142.13493746578
 21
1620.128703382589
 31
0.0
  0
LINE
  8
DUN
 10
1130.13493746578
 20
1620.145422676737
 30
0.0
 11
1130.13493746578
 21
1630.145422676737
 31
0.0
  0
LINE
  8
DIK
 10
1129.13493746578
 20
1621.145422676737
 30
0.0
 11
1129.13493746578
 21
1629.145422676737
 31
0.0
  0
LINE
  8
DIK
 10
1134.13493746578
 20
1616.145422676737
 30
0.0
 11
1134.13493746578
 21
1634.145422676737
 31
0.0
  0
ARC
  8
DIK
 10
1141.13493746578
 20
1620.128703382589
 30
0.0
 40
1.0
 50
270.0
 51
0.0
  0
ARC
  8
DIK
 10
1141.13493746578
 20
1616.145422676737
 30
0.0
 40
1.0
 50
270.0
 51
0.0
  0
ARC
  8
DIK
 10
1141.13493746578
 20
1618.128703382589
 30
0.0
 40
1.0
 50
0.0
 51
90.0
  0
LINE
  8
DIK
 10
1130.13493746578
 20
1620.145422676737
 30
0.0
 11
1129.13493746578
 21
1621.145422676737
 31
0.0
  0
ARC
  8
DIK
 10
1135.13493746578
 20
1620.128703382589
 30
0.0
 40
1.0
 50
180.000000000001
 51
270.0
  0
ARC
  8
DIK
 10
1135.13493746578
 20
1618.128703382589
 30
0.0
 40
1.0
 50
90.0
 51
180.0
  0
LINE
  8
DIK
 10
1134.13493746578
 20
1620.145422676737
 30
0.0
 11
1130.13493746578
 21
1620.145422676737
 31
0.0
  0
LINE
  8
DUN
 10
1134.13493746578
 20
1621.145422676737
 30
0.0
 11
1129.13493746578
 21
1621.145422676737
 31
0.0
  0
ARC
  8
DIK
 10
1135.13493746578
 20
1616.145422676737
 30
0.0
 40
1.0
 50
180.000000000001
 51
270.0
  0
LINE
  8
DIK
 10
1141.13493746578
 20
1615.145422676737
 30
0.0
 11
1135.13493746578
 21
1615.145422676737
 31
0.0
  0
LINE
  8
DIK
 10
1141.13493746578
 20
1619.128703382589
 30
0.0
 11
1135.13493746578
 21
1619.128703382589
 31
0.0
  0
ARC
  8
DIK
 10
1141.13493746578
 20
1634.145422676737
 30
0.0
 40
1.0
 50
0.0
 51
90.000000000001
  0
ARC
  8
DIK
 10
1135.13493746578
 20
1634.145422676737
 30
0.0
 40
1.0
 50
90.0
 51
180.0
  0
LINE
  8
DIK
 10
1141.13493746578
 20
1635.145422676737
 30
0.0
 11
1135.13493746578
 21
1635.145422676737
 31
0.0
  0
ARC
  8
DIK
 10
1141.13493746578
 20
1630.162141970885
 30
0.0
 40
1.0
 50
0.0
 51
90.0
  0
ARC
  8
DIK
 10
1135.13493746578
 20
1630.162141970885
 30
0.0
 40
1.0
 50
90.0
 51
180.000000000001
  0
LINE
  8
DUN
 10
1134.13493746578
 20
1629.145422676737
 30
0.0
 11
1129.13493746578
 21
1629.145422676737
 31
0.0
  0
LINE
  8
DIK
 10
1130.13493746578
 20
1630.145422676737
 30
0.0
 11
1129.13493746578
 21
1629.145422676737
 31
0.0
  0
LINE
  8
DIK
 10
1134.13493746578
 20
1630.145422676737
 30
0.0
 11
1130.13493746578
 21
1630.145422676737
 31
0.0
  0
LINE
  8
DIK
 10
1141.13493746578
 20
1631.162141970885
 30
0.0
 11
1135.13493746578
 21
1631.162141970885
 31
0.0
  0
ARC
  8
DIK
 10
1135.13493746578
 20
1632.162141970885
 30
0.0
 40
1.0
 50
180.0
 51
270.0
  0
ARC
  8
DIK
 10
1141.13493746578
 20
1632.162141970885
 30
0.0
 40
1.0
 50
270.0
 51
0.0
  0
LINE
  8
DIK
 10
1260.171452970962
 20
1325.145422676742
 30
0.0
 11
1260.171452970962
 21
1394.645422676743
 31
0.0
  0
LINE
  8
DIK
 10
1270.171452970962
 20
1325.145422676742
 30
0.0
 11
1270.171452970962
 21
1394.645422676743
 31
0.0
  0
LINE
  8
DUN
 10
1269.171452970962
 20
1355.145422676743
 30
0.0
 11
1269.171452970962
 21
1394.645422676743
 31
0.0
  0
LINE
  8
DUN
 10
1261.171452970962
 20
1355.145422676743
 30
0.0
 11
1261.171452970962
 21
1394.645422676743
 31
0.0
  0
LINE
  8
HARTLIJN
 10
1265.171452970962
 20
1288.269380324962
 30
0.0
 11
1265.171452970962
 21
1424.888348860721
 31
0.0
  0
ARC
  8
DIK
 10
1265.171452970962
 20
1325.951407014531
 30
0.0
 40
10.699790501663
 50
200.836746373359
 51
339.163253626641
  0
LINE
  8
DIK
 10
1290.171452970962
 20
1322.145422676743
 30
0.0
 11
1290.171452970962
 21
1325.145422676742
 31
0.0
  0
POLYLINE
  8
DIK
 66
     1
 10
0.0
 20
0.0
 30
0.0
  0
VERTEX
  8
DIK
 10
1260.171452970962
 20
1355.145422676743
 30
0.0
  0
VERTEX
  8
DIK
 10
1270.171452970962
 20
1355.145422676743
 30
0.0
  0
SEQEND
  8
DIK
  0
LINE
  8
DUN
 10
1261.171452970962
 20
1355.145422676743
 30
0.0
 11
1260.171452970962
 21
1352.341256390708
 31
0.0
  0
LINE
  8
DUN
 10
1269.171452970962
 20
1355.145422676743
 30
0.0
 11
1270.171452970962
 21
1352.341256390708
 31
0.0
  0
LINE
  8
DIK
 10
1258.171452970962
 20
1454.125858892288
 30
0.0
 11
1258.171452970962
 21
1436.125858892288
 31
0.0
  0
LINE
  8
DIK
 10
1248.171452970962
 20
1436.125858892288
 30
0.0
 11
1248.171452970962
 21
1454.125858892288
 31
0.0
  0
LINE
  8
DIK
 10
1261.171452970962
 20
1423.145422676742
 30
0.0
 11
1269.171452970962
 21
1423.145422676742
 31
0.0
  0
LINE
  8
DUN
 10
1260.171452970962
 20
1422.145422676742
 30
0.0
 11
1270.171452970962
 21
1422.145422676742
 31
0.0
  0
POLYLINE
  8
DIK
 66
     1
 10
0.0
 20
0.0
 30
0.0
 70
     1
  0
VERTEX
  8
DIK
 10
1251.171452970962
 20
1405.145422676743
 30
0.0
  0
VERTEX
  8
DIK
 10
1251.171452970962
 20
1394.645422676743
 30
0.0
  0
VERTEX
  8
DIK
 10
1279.171452970962
 20
1394.645422676743
 30
0.0
  0
VERTEX
  8
DIK
 10
1279.171452970962
 20
1405.145422676743
 30
0.0
  0
SEQEND
  8
DIK
  0
LINE
  8
DIK
 10
1256.171452970962
 20
1396.645422676743
 30
0.0
 11
1274.171452970962
 21
1396.645422676743
 31
0.0
  0
POLYLINE
  8
DIK
 66
     1
 10
0.0
 20
0.0
 30
0.0
  0
VERTEX
  8
DIK
 10
1255.171452970962
 20
1396.645422676743
 30
0.0
  0
VERTEX
  8
DIK
 10
1275.171452970962
 20
1396.645422676743
 30
0.0
  0
SEQEND
  8
DIK
  0
LINE
  8
DIK
 10
1255.171452970962
 20
1410.145422676742
 30
0.0
 11
1275.171452970962
 21
1410.145422676742
 31
0.0
  0
LINE
  8
DIK
 10
1257.671452970962
 20
1418.145422676742
 30
0.0
 11
1272.671452970962
 21
1418.145422676742
 31
0.0
  0
LINE
  8
DIK
 10
1257.671452970962
 20
1404.645422676743
 30
0.0
 11
1272.671452970962
 21
1404.645422676743
 31
0.0
  0
LINE
  8
HARTLIJN
 10
1246.671452970962
 20
1406.645422676743
 30
0.0
 11
1281.671452970962
 21
1406.645422676743
 31
0.0
  0
LINE
  8
DIK
 10
1248.171452970962
 20
1408.145422676743
 30
0.0
 11
1281.671452970962
 21
1408.145422676742
 31
0.0
  0
LINE
  8
DIK
 10
1255.171452970962
 20
1394.645422676743
 30
0.0
 11
1255.171452970962
 21
1396.645422676743
 31
0.0
  0
LINE
  8
DIK
 10
1260.171452970962
 20
1394.645422676743
 30
0.0
 11
1260.171452970962
 21
1393.145422676743
 31
0.0
  0
LINE
  8
DIK
 10
1260.171452970962
 20
1418.145422676742
 30
0.0
 11
1260.171452970962
 21
1422.145422676742
 31
0.0
  0
LINE
  8
DUN
 10
1261.171452970962
 20
1418.145422676742
 30
0.0
 11
1261.171452970962
 21
1423.145422676742
 31
0.0
  0
LINE
  8
DIK
 10
1260.171452970962
 20
1422.145422676742
 30
0.0
 11
1261.171452970962
 21
1423.145422676742
 31
0.0
  0
LINE
  8
DIK
 10
1255.171452970962
 20
1410.145422676742
 30
0.0
 11
1255.171452970962
 21
1408.145422676742
 31
0.0
  0
ARC
  8
DIK
 10
1261.654733676814
 20
1411.145422676742
 30
0.0
 40
1.0
 50
180.0
 51
270.0
  0
ARC
  8
DIK
 10
1257.671452970962
 20
1411.145422676742
 30
0.0
 40
1.0
 50
180.0
 51
270.0
  0
ARC
  8
DIK
 10
1259.654733676814
 20
1411.145422676742
 30
0.0
 40
1.0
 50
270.0
 51
0.0
  0
LINE
  8
DIK
 10
1260.654733676814
 20
1411.145422676742
 30
0.0
 11
1260.654733676814
 21
1417.145422676742
 31
0.0
  0
LINE
  8
DIK
 10
1256.671452970962
 20
1411.145422676742
 30
0.0
 11
1256.671452970962
 21
1417.145422676742
 31
0.0
  0
ARC
  8
DIK
 10
1259.654733676814
 20
1417.145422676742
 30
0.0
 40
1.0
 50
0.0
 51
90.0
  0
ARC
  8
DIK
 10
1257.671452970962
 20
1417.145422676742
 30
0.0
 40
1.0
 50
90.0
 51
180.0
  0
ARC
  8
DIK
 10
1261.654733676814
 20
1417.145422676742
 30
0.0
 40
1.0
 50
90.0
 51
180.0
  0
LINE
  8
DIK
 10
1260.654733676814
 20
1403.645422676742
 30
0.0
 11
1260.654733676814
 21
1397.645422676743
 31
0.0
  0
LINE
  8
DIK
 10
1256.671452970962
 20
1403.645422676742
 30
0.0
 11
1256.671452970962
 21
1397.645422676743
 31
0.0
  0
ARC
  8
DIK
 10
1259.654733676814
 20
1403.645422676742
 30
0.0
 40
1.0
 50
0.0
 51
90.0
  0
ARC
  8
DIK
 10
1257.671452970962
 20
1403.645422676742
 30
0.0
 40
1.0
 50
90.0
 51
180.0
  0
ARC
  8
DIK
 10
1261.654733676814
 20
1403.645422676742
 30
0.0
 40
1.0
 50
90.0
 51
180.0
  0
ARC
  8
DIK
 10
1261.654733676814
 20
1397.645422676743
 30
0.0
 40
1.0
 50
180.0
 51
270.0
  0
ARC
  8
DIK
 10
1257.671452970962
 20
1397.645422676743
 30
0.0
 40
1.0
 50
180.0
 51
270.0
  0
ARC
  8
DIK
 10
1259.654733676814
 20
1397.645422676743
 30
0.0
 40
1.0
 50
270.0
 51
0.0
  0
LINE
  8
DIK
 10
1260.171452970962
 20
1405.145422676743
 30
0.0
 11
1260.171452970962
 21
1404.645422676743
 31
0.0
  0
ARC
  8
DIK
 10
1249.171452970962
 20
1438.10913959814
 30
0.0
 40
1.0
 50
90.0
 51
180.0
  0
ARC
  8
DIK
 10
1249.171452970962
 20
1436.125858892288
 30
0.0
 40
1.0
 50
180.0
 51
270.0
  0
ARC
  8
DIK
 10
1249.171452970962
 20
1440.10913959814
 30
0.0
 40
1.0
 50
180.000000000001
 51
270.0
  0
LINE
  8
DIK
 10
1257.171452970962
 20
1435.125858892288
 30
0.0
 11
1249.171452970962
 21
1435.125858892288
 31
0.0
  0
LINE
  8
DIK
 10
1257.171452970962
 20
1439.10913959814
 30
0.0
 11
1249.171452970962
 21
1439.10913959814
 31
0.0
  0
ARC
  8
DIK
 10
1257.171452970962
 20
1440.10913959814
 30
0.0
 40
1.0
 50
270.0
 51
0.0
  0
ARC
  8
DIK
 10
1257.171452970962
 20
1438.10913959814
 30
0.0
 40
1.0
 50
0.0
 51
90.0
  0
ARC
  8
DIK
 10
1257.171452970962
 20
1436.125858892288
 30
0.0
 40
1.0
 50
270.0
 51
0.0
  0
LINE
  8
DIK
 10
1275.171452970962
 20
1394.645422676743
 30
0.0
 11
1275.171452970962
 21
1396.645422676743
 31
0.0
  0
LINE
  8
DIK
 10
1275.171452970962
 20
1410.145422676742
 30
0.0
 11
1275.171452970962
 21
1408.145422676742
 31
0.0
  0
ARC
  8
DIK
 10
1272.671452970962
 20
1411.145422676742
 30
0.0
 40
1.0
 50
270.0
 51
0.0
  0
LINE
  8
DIK
 10
1273.671452970962
 20
1411.145422676742
 30
0.0
 11
1273.671452970962
 21
1417.145422676742
 31
0.0
  0
ARC
  8
DIK
 10
1272.671452970962
 20
1417.145422676742
 30
0.0
 40
1.0
 50
0.0
 51
90.0
  0
LINE
  8
DIK
 10
1273.671452970962
 20
1403.645422676742
 30
0.0
 11
1273.671452970961
 21
1397.645422676743
 31
0.0
  0
ARC
  8
DIK
 10
1272.671452970962
 20
1403.645422676742
 30
0.0
 40
1.0
 50
0.0
 51
90.0
  0
ARC
  8
DIK
 10
1272.671452970962
 20
1397.645422676743
 30
0.0
 40
1.0
 50
270.0
 51
0.0
  0
LINE
  8
DIK
 10
1270.171452970962
 20
1405.145422676743
 30
0.0
 11
1270.171452970962
 21
1404.645422676743
 31
0.0
  0
LINE
  8
DIK
 10
1270.171452970962
 20
1394.645422676743
 30
0.0
 11
1270.171452970962
 21
1393.145422676743
 31
0.0
  0
LINE
  8
DIK
 10
1270.171452970962
 20
1418.145422676742
 30
0.0
 11
1270.171452970962
 21
1422.145422676742
 31
0.0
  0
LINE
  8
DIK
 10
1270.171452970962
 20
1422.145422676742
 30
0.0
 11
1269.171452970962
 21
1423.145422676742
 31
0.0
  0
LINE
  8
DUN
 10
1269.171452970962
 20
1418.145422676742
 30
0.0
 11
1269.171452970962
 21
1423.145422676742
 31
0.0
  0
ARC
  8
DIK
 10
1268.68817226511
 20
1411.145422676742
 30
0.0
 40
1.0
 50
270.0
 51
0.0
  0
ARC
  8
DIK
 10
1268.68817226511
 20
1417.145422676742
 30
0.0
 40
1.0
 50
0.0
 51
90.0
  0
ARC
  8
DIK
 10
1270.68817226511
 20
1411.145422676742
 30
0.0
 40
1.0
 50
180.0
 51
270.0
  0
LINE
  8
DIK
 10
1269.68817226511
 20
1411.145422676742
 30
0.0
 11
1269.68817226511
 21
1417.145422676742
 31
0.0
  0
ARC
  8
DIK
 10
1270.68817226511
 20
1417.145422676742
 30
0.0
 40
1.0
 50
90.0
 51
180.0
  0
ARC
  8
DIK
 10
1268.68817226511
 20
1403.645422676742
 30
0.0
 40
1.0
 50
0.0
 51
90.0
  0
ARC
  8
DIK
 10
1268.68817226511
 20
1397.645422676743
 30
0.0
 40
1.0
 50
270.0
 51
0.0
  0
LINE
  8
DIK
 10
1269.68817226511
 20
1403.645422676742
 30
0.0
 11
1269.68817226511
 21
1397.645422676743
 31
0.0
  0
ARC
  8
DIK
 10
1270.68817226511
 20
1403.645422676742
 30
0.0
 40
1.0
 50
90.0
 51
180.0
  0
ARC
  8
DIK
 10
1270.68817226511
 20
1397.645422676743
 30
0.0
 40
1.0
 50
180.0
 51
270.0
  0
LINE
  8
DIK
 10
1281.671452970962
 20
1405.145422676743
 30
0.0
 11
1281.671452970962
 21
1408.145422676742
 31
0.0
  0
LINE
  8
DIK
 10
1281.671452970962
 20
1405.145422676743
 30
0.0
 11
1281.671452970962
 21
1408.145422676742
 31
0.0
  0
ARC
  8
DIK
 10
1249.171452970962
 20
1454.125858892288
 30
0.0
 40
1.0
 50
90.0
 51
180.0
  0
LINE
  8
DIK
 10
1257.171452970962
 20
1455.125858892288
 30
0.0
 11
1249.171452970962
 21
1455.125858892288
 31
0.0
  0
ARC
  8
DIK
 10
1257.171452970962
 20
1454.125858892288
 30
0.0
 40
1.0
 50
0.0
 51
90.000000000001
  0
ARC
  8
DIK
 10
1249.171452970962
 20
1450.142578186437
 30
0.0
 40
1.0
 50
90.0
 51
180.000000000001
  0
ARC
  8
DIK
 10
1257.171452970962
 20
1450.142578186437
 30
0.0
 40
1.0
 50
0.0
 51
90.0
  0
LINE
  8
DIK
 10
1257.171452970962
 20
1451.142578186437
 30
0.0
 11
1249.171452970962
 21
1451.142578186437
 31
0.0
  0
ARC
  8
DIK
 10
1249.171452970962
 20
1452.142578186437
 30
0.0
 40
1.0
 50
180.0
 51
270.0
  0
ARC
  8
DIK
 10
1257.171452970962
 20
1452.142578186437
 30
0.0
 40
1.0
 50
270.0
 51
0.0
  0
LINE
  8
DIK
 10
1258.171452970962
 20
1634.125858892288
 30
0.0
 11
1258.171452970962
 21
1616.125858892288
 31
0.0
  0
LINE
  8
DIK
 10
1248.171452970962
 20
1616.125858892288
 30
0.0
 11
1248.171452970962
 21
1634.125858892288
 31
0.0
  0
ARC
  8
DIK
 10
1249.171452970962
 20
1618.109139598141
 30
0.0
 40
1.0
 50
90.0
 51
180.0
  0
ARC
  8
DIK
 10
1249.171452970962
 20
1616.125858892288
 30
0.0
 40
1.0
 50
180.0
 51
270.0
  0
ARC
  8
DIK
 10
1249.171452970962
 20
1620.10913959814
 30
0.0
 40
1.0
 50
180.000000000001
 51
270.0
  0
LINE
  8
DIK
 10
1257.171452970962
 20
1615.125858892288
 30
0.0
 11
1249.171452970962
 21
1615.125858892288
 31
0.0
  0
LINE
  8
DIK
 10
1257.171452970962
 20
1619.10913959814
 30
0.0
 11
1249.171452970962
 21
1619.10913959814
 31
0.0
  0
ARC
  8
DIK
 10
1257.171452970962
 20
1620.10913959814
 30
0.0
 40
1.0
 50
270.0
 51
0.0
  0
ARC
  8
DIK
 10
1257.171452970962
 20
1618.109139598141
 30
0.0
 40
1.0
 50
0.0
 51
90.0
  0
ARC
  8
DIK
 10
1257.171452970962
 20
1616.125858892288
 30
0.0
 40
1.0
 50
270.0
 51
0.0
  0
ARC
  8
DIK
 10
1249.171452970962
 20
1634.125858892288
 30
0.0
 40
1.0
 50
90.0
 51
180.0
  0
LINE
  8
DIK
 10
1257.171452970962
 20
1635.125858892288
 30
0.0
 11
1249.171452970962
 21
1635.125858892288
 31
0.0
  0
ARC
  8
DIK
 10
1257.171452970962
 20
1634.125858892288
 30
0.0
 40
1.0
 50
0.0
 51
90.000000000001
  0
ARC
  8
DIK
 10
1249.171452970962
 20
1630.142578186437
 30
0.0
 40
1.0
 50
90.0
 51
180.000000000001
  0
ARC
  8
DIK
 10
1257.171452970962
 20
1630.142578186437
 30
0.0
 40
1.0
 50
0.0
 51
90.0
  0
LINE
  8
DIK
 10
1257.171452970962
 20
1631.142578186437
 30
0.0
 11
1249.171452970962
 21
1631.142578186437
 31
0.0
  0
ARC
  8
DIK
 10
1249.171452970962
 20
1632.142578186437
 30
0.0
 40
1.0
 50
180.0
 51
270.0
  0
ARC
  8
DIK
 10
1257.171452970962
 20
1632.142578186437
 30
0.0
 40
1.0
 50
270.0
 51
0.0
  0
LINE
  8
DIK
 10
1145.171452970962
 20
1651.645422676738
 30
0.0
 11
1142.171452970962
 21
1651.645422676738
 31
0.0
  0
LINE
  8
DIK
 10
1245.171452970962
 20
1651.645422676738
 30
0.0
 11
1248.171452970962
 21
1651.645422676738
 31
0.0
  0
ENDBLK
  8
0
  0
BLOCK
  8
0
  2
*X16
 70
    65
 10
0.0
 20
0.0
 30
0.0
  3
*X
  0
LINE
  8
0
 62
     0
 10
1080.316547765805
 20
1334.082790804968
 30
0.0
 11
1082.765568558711
 21
1337.001420133252
 31
0.0
  0
LINE
  8
0
 62
     0
 10
1110.238307014886
 20
1369.7421548868
 30
0.0
 11
1112.15381807358
 21
1372.024972072651
 31
0.0
  0
LINE
  8
0
 62
     0
 10
1139.093046795542
 20
1404.129894683768
 30
0.0
 11
1139.945175959898
 21
1405.145422676743
 31
0.0
  0
LINE
  8
0
 62
     0
 10
1116.753481565006
 20
1330.894973697188
 30
0.0
 11
1119.202502357912
 21
1333.813603025471
 31
0.0
  0
LINE
  8
0
 62
     0
 10
1146.141731079875
 20
1365.918525636587
 30
0.0
 11
1148.59075187278
 21
1368.837154964871
 31
0.0
  0
LINE
  8
0
 62
     0
 10
1153.190415364207
 20
1327.707156589407
 30
0.0
 11
1155.639436157113
 21
1330.62578591769
 31
0.0
  0
LINE
  8
0
 62
     0
 10
1182.578664879076
 20
1362.730708528807
 30
0.0
 11
1185.027685671981
 21
1365.64933785709
 31
0.0
  0
LINE
  8
0
 62
     0
 10
1211.966914393944
 20
1397.754260468206
 30
0.0
 11
1214.41593518685
 21
1400.672889796489
 31
0.0
  0
LINE
  8
0
 62
     0
 10
1190.152695341516
 20
1325.145422676742
 30
0.0
 11
1192.076369956313
 21
1327.43796880991
 31
0.0
  0
LINE
  8
0
 62
     0
 10
1219.015598678276
 20
1359.542891421026
 30
0.0
 11
1221.464619471182
 21
1362.461520749309
 31
0.0
  0
LINE
  8
0
 62
     0
 10
1043.879613966604
 20
1337.270607912749
 30
0.0
 11
1046.32863475951
 21
1340.189237241032
 31
0.0
  0
LINE
  8
0
 62
     0
 10
1073.267863481473
 20
1372.294159852148
 30
0.0
 11
1075.716884274379
 21
1375.212789180432
 31
0.0
  0
LINE
  8
0
 62
     0
 10
1007.442680167404
 20
1340.45842502053
 30
0.0
 11
1009.89170096031
 21
1343.377054348813
 31
0.0
  0
LINE
  8
0
 62
     0
 10
1039.238307014886
 20
1378.350977544802
 30
0.0
 11
1039.279950475178
 21
1378.400606288213
 31
0.0
  0
LINE
  8
0
 62
     0
 10
971.005746368203
 20
1343.64624212831
 30
0.0
 11
973.454767161109
 21
1346.564871456593
 31
0.0
  0
LINE
  8
0
 62
     0
 10
1000.393995883072
 20
1378.66979406771
 30
0.0
 11
1002.843016675977
 21
1381.588423395993
 31
0.0
  0
LINE
  8
0
 62
     0
 10
971.006310016656
 20
1343.644998715464
 30
0.0
 11
974.04271145644
 21
1343.379348011569
 31
0.0
  0
LINE
  8
0
 62
     0
 10
1007.44312729406
 20
1340.457190268726
 30
0.0
 11
1010.479528733843
 21
1340.191539564831
 31
0.0
  0
LINE
  8
0
 62
     0
 10
1043.879944571463
 20
1337.269381821987
 30
0.0
 11
1046.916346011247
 21
1337.003731118092
 31
0.0
  0
LINE
  8
0
 62
     0
 10
1080.316761848867
 20
1334.081573375249
 30
0.0
 11
1083.353163288651
 21
1333.815922671354
 31
0.0
  0
LINE
  8
0
 62
     0
 10
1116.753579126271
 20
1330.893764928511
 30
0.0
 11
1119.789980566054
 21
1330.628114224616
 31
0.0
  0
LINE
  8
0
 62
     0
 10
1153.190396403674
 20
1327.705956481773
 30
0.0
 11
1156.226797843458
 21
1327.440305777878
 31
0.0
  0
LINE
  8
0
 62
     0
 10
1000.394562098926
 20
1378.668518845162
 30
0.0
 11
1003.43096353871
 21
1378.402868141267
 31
0.0
  0
LINE
  8
0
 62
     0
 10
1182.578648485945
 20
1362.72947661147
 30
0.0
 11
1185.615049925728
 21
1362.463825907575
 31
0.0
  0
LINE
  8
0
 62
     0
 10
1219.015465763348
 20
1359.541668164732
 30
0.0
 11
1222.051867203132
 21
1359.276017460837
 31
0.0
  0
LINE
  8
0
 62
     0
 10
1039.238307014887
 20
1375.270131516122
 30
0.0
 11
1039.867780816114
 21
1375.215059694528
 31
0.0
  0
LINE
  8
0
 62
     0
 10
1073.268196653734
 20
1372.292901951685
 30
0.0
 11
1076.304598093517
 21
1372.02725124779
 31
0.0
  0
LINE
  8
0
 62
     0
 10
1110.238307014886
 20
1369.058436405782
 30
0.0
 11
1112.741415370921
 21
1368.839442801052
 31
0.0
  0
LINE
  8
0
 62
     0
 10
1146.141831208541
 20
1365.917285058208
 30
0.0
 11
1149.178232648325
 21
1365.651634354314
 31
0.0
  0
LINE
  8
0
 62
     0
 10
1139.093266013407
 20
1404.128613634644
 30
0.0
 11
1142.129667453191
 21
1403.862962930749
 31
0.0
  0
LINE
  8
0
 62
     0
 10
1211.966900568215
 20
1397.752996741168
 30
0.0
 11
1215.003302007999
 21
1397.487346037273
 31
0.0
  0
LINE
  8
0
 62
     0
 10
1083.362644985665
 20
1333.80923428949
 30
0.0
 11
1082.775289373795
 21
1336.993517157767
 31
0.0
  0
LINE
  8
0
 62
     0
 10
1076.31437764323
 20
1372.020628708819
 30
0.0
 11
1075.727022031361
 21
1375.204911577097
 31
0.0
  0
LINE
  8
0
 62
     0
 10
1119.79941266129
 20
1330.621177434218
 30
0.0
 11
1119.212057049421
 21
1333.805460302496
 31
0.0
  0
LINE
  8
0
 62
     0
 10
1112.751145318856
 20
1368.832571853548
 30
0.0
 11
1112.163789706987
 21
1372.016854721825
 31
0.0
  0
LINE
  8
0
 62
     0
 10
1156.236180336917
 20
1327.433120578948
 30
0.0
 11
1155.648824725047
 21
1330.617403447225
 31
0.0
  0
LINE
  8
0
 62
     0
 10
1149.187912994483
 20
1365.644514998277
 30
0.0
 11
1148.600557382613
 21
1368.828797866554
 31
0.0
  0
LINE
  8
0
 62
     0
 10
1142.139645652048
 20
1403.855909417607
 30
0.0
 11
1141.901789004048
 21
1405.145422676743
 31
0.0
  0
LINE
  8
0
 62
     0
 10
1192.506872665077
 20
1325.145422676742
 30
0.0
 11
1192.085592400674
 21
1327.429346591954
 31
0.0
  0
LINE
  8
0
 62
     0
 10
1185.624680670109
 20
1362.456458143006
 30
0.0
 11
1185.037325058239
 21
1365.640741011283
 31
0.0
  0
LINE
  8
0
 62
     0
 10
1222.061448345735
 20
1359.268401287734
 30
0.0
 11
1221.474092733865
 21
1362.452684156012
 31
0.0
  0
LINE
  8
0
 62
     0
 10
1215.013181003301
 20
1397.479795707064
 30
0.0
 11
1214.425825391431
 21
1400.664078575341
 31
0.0
  0
LINE
  8
0
 62
     0
 10
1046.925877310038
 20
1336.997291144761
 30
0.0
 11
1046.338521698169
 21
1340.181574013038
 31
0.0
  0
LINE
  8
0
 62
     0
 10
1039.877609967604
 20
1375.208685564091
 30
0.0
 11
1039.290254355735
 21
1378.392968432368
 31
0.0
  0
LINE
  8
0
 62
     0
 10
1010.489109634412
 20
1340.185348000032
 30
0.0
 11
1009.901754022542
 21
1343.36963086831
 31
0.0
  0
LINE
  8
0
 62
     0
 10
1003.440842291978
 20
1378.396742419362
 30
0.0
 11
1002.853486680108
 21
1381.581025287639
 31
0.0
  0
LINE
  8
0
 62
     0
 10
974.052341958786
 20
1343.373404855303
 30
0.0
 11
973.464986346917
 21
1346.557687723581
 31
0.0
  0
LINE
  8
0
 62
     0
 10
1074.870895880276
 20
1325.145422676742
 30
0.0
 11
1075.810808219111
 21
1326.125013315925
 31
0.0
  0
LINE
  8
0
 62
     0
 10
1119.33489946607
 20
1371.48646948883
 30
0.0
 11
1123.291635033976
 21
1375.610238231821
 31
0.0
  0
LINE
  8
0
 62
     0
 10
1227.766515822922
 20
1354.669538315739
 30
0.0
 11
1231.723251390828
 21
1358.79330705873
 31
0.0
  0
LINE
  8
0
 62
     0
 10
1017.63826447278
 20
1330.409710159479
 30
0.0
 11
1021.595000040685
 21
1334.53347890247
 31
0.0
  0
LINE
  8
0
 62
     0
 10
1065.119091287644
 20
1379.894935075375
 30
0.0
 11
1069.07582685555
 21
1384.018703818366
 31
0.0
  0
LINE
  8
0
 62
     0
 10
1010.903283109218
 20
1388.303400661921
 30
0.0
 11
1014.860018677124
 21
1392.427169404912
 31
0.0
  0
LINE
  8
0
 62
     0
 10
1075.924912827379
 20
1325.145422676742
 30
0.0
 11
1075.811302267907
 21
1326.122015099501
 31
0.0
  0
LINE
  8
0
 62
     0
 10
1069.637580131566
 20
1379.191116128097
 30
0.0
 11
1069.076332664625
 21
1384.015579857969
 31
0.0
  0
LINE
  8
0
 62
     0
 10
1123.853396628095
 20
1370.782662547639
 30
0.0
 11
1123.292149161154
 21
1375.607126277512
 31
0.0
  0
LINE
  8
0
 62
     0
 10
1232.285029621152
 20
1353.965755386724
 30
0.0
 11
1231.723782154212
 21
1358.790219116596
 31
0.0
  0
LINE
  8
0
 62
     0
 10
1022.156733238318
 20
1329.706004950087
 30
0.0
 11
1021.595485771378
 21
1334.530468679959
 31
0.0
  0
LINE
  8
0
 62
     0
 10
1015.421763635037
 20
1387.599569708555
 30
0.0
 11
1014.860516168097
 21
1392.424033438427
 31
0.0
  0
LINE
  8
0
 62
     0
 10
1017.640686544143
 20
1330.404833520952
 30
0.0
 11
1022.158671204316
 21
1329.70412059083
 31
0.0
  0
LINE
  8
0
 62
     0
 10
1010.905791784852
 20
1388.298412254532
 30
0.0
 11
1015.423776445025
 21
1387.597699324411
 31
0.0
  0
LINE
  8
0
 62
     0
 10
1227.769055473165
 20
1354.664191608689
 30
0.0
 11
1232.287040133338
 21
1353.963478678567
 31
0.0
  0
LINE
  8
0
 62
     0
 10
1065.12160770693
 20
1379.889857093071
 30
0.0
 11
1069.639592367103
 21
1379.18914416295
 31
0.0
  0
LINE
  8
0
 62
     0
 10
1119.337423629008
 20
1371.481301931611
 30
0.0
 11
1123.855408289181
 21
1370.780589001489
 31
0.0
  0
LINE
  8
0
 62
     0
 10
1217.195254827928
 20
1403.604557404568
 30
0.0
 11
1220.752196252883
 21
1404.969939292336
 31
0.0
  0
LINE
  8
0
 62
     0
 10
1046.46206643012
 20
1338.066226791723
 30
0.0
 11
1050.019007855074
 21
1339.431608679491
 31
0.0
  0
LINE
  8
0
 62
     0
 10
1089.145363529572
 20
1354.450809444934
 30
0.0
 11
1092.702304954527
 21
1355.816191332702
 31
0.0
  0
LINE
  8
0
 62
     0
 10
1131.828660629024
 20
1370.835392098145
 30
0.0
 11
1135.385602053978
 21
1372.200773985913
 31
0.0
  0
LINE
  8
0
 62
     0
 10
1204.834933695553
 20
1366.766871048004
 30
0.0
 11
1208.391875120507
 21
1368.132252935772
 31
0.0
  0
LINE
  8
0
 62
     0
 10
1119.468339496649
 20
1333.997705741582
 30
0.0
 11
1123.025280921603
 21
1335.36308762935
 31
0.0
  0
LINE
  8
0
 62
     0
 10
1162.151636596101
 20
1350.382288394793
 30
0.0
 11
1165.708578021055
 21
1351.747670282561
 31
0.0
  0
LINE
  8
0
 62
     0
 10
1192.474612563177
 20
1329.929184691441
 30
0.0
 11
1196.031553988132
 21
1331.294566579208
 31
0.0
  0
LINE
  8
0
 62
     0
 10
1235.15790966263
 20
1346.313767344652
 30
0.0
 11
1238.714851087584
 21
1347.679149232419
 31
0.0
  0
LINE
  8
0
 62
     0
 10
973.455793363591
 20
1342.134747841865
 30
0.0
 11
977.012734788546
 21
1343.500129729632
 31
0.0
  0
LINE
  8
0
 62
     0
 10
1016.139090463043
 20
1358.519330495076
 30
0.0
 11
1019.696031887997
 21
1359.884712382843
 31
0.0
  0
LINE
  8
0
 62
     0
 10
1058.822387562495
 20
1374.903913148287
 30
0.0
 11
1062.379328987449
 21
1376.269295036055
 31
0.0
  0
LINE
  8
0
 62
     0
 10
985.816114495967
 20
1378.972434198428
 30
0.0
 11
989.373055920921
 21
1380.337816086196
 31
0.0
  0
LINE
  8
0
 62
     0
 10
1028.499411595419
 20
1395.35701685164
 30
0.0
 11
1029.238307014886
 21
1395.640652228826
 31
0.0
  0
LINE
  8
0
 62
     0
 10
1028.501834604951
 20
1395.353693765147
 30
0.0
 11
1029.238307014887
 21
1394.856936852225
 31
0.0
  0
LINE
  8
0
 62
     0
 10
1119.47046936627
 20
1333.994574853109
 30
0.0
 11
1121.997375887418
 21
1332.29015488333
 31
0.0
  0
LINE
  8
0
 62
     0
 10
1058.824712858724
 20
1374.900654127801
 30
0.0
 11
1061.351619379872
 21
1373.196234158022
 31
0.0
  0
LINE
  8
0
 62
     0
 10
1089.147591112497
 20
1354.447614490455
 30
0.0
 11
1091.674497633645
 21
1352.743194520676
 31
0.0
  0
LINE
  8
0
 62
     0
 10
1192.476631543346
 20
1329.926088802881
 30
0.0
 11
1195.003538064494
 21
1328.221668833102
 31
0.0
  0
LINE
  8
0
 62
     0
 10
1131.8308750358
 20
1370.832168077573
 30
0.0
 11
1134.357781556948
 21
1369.127748107794
 31
0.0
  0
LINE
  8
0
 62
     0
 10
1162.153753289573
 20
1350.379128440227
 30
0.0
 11
1164.680659810721
 21
1348.674708470448
 31
0.0
  0
LINE
  8
0
 62
     0
 10
1204.837037212876
 20
1366.763682027344
 30
0.0
 11
1207.363943734024
 21
1365.059262057566
 31
0.0
  0
LINE
  8
0
 62
     0
 10
1235.159915466649
 20
1346.310642389998
 30
0.0
 11
1237.686821987797
 21
1344.606222420219
 31
0.0
  0
LINE
  8
0
 62
     0
 10
1217.197442882405
 20
1403.601275251809
 30
0.0
 11
1219.724349403553
 21
1401.89685528203
 31
0.0
  0
LINE
  8
0
 62
     0
 10
985.818550681648
 20
1378.969140178029
 30
0.0
 11
988.345457202796
 21
1377.26472020825
 31
0.0
  0
LINE
  8
0
 62
     0
 10
1016.141428935421
 20
1358.516100540683
 30
0.0
 11
1018.668335456569
 21
1356.811680570904
 31
0.0
  0
LINE
  8
0
 62
     0
 10
1046.464307189195
 20
1338.063060903337
 30
0.0
 11
1048.991213710342
 21
1336.358640933558
 31
0.0
  0
LINE
  8
0
 62
     0
 10
973.458145012119
 20
1342.131546953565
 30
0.0
 11
975.985051533267
 21
1340.427126983786
 31
0.0
  0
LINE
  8
0
 62
     0
 10
1091.675755415201
 20
1352.743484626132
 30
0.0
 11
1092.70579215887
 21
1355.813284018062
 31
0.0
  0
LINE
  8
0
 62
     0
 10
1121.998612645199
 20
1332.290463466187
 30
0.0
 11
1123.028649388868
 21
1335.360262858117
 31
0.0
  0
LINE
  8
0
 62
     0
 10
1134.359053569226
 20
1369.128056169343
 30
0.0
 11
1135.389090312895
 21
1372.197855561273
 31
0.0
  0
LINE
  8
0
 62
     0
 10
1164.681910799224
 20
1348.675035009399
 30
0.0
 11
1165.711947542893
 21
1351.744834401328
 31
0.0
  0
LINE
  8
0
 62
     0
 10
1195.004768029222
 20
1328.222013849454
 30
0.0
 11
1196.034804772891
 21
1331.291813241384
 31
0.0
  0
LINE
  8
0
 62
     0
 10
1207.365208953249
 20
1365.05960655261
 30
0.0
 11
1208.395245696918
 21
1368.12940594454
 31
0.0
  0
LINE
  8
0
 62
     0
 10
1219.725649877276
 20
1401.897199255767
 30
0.0
 11
1220.755686620945
 21
1404.966998647697
 31
0.0
  0
LINE
  8
0
 62
     0
 10
1237.688066183247
 20
1344.606585392665
 30
0.0
 11
1238.718102926916
 21
1347.676384784595
 31
0.0
  0
LINE
  8
0
 62
     0
 10
1048.992457261176
 20
1336.35891308292
 30
0.0
 11
1050.022494004845
 21
1339.42871247485
 31
0.0
  0
LINE
  8
0
 62
     0
 10
1061.352898185203
 20
1373.196505786077
 30
0.0
 11
1062.382934928872
 21
1376.266305178007
 31
0.0
  0
LINE
  8
0
 62
     0
 10
1018.669600031178
 20
1356.811934242865
 30
0.0
 11
1019.699636774847
 21
1359.881733634795
 31
0.0
  0
LINE
  8
0
 62
     0
 10
975.986301877154
 20
1340.427362699654
 30
0.0
 11
977.016338620822
 21
1343.497162091584
 31
0.0
  0
LINE
  8
0
 62
     0
 10
988.34674280118
 20
1377.26495540281
 30
0.0
 11
989.376779544849
 21
1380.33475479474
 31
0.0
  0
LINE
  8
0
 62
     0
 10
1085.166640544233
 20
1342.225085255704
 30
0.0
 11
1085.166640544233
 21
1342.225085255704
 31
0.0
  0
LINE
  8
0
 62
     0
 10
1112.169214834386
 20
1362.944889253445
 30
0.0
 11
1112.169214834386
 21
1362.944889253445
 31
0.0
  0
LINE
  8
0
 62
     0
 10
1138.869521501888
 20
1383.432755146733
 30
0.0
 11
1138.869521501888
 21
1383.432755146733
 31
0.0
  0
LINE
  8
0
 62
     0
 10
1165.146653497678
 20
1403.595907693788
 30
0.0
 11
1165.146653497678
 21
1403.595907693788
 31
0.0
  0
LINE
  8
0
 62
     0
 10
1059.507229198562
 20
1338.972940483279
 30
0.0
 11
1059.507229198562
 21
1338.972940483279
 31
0.0
  0
LINE
  8
0
 62
     0
 10
1085.784361194352
 20
1359.136093030335
 30
0.0
 11
1085.784361194352
 21
1359.136093030335
 31
0.0
  0
LINE
  8
0
 62
     0
 10
1112.786935484505
 20
1379.855897028075
 30
0.0
 11
1112.786935484505
 21
1379.855897028075
 31
0.0
  0
LINE
  8
0
 62
     0
 10
1139.487242152006
 20
1400.343762921364
 30
0.0
 11
1139.487242152006
 21
1400.343762921364
 31
0.0
  0
LINE
  8
0
 62
     0
 10
1113.404656134623
 20
1396.766904802706
 30
0.0
 11
1113.404656134623
 21
1396.766904802706
 31
0.0
  0
LINE
  8
0
 62
     0
 10
1060.12494984868
 20
1355.88394825791
 30
0.0
 11
1060.12494984868
 21
1355.88394825791
 31
0.0
  0
LINE
  8
0
 62
     0
 10
1086.40208184447
 20
1376.047100804965
 30
0.0
 11
1086.40208184447
 21
1376.047100804965
 31
0.0
  0
LINE
  8
0
 62
     0
 10
1007.039789541145
 20
1331.587286141511
 30
0.0
 11
1007.039789541145
 21
1331.587286141511
 31
0.0
  0
LINE
  8
0
 62
     0
 10
1060.742670498799
 20
1372.794956032541
 30
0.0
 11
1060.742670498799
 21
1372.794956032541
 31
0.0
  0
LINE
  8
0
 62
     0
 10
1087.019802494589
 20
1392.958108579596
 30
0.0
 11
1087.019802494589
 21
1392.958108579596
 31
0.0
  0
LINE
  8
0
 62
     0
 10
981.380378195473
 20
1328.335141369086
 30
0.0
 11
981.380378195473
 21
1328.335141369086
 31
0.0
  0
LINE
  8
0
 62
     0
 10
1007.657510191263
 20
1348.498293916142
 30
0.0
 11
1007.657510191263
 21
1348.498293916142
 31
0.0
  0
LINE
  8
0
 62
     0
 10
1061.360391148917
 20
1389.705963807171
 30
0.0
 11
1061.360391148917
 21
1389.705963807171
 31
0.0
  0
LINE
  8
0
 62
     0
 10
981.998098845591
 20
1345.246149143717
 30
0.0
 11
981.998098845591
 21
1345.246149143717
 31
0.0
  0
LINE
  8
0
 62
     0
 10
1008.275230841382
 20
1365.409301690772
 30
0.0
 11
1008.275230841382
 21
1365.409301690772
 31
0.0
  0
LINE
  8
0
 62
     0
 10
982.61581949571
 20
1362.157156918348
 30
0.0
 11
982.61581949571
 21
1362.157156918348
 31
0.0
  0
LINE
  8
0
 62
     0
 10
1008.8929514915
 20
1382.320309465403
 30
0.0
 11
1008.8929514915
 21
1382.320309465403
 31
0.0
  0
LINE
  8
0
 62
     0
 10
983.233540145828
 20
1379.068164692978
 30
0.0
 11
983.233540145828
 21
1379.068164692978
 31
0.0
  0
LINE
  8
0
 62
     0
 10
1009.510672141618
 20
1399.231317240034
 30
0.0
 11
1009.510672141618
 21
1399.231317240034
 31
0.0
  0
LINE
  8
0
 62
     0
 10
983.851260795946
 20
1395.979172467609
 30
0.0
 11
983.851260795946
 21
1395.979172467609
 31
0.0
  0
LINE
  8
0
 62
     0
 10
1084.548919894115
 20
1325.314077481073
 30
0.0
 11
1084.548919894115
 21
1325.314077481073
 31
0.0
  0
LINE
  8
0
 62
     0
 10
1111.551494184268
 20
1346.033881478814
 30
0.0
 11
1111.551494184268
 21
1346.033881478814
 31
0.0
  0
LINE
  8
0
 62
     0
 10
1138.251800851769
 20
1366.521747372102
 30
0.0
 11
1138.251800851769
 21
1366.521747372102
 31
0.0
  0
LINE
  8
0
 62
     0
 10
1164.52893284756
 20
1386.684899919158
 30
0.0
 11
1164.52893284756
 21
1386.684899919158
 31
0.0
  0
LINE
  8
0
 62
     0
 10
1110.93377353415
 20
1329.122873704184
 30
0.0
 11
1110.93377353415
 21
1329.122873704184
 31
0.0
  0
LINE
  8
0
 62
     0
 10
1137.634080201651
 20
1349.610739597472
 30
0.0
 11
1137.634080201651
 21
1349.610739597472
 31
0.0
  0
LINE
  8
0
 62
     0
 10
1163.911212197441
 20
1369.773892144527
 30
0.0
 11
1163.911212197441
 21
1369.773892144527
 31
0.0
  0
LINE
  8
0
 62
     0
 10
1190.913786487594
 20
1390.493696142268
 30
0.0
 11
1190.913786487594
 21
1390.493696142268
 31
0.0
  0
LINE
  8
0
 62
     0
 10
1137.016359551533
 20
1332.699731822841
 30
0.0
 11
1137.016359551533
 21
1332.699731822841
 31
0.0
  0
LINE
  8
0
 62
     0
 10
1163.293491547323
 20
1352.862884369897
 30
0.0
 11
1163.293491547323
 21
1352.862884369897
 31
0.0
  0
LINE
  8
0
 62
     0
 10
1190.296065837475
 20
1373.582688367637
 30
0.0
 11
1190.296065837475
 21
1373.582688367637
 31
0.0
  0
LINE
  8
0
 62
     0
 10
1216.996372504977
 20
1394.070554260926
 30
0.0
 11
1216.996372504977
 21
1394.070554260926
 31
0.0
  0
LINE
  8
0
 62
     0
 10
1162.675770897205
 20
1335.951876595266
 30
0.0
 11
1162.675770897205
 21
1335.951876595266
 31
0.0
  0
LINE
  8
0
 62
     0
 10
1189.678345187357
 20
1356.671680593007
 30
0.0
 11
1189.678345187357
 21
1356.671680593007
 31
0.0
  0
LINE
  8
0
 62
     0
 10
1216.378651854858
 20
1377.159546486295
 30
0.0
 11
1216.378651854858
 21
1377.159546486295
 31
0.0
  0
LINE
  8
0
 62
     0
 10
1189.060624537239
 20
1339.760672818376
 30
0.0
 11
1189.060624537239
 21
1339.760672818376
 31
0.0
  0
LINE
  8
0
 62
     0
 10
1215.76093120474
 20
1360.248538711665
 30
0.0
 11
1215.76093120474
 21
1360.248538711665
 31
0.0
  0
LINE
  8
0
 62
     0
 10
1215.143210554622
 20
1343.337530937034
 30
0.0
 11
1215.143210554622
 21
1343.337530937034
 31
0.0
  0
LINE
  8
0
 62
     0
 10
1214.525489904503
 20
1326.426523162403
 30
0.0
 11
1214.525489904503
 21
1326.426523162403
 31
0.0
  0
LINE
  8
0
 62
     0
 10
997.381491448853
 20
1337.571275957803
 30
0.0
 11
997.381491448853
 21
1337.571275957803
 31
0.0
  0
LINE
  8
0
 62
     0
 10
1010.098754685695
 20
1339.24553542541
 30
0.0
 11
1010.098754685695
 21
1339.24553542541
 31
0.0
  0
LINE
  8
0
 62
     0
 10
1189.500305773341
 20
1362.864197697151
 30
0.0
 11
1189.500305773341
 21
1362.864197697151
 31
0.0
  0
LINE
  8
0
 62
     0
 10
1202.217569010184
 20
1364.538457164758
 30
0.0
 11
1202.217569010184
 21
1364.538457164758
 31
0.0
  0
LINE
  8
0
 62
     0
 10
1221.457151412059
 20
1367.071396240503
 30
0.0
 11
1221.457151412059
 21
1367.071396240503
 31
0.0
  0
LINE
  8
0
 62
     0
 10
1061.421096223683
 20
1346.002249870919
 30
0.0
 11
1061.421096223683
 21
1346.002249870919
 31
0.0
  0
LINE
  8
0
 62
     0
 10
1074.138359460525
 20
1347.676509338525
 30
0.0
 11
1074.138359460525
 21
1347.676509338525
 31
0.0
  0
LINE
  8
0
 62
     0
 10
1093.3779418624
 20
1350.209448414271
 30
0.0
 11
1093.3779418624
 21
1350.209448414271
 31
0.0
  0
LINE
  8
0
 62
     0
 10
1125.460700998512
 20
1354.433223784035
 30
0.0
 11
1125.460700998512
 21
1354.433223784035
 31
0.0
  0
LINE
  8
0
 62
     0
 10
1138.177964235354
 20
1356.107483251642
 30
0.0
 11
1138.177964235354
 21
1356.107483251642
 31
0.0
  0
LINE
  8
0
 62
     0
 10
1157.41754663723
 20
1358.640422327387
 30
0.0
 11
1157.41754663723
 21
1358.640422327387
 31
0.0
  0
LINE
  8
0
 62
     0
 10
978.662664814802
 20
1353.383615551663
 30
0.0
 11
978.662664814802
 21
1353.383615551663
 31
0.0
  0
LINE
  8
0
 62
     0
 10
1010.745423950914
 20
1357.607390921427
 30
0.0
 11
1010.745423950914
 21
1357.607390921427
 31
0.0
  0
LINE
  8
0
 62
     0
 10
1023.462687187756
 20
1359.281650389033
 30
0.0
 11
1023.462687187756
 21
1359.281650389033
 31
0.0
  0
LINE
  8
0
 62
     0
 10
1202.864238275403
 20
1382.900312660775
 30
0.0
 11
1202.864238275403
 21
1382.900312660775
 31
0.0
  0
LINE
  8
0
 62
     0
 10
1215.581501512245
 20
1384.574572128382
 30
0.0
 11
1215.581501512245
 21
1384.574572128382
 31
0.0
  0
LINE
  8
0
 62
     0
 10
1234.82108391412
 20
1387.107511204127
 30
0.0
 11
1234.82108391412
 21
1387.107511204127
 31
0.0
  0
LINE
  8
0
 62
     0
 10
1042.702269589632
 20
1361.814589464779
 30
0.0
 11
1042.702269589632
 21
1361.814589464779
 31
0.0
  0
LINE
  8
0
 62
     0
 10
1074.785028725744
 20
1366.038364834543
 30
0.0
 11
1074.785028725744
 21
1366.038364834543
 31
0.0
  0
LINE
  8
0
 62
     0
 10
1087.502291962586
 20
1367.71262430215
 30
0.0
 11
1087.502291962586
 21
1367.71262430215
 31
0.0
  0
LINE
  8
0
 62
     0
 10
1138.824633500573
 20
1374.469338747659
 30
0.0
 11
1138.824633500573
 21
1374.469338747659
 31
0.0
  0
LINE
  8
0
 62
     0
 10
1151.541896737415
 20
1376.143598215266
 30
0.0
 11
1151.541896737415
 21
1376.143598215266
 31
0.0
  0
LINE
  8
0
 62
     0
 10
972.787014914988
 20
1370.886791439541
 30
0.0
 11
972.787014914988
 21
1370.886791439541
 31
0.0
  0
LINE
  8
0
 62
     0
 10
992.026597316864
 20
1373.419730515287
 30
0.0
 11
992.026597316864
 21
1373.419730515287
 31
0.0
  0
LINE
  8
0
 62
     0
 10
1024.109356452975
 20
1377.643505885051
 30
0.0
 11
1024.109356452975
 21
1377.643505885051
 31
0.0
  0
LINE
  8
0
 62
     0
 10
1184.145411641352
 20
1398.712652254635
 30
0.0
 11
1184.145411641352
 21
1398.712652254635
 31
0.0
  0
LINE
  8
0
 62
     0
 10
1216.228170777464
 20
1402.936427624399
 30
0.0
 11
1216.228170777464
 21
1402.936427624399
 31
0.0
  0
LINE
  8
0
 62
     0
 10
1228.945434014306
 20
1404.610687092005
 30
0.0
 11
1228.945434014306
 21
1404.610687092005
 31
0.0
  0
LINE
  8
0
 62
     0
 10
1056.066202091693
 20
1381.850704428403
 30
0.0
 11
1056.066202091693
 21
1381.850704428403
 31
0.0
  0
LINE
  8
0
 62
     0
 10
1088.148961227805
 20
1386.074479798167
 30
0.0
 11
1088.148961227805
 21
1386.074479798167
 31
0.0
  0
LINE
  8
0
 62
     0
 10
1120.105806866522
 20
1390.281678341519
 30
0.0
 11
1120.105806866522
 21
1390.281678341519
 31
0.0
  0
LINE
  8
0
 62
     0
 10
1152.188566002634
 20
1394.505453711283
 30
0.0
 11
1152.188566002634
 21
1394.505453711283
 31
0.0
  0
LINE
  8
0
 62
     0
 10
1164.905829239476
 20
1396.17971317889
 30
0.0
 11
1164.905829239476
 21
1396.17971317889
 31
0.0
  0
LINE
  8
0
 62
     0
 10
973.433684180207
 20
1389.248646935559
 30
0.0
 11
973.433684180207
 21
1389.248646935559
 31
0.0
  0
LINE
  8
0
 62
     0
 10
986.150947417049
 20
1390.922906403165
 30
0.0
 11
986.150947417049
 21
1390.922906403165
 31
0.0
  0
LINE
  8
0
 62
     0
 10
1005.390529818925
 20
1393.455845478911
 30
0.0
 11
1005.390529818925
 21
1393.455845478911
 31
0.0
  0
LINE
  8
0
 62
     0
 10
1050.190552191878
 20
1399.353880316281
 30
0.0
 11
1050.190552191878
 21
1399.353880316281
 31
0.0
  0
LINE
  8
0
 62
     0
 10
1069.430134593754
 20
1401.886819392027
 30
0.0
 11
1069.430134593754
 21
1401.886819392027
 31
0.0
  0
LINE
  8
0
 62
     0
 10
1048.057163721622
 20
1325.966134907295
 30
0.0
 11
1048.057163721622
 21
1325.966134907295
 31
0.0
  0
LINE
  8
0
 62
     0
 10
1060.774426958463
 20
1327.640394374902
 30
0.0
 11
1060.774426958463
 21
1327.640394374902
 31
0.0
  0
LINE
  8
0
 62
     0
 10
1080.014009360339
 20
1330.173333450647
 30
0.0
 11
1080.014009360339
 21
1330.173333450647
 31
0.0
  0
LINE
  8
0
 62
     0
 10
1188.853636508122
 20
1344.502342201134
 30
0.0
 11
1188.853636508122
 21
1344.502342201134
 31
0.0
  0
LINE
  8
0
 62
     0
 10
1208.093218909998
 20
1347.035281276879
 30
0.0
 11
1208.093218909998
 21
1347.035281276879
 31
0.0
  0
LINE
  8
0
 62
     0
 10
1112.096768496451
 20
1334.397108820411
 30
0.0
 11
1112.096768496451
 21
1334.397108820411
 31
0.0
  0
LINE
  8
0
 62
     0
 10
1124.814031733293
 20
1336.071368288018
 30
0.0
 11
1124.814031733293
 21
1336.071368288018
 31
0.0
  0
LINE
  8
0
 62
     0
 10
1144.053614135168
 20
1338.604307363763
 30
0.0
 11
1144.053614135168
 21
1338.604307363763
 31
0.0
  0
LINE
  8
0
 62
     0
 10
1194.729286407937
 20
1326.999166313255
 30
0.0
 11
1194.729286407937
 21
1326.999166313255
 31
0.0
  0
LINE
  8
0
 62
     0
 10
1226.812045544049
 20
1331.222941683019
 30
0.0
 11
1226.812045544049
 21
1331.222941683019
 31
0.0
  0
LINE
  8
0
 62
     0
 10
1026.663865720047
 20
1403.416987494779
 30
0.0
 11
1026.663865720047
 21
1403.416987494779
 31
0.0
  0
LINE
  8
0
 62
     0
 10
1115.13731516871
 20
1347.053183979981
 30
0.0
 11
1115.13731516871
 21
1347.053183979981
 31
0.0
  0
LINE
  8
0
 62
     0
 10
1071.007701157997
 20
1375.16684868712
 30
0.0
 11
1071.007701157997
 21
1375.16684868712
 31
0.0
  0
LINE
  8
0
 62
     0
 10
1081.718772519821
 20
1368.343143661115
 30
0.0
 11
1081.718772519821
 21
1368.343143661115
 31
0.0
  0
LINE
  8
0
 62
     0
 10
1053.781984753422
 20
1402.271238696244
 30
0.0
 11
1053.781984753422
 21
1402.271238696244
 31
0.0
  0
LINE
  8
0
 62
     0
 10
1098.125820191372
 20
1374.021099888585
 30
0.0
 11
1098.125820191372
 21
1374.021099888585
 31
0.0
  0
LINE
  8
0
 62
     0
 10
1142.255434202085
 20
1345.907435181446
 30
0.0
 11
1142.255434202085
 21
1345.907435181446
 31
0.0
  0
LINE
  8
0
 62
     0
 10
1080.900103786796
 20
1401.12548989771
 30
0.0
 11
1080.900103786796
 21
1401.12548989771
 31
0.0
  0
LINE
  8
0
 62
     0
 10
1125.243939224746
 20
1372.875351090051
 30
0.0
 11
1125.243939224746
 21
1372.875351090051
 31
0.0
  0
LINE
  8
0
 62
     0
 10
1135.955010586569
 20
1366.051646064046
 30
0.0
 11
1135.955010586569
 21
1366.051646064046
 31
0.0
  0
LINE
  8
0
 62
     0
 10
1152.36205825812
 20
1371.729602291516
 30
0.0
 11
1152.36205825812
 21
1371.729602291516
 31
0.0
  0
LINE
  8
0
 62
     0
 10
1163.073129619943
 20
1364.905897265511
 30
0.0
 11
1163.073129619943
 21
1364.905897265511
 31
0.0
  0
LINE
  8
0
 62
     0
 10
1196.491672268833
 20
1343.615937584377
 30
0.0
 11
1196.491672268833
 21
1343.615937584377
 31
0.0
  0
LINE
  8
0
 62
     0
 10
1135.136341853544
 20
1398.83399230064
 30
0.0
 11
1135.136341853544
 21
1398.83399230064
 31
0.0
  0
LINE
  8
0
 62
     0
 10
1179.480177291494
 20
1370.583853492981
 30
0.0
 11
1179.480177291494
 21
1370.583853492981
 31
0.0
  0
LINE
  8
0
 62
     0
 10
1190.191248653318
 20
1363.760148466976
 30
0.0
 11
1190.191248653318
 21
1363.760148466976
 31
0.0
  0
LINE
  8
0
 62
     0
 10
1223.609791302208
 20
1342.470188785842
 30
0.0
 11
1223.609791302208
 21
1342.470188785842
 31
0.0
  0
LINE
  8
0
 62
     0
 10
1162.254460886918
 20
1397.688243502106
 30
0.0
 11
1162.254460886918
 21
1397.688243502106
 31
0.0
  0
LINE
  8
0
 62
     0
 10
1206.598296324868
 20
1369.438104694447
 30
0.0
 11
1206.598296324868
 21
1369.438104694447
 31
0.0
  0
LINE
  8
0
 62
     0
 10
1217.309367686692
 20
1362.614399668442
 30
0.0
 11
1217.309367686692
 21
1362.614399668442
 31
0.0
  0
LINE
  8
0
 62
     0
 10
1189.372579920292
 20
1396.542494703571
 30
0.0
 11
1189.372579920292
 21
1396.542494703571
 31
0.0
  0
LINE
  8
0
 62
     0
 10
1233.716415358242
 20
1368.292355895912
 30
0.0
 11
1233.716415358242
 21
1368.292355895912
 31
0.0
  0
LINE
  8
0
 62
     0
 10
1216.490698953667
 20
1395.396745905036
 30
0.0
 11
1216.490698953667
 21
1395.396745905036
 31
0.0
  0
LINE
  8
0
 62
     0
 10
999.545746686673
 20
1404.562736293314
 30
0.0
 11
999.545746686673
 21
1404.562736293314
 31
0.0
  0
LINE
  8
0
 62
     0
 10
1043.889582124623
 20
1376.312597485655
 30
0.0
 11
1043.889582124623
 21
1376.312597485655
 31
0.0
  0
LINE
  8
0
 62
     0
 10
1054.600653486447
 20
1369.48889245965
 30
0.0
 11
1054.600653486447
 21
1369.48889245965
 31
0.0
  0
LINE
  8
0
 62
     0
 10
1088.019196135336
 20
1348.198932778515
 30
0.0
 11
1088.019196135336
 21
1348.198932778515
 31
0.0
  0
LINE
  8
0
 62
     0
 10
1016.771463091248
 20
1377.45834628419
 30
0.0
 11
1016.771463091248
 21
1377.45834628419
 31
0.0
  0
LINE
  8
0
 62
     0
 10
1027.482534453072
 20
1370.634641258185
 30
0.0
 11
1027.482534453072
 21
1370.634641258185
 31
0.0
  0
LINE
  8
0
 62
     0
 10
1060.901077101962
 20
1349.34468157705
 30
0.0
 11
1060.901077101962
 21
1349.34468157705
 31
0.0
  0
LINE
  8
0
 62
     0
 10
989.653344057874
 20
1378.604095082724
 30
0.0
 11
989.653344057874
 21
1378.604095082724
 31
0.0
  0
LINE
  8
0
 62
     0
 10
1000.364415419698
 20
1371.780390056719
 30
0.0
 11
1000.364415419698
 21
1371.780390056719
 31
0.0
  0
LINE
  8
0
 62
     0
 10
973.246296386324
 20
1372.926138855254
 30
0.0
 11
973.246296386324
 21
1372.926138855254
 31
0.0
  0
LINE
  8
0
 62
     0
 10
1006.664839035213
 20
1351.63617917412
 30
0.0
 11
1006.664839035213
 21
1351.63617917412
 31
0.0
  0
LINE
  8
0
 62
     0
 10
979.546720001839
 20
1352.781927972654
 30
0.0
 11
979.546720001839
 21
1352.781927972654
 31
0.0
  0
LINE
  8
0
 62
     0
 10
996.772436406415
 20
1325.677537963529
 30
0.0
 11
996.772436406415
 21
1325.677537963529
 31
0.0
  0
LINE
  8
0
 62
     0
 10
969.654317373041
 20
1326.823286762064
 30
0.0
 11
969.654317373041
 21
1326.823286762064
 31
0.0
  0
LINE
  8
0
 62
     0
 10
1065.139438441953
 20
1394.139789686017
 30
0.0
 11
1065.139438441953
 21
1394.139789686017
 31
0.0
  0
LINE
  8
0
 62
     0
 10
1084.540449193709
 20
1376.362038726735
 30
0.0
 11
1084.540449193709
 21
1376.362038726735
 31
0.0
  0
LINE
  8
0
 62
     0
 10
1112.068910395525
 20
1351.136851554782
 30
0.0
 11
1112.068910395525
 21
1351.136851554782
 31
0.0
  0
LINE
  8
0
 62
     0
 10
1124.241359226261
 20
1339.982857227047
 30
0.0
 11
1124.241359226261
 21
1339.982857227047
 31
0.0
  0
LINE
  8
0
 62
     0
 10
1094.765274719156
 20
1399.225087892683
 30
0.0
 11
1094.765274719156
 21
1399.225087892683
 31
0.0
  0
LINE
  8
0
 62
     0
 10
1114.166285470913
 20
1381.447336933402
 30
0.0
 11
1114.166285470913
 21
1381.447336933402
 31
0.0
  0
LINE
  8
0
 62
     0
 10
1141.694746672729
 20
1356.222149761448
 30
0.0
 11
1141.694746672729
 21
1356.222149761448
 31
0.0
  0
LINE
  8
0
 62
     0
 10
1153.867195503464
 20
1345.068155433714
 30
0.0
 11
1153.867195503464
 21
1345.068155433714
 31
0.0
  0
LINE
  8
0
 62
     0
 10
1124.39111099636
 20
1404.31038609935
 30
0.0
 11
1124.39111099636
 21
1404.31038609935
 31
0.0
  0
LINE
  8
0
 62
     0
 10
1143.792121748116
 20
1386.532635140068
 30
0.0
 11
1143.792121748116
 21
1386.532635140068
 31
0.0
  0
LINE
  8
0
 62
     0
 10
1183.493031780668
 20
1350.15345364038
 30
0.0
 11
1183.493031780668
 21
1350.15345364038
 31
0.0
  0
LINE
  8
0
 62
     0
 10
1202.894042532424
 20
1332.375702681099
 30
0.0
 11
1202.894042532424
 21
1332.375702681099
 31
0.0
  0
LINE
  8
0
 62
     0
 10
1200.946419227136
 20
1366.392746174782
 30
0.0
 11
1200.946419227136
 21
1366.392746174782
 31
0.0
  0
LINE
  8
0
 62
     0
 10
1213.118868057871
 20
1355.238751847047
 30
0.0
 11
1213.118868057871
 21
1355.238751847047
 31
0.0
  0
LINE
  8
0
 62
     0
 10
1232.519878809628
 20
1337.461000887766
 30
0.0
 11
1232.519878809628
 21
1337.461000887766
 31
0.0
  0
LINE
  8
0
 62
     0
 10
1203.043794302523
 20
1396.703231553402
 30
0.0
 11
1203.043794302523
 21
1396.703231553402
 31
0.0
  0
LINE
  8
0
 62
     0
 10
1230.57225550434
 20
1371.478044381448
 30
0.0
 11
1230.57225550434
 21
1371.478044381448
 31
0.0
  0
LINE
  8
0
 62
     0
 10
1232.669630579727
 20
1401.788529760068
 30
0.0
 11
1232.669630579727
 21
1401.788529760068
 31
0.0
  0
LINE
  8
0
 62
     0
 10
1023.341153334013
 20
1400.208485807085
 30
0.0
 11
1023.341153334013
 21
1400.208485807085
 31
0.0
  0
LINE
  8
0
 62
     0
 10
1054.914612916505
 20
1371.276740520069
 30
0.0
 11
1054.914612916505
 21
1371.276740520069
 31
0.0
  0
LINE
  8
0
 62
     0
 10
1082.443074118322
 20
1346.051553348115
 30
0.0
 11
1082.443074118322
 21
1346.051553348115
 31
0.0
  0
LINE
  8
0
 62
     0
 10
1094.615522949057
 20
1334.897559020381
 30
0.0
 11
1094.615522949057
 21
1334.897559020381
 31
0.0
  0
LINE
  8
0
 62
     0
 10
993.71531705681
 20
1395.123187600418
 30
0.0
 11
993.71531705681
 21
1395.123187600418
 31
0.0
  0
LINE
  8
0
 62
     0
 10
1005.887765887545
 20
1383.969193272684
 30
0.0
 11
1005.887765887545
 21
1383.969193272684
 31
0.0
  0
LINE
  8
0
 62
     0
 10
1025.288776639301
 20
1366.191442313402
 30
0.0
 11
1025.288776639301
 21
1366.191442313402
 31
0.0
  0
LINE
  8
0
 62
     0
 10
1052.817237841118
 20
1340.966255141448
 30
0.0
 11
1052.817237841118
 21
1340.966255141448
 31
0.0
  0
LINE
  8
0
 62
     0
 10
1064.989686671853
 20
1329.812260813714
 30
0.0
 11
1064.989686671853
 21
1329.812260813714
 31
0.0
  0
LINE
  8
0
 62
     0
 10
976.261929610342
 20
1378.883895066017
 30
0.0
 11
976.261929610342
 21
1378.883895066017
 31
0.0
  0
LINE
  8
0
 62
     0
 10
995.662940362098
 20
1361.106144106736
 30
0.0
 11
995.662940362098
 21
1361.106144106736
 31
0.0
  0
LINE
  8
0
 62
     0
 10
1023.191401563914
 20
1335.880956934782
 30
0.0
 11
1023.191401563914
 21
1335.880956934782
 31
0.0
  0
LINE
  8
0
 62
     0
 10
993.565565286711
 20
1330.795658728115
 30
0.0
 11
993.565565286711
 21
1330.795658728115
 31
0.0
  0
ENDBLK
  8
0
  0
BLOCK
  8
0
  2
*D18
 70
    65
 10
0.0
 20
0.0
 30
0.0
  3
*D
  0
LINE
  8
0
  6
BYBLOCK
 10
2157.628023920978
 20
6378.089261754794
 30
0.0
 11
2157.628023920978
 21
6427.638920000795
 31
0.0
  0
LINE
  8
0
  6
BYBLOCK
 10
3657.628023920977
 20
6132.089261754794
 30
0.0
 11
3657.628023920977
 21
6427.638920000795
 31
0.0
  0
LINE
  8
0
  6
BYBLOCK
 10
2257.628023920978
 20
6426.638920000795
 30
0.0
 11
3557.628023920977
 21
6426.638920000795
 31
0.0
  0
SOLID
  8
0
  6
BYBLOCK
 10
2257.628023920978
 20
6443.305586667461
 30
0.0
 11
2257.628023920978
 21
6409.972253334127
 31
0.0
 12
2157.628023920978
 22
6426.638920000795
 32
0.0
 13
2157.628023920978
 23
6426.638920000795
 33
0.0
  0
SOLID
  8
0
  6
BYBLOCK
 10
3557.628023920977
 20
6443.305586667461
 30
0.0
 11
3557.628023920977
 21
6409.972253334127
 31
0.0
 12
3657.628023920977
 22
6426.638920000795
 32
0.0
 13
3657.628023920977
 23
6426.638920000795
 33
0.0
  0
TEXT
  8
0
  6
BYBLOCK
 10
2749.53278582574
 20
6466.638920000795
 30
0.0
 40
80.0
  1
1500
  7
ROMANS
 72
     1
 11
2907.628023920978
 21
6506.638920000794
 31
0.0
 73
     2
  0
POINT
  8
DEFPOINTS
  6
BYBLOCK
 62
     0
 10
2157.628023920978
 20
6378.089261754794
 30
0.0
  0
POINT
  8
DEFPOINTS
  6
BYBLOCK
 62
     0
 10
3657.628023920977
 20
6132.089261754794
 30
0.0
  0
POINT
  8
DEFPOINTS
  6
BYBLOCK
 62
     0
 10
3657.628023920977
 20
6426.638920000795
 30
0.0
  0
ENDBLK
  8
0
  0
BLOCK
  8
0
  2
*D19
 70
    65
 10
0.0
 20
0.0
 30
0.0
  3
*D
  0
LINE
  8
0
  6
BYBLOCK
 10
-145.692514438271
 20
9465.636076498133
 30
0.0
 11
-486.82572689249
 21
9465.636076498133
 31
0.0
  0
LINE
  8
0
  6
BYBLOCK
 10
-145.692514438271
 20
5873.636076498133
 30
0.0
 11
-486.82572689249
 21
5873.636076498133
 31
0.0
  0
LINE
  8
0
  6
BYBLOCK
 10
-485.82572689249
 20
9365.636076498132
 30
0.0
 11
-485.82572689249
 21
5973.636076498133
 31
0.0
  0
SOLID
  8
0
  6
BYBLOCK
 10
-502.492393559157
 20
9365.636076498132
 30
0.0
 11
-469.159060225823
 21
9365.636076498132
 31
0.0
 12
-485.82572689249
 22
9465.636076498133
 32
0.0
 13
-485.82572689249
 23
9465.636076498133
 33
0.0
  0
SOLID
  8
0
  6
BYBLOCK
 10
-502.492393559157
 20
5973.636076498133
 30
0.0
 11
-469.159060225823
 21
5973.636076498133
 31
0.0
 12
-485.82572689249
 22
5873.636076498133
 32
0.0
 13
-485.82572689249
 23
5873.636076498133
 33
0.0
  0
TEXT
  8
0
  6
BYBLOCK
 10
-525.82572689249
 20
7517.255124117181
 30
0.0
 40
80.0
  1
3592
 50
90.0
  7
ROMANS
 72
     1
 11
-565.82572689249
 21
7669.636076498134
 31
0.0
 73
     2
  0
POINT
  8
DEFPOINTS
  6
BYBLOCK
 62
     0
 10
-145.692514438271
 20
9465.636076498133
 30
0.0
  0
POINT
  8
DEFPOINTS
  6
BYBLOCK
 62
     0
 10
-145.692514438271
 20
5873.636076498133
 30
0.0
  0
POINT
  8
DEFPOINTS
  6
BYBLOCK
 62
     0
 10
-485.82572689249
 20
5873.636076498133
 30
0.0
  0
ENDBLK
  8
0
  0
BLOCK
  8
0
  2
*D20
 70
    65
 10
0.0
 20
0.0
 30
0.0
  3
*D
  0
LINE
  8
0
  6
BYBLOCK
 10
-145.692514438271
 20
9465.636076498133
 30
0.0
 11
-145.692514438271
 21
9938.396817358539
 31
0.0
  0
LINE
  8
0
  6
BYBLOCK
 10
3754.307485561728
 20
9465.636076498133
 30
0.0
 11
3754.307485561728
 21
9938.396817358539
 31
0.0
  0
LINE
  8
0
  6
BYBLOCK
 10
-45.692514438271
 20
9937.396817358539
 30
0.0
 11
3654.307485561728
 21
9937.396817358539
 31
0.0
  0
SOLID
  8
0
  6
BYBLOCK
 10
-45.692514438271
 20
9954.063484025205
 30
0.0
 11
-45.692514438271
 21
9920.730150691873
 31
0.0
 12
-145.692514438271
 22
9937.396817358539
 32
0.0
 13
-145.692514438271
 23
9937.396817358539
 33
0.0
  0
SOLID
  8
0
  6
BYBLOCK
 10
3654.307485561728
 20
9954.063484025205
 30
0.0
 11
3654.307485561728
 21
9920.730150691873
 31
0.0
 12
3754.307485561728
 22
9937.396817358539
 32
0.0
 13
3754.307485561728
 23
9937.396817358539
 33
0.0
  0
TEXT
  8
0
  6
BYBLOCK
 10
1651.926533180776
 20
9977.396817358538
 30
0.0
 40
80.0
  1
3900
  7
ROMANS
 72
     1
 11
1804.307485561728
 21
10017.39681735853
 31
0.0
 73
     2
  0
POINT
  8
DEFPOINTS
  6
BYBLOCK
 62
     0
 10
-145.692514438271
 20
9465.636076498133
 30
0.0
  0
POINT
  8
DEFPOINTS
  6
BYBLOCK
 62
     0
 10
3754.307485561728
 20
9465.636076498133
 30
0.0
  0
POINT
  8
DEFPOINTS
  6
BYBLOCK
 62
     0
 10
3754.307485561728
 20
9937.396817358539
 30
0.0
  0
ENDBLK
  8
0
  0
BLOCK
  8
0
  2
*X21
 70
    65
 10
0.0
 20
0.0
 30
0.0
  3
*X
  0
LINE
  8
0
 62
     0
 10
1588.239393051673
 20
7450.550588885616
 30
0.0
 11
1594.893487101882
 21
7457.204682935825
 31
0.0
  0
LINE
  8
0
 62
     0
 10
1609.261896895592
 20
7471.573092729535
 30
0.0
 11
1652.367126276724
 21
7514.678322110666
 31
0.0
  0
LINE
  8
0
 62
     0
 10
1666.735536070435
 20
7529.046731904378
 30
0.0
 11
1693.464296989776
 21
7555.775492823717
 31
0.0
  0
LINE
  8
0
 62
     0
 10
1915.464296989775
 20
7777.775492823719
 30
0.0
 11
1939.735322150937
 21
7802.046517984881
 31
0.0
  0
LINE
  8
0
 62
     0
 10
1954.103731944648
 20
7816.41492777859
 30
0.0
 11
1997.20896132578
 21
7859.520157159722
 31
0.0
  0
LINE
  8
0
 62
     0
 10
2011.577371119491
 20
7873.888566953433
 30
0.0
 11
2023.409527435603
 21
7885.720723269545
 31
0.0
  0
LINE
  8
0
 62
     0
 10
1693.464296989775
 20
7555.77549282372
 30
0.0
 11
1709.840765451567
 21
7572.151961285511
 31
0.0
  0
LINE
  8
0
 62
     0
 10
1724.209175245278
 20
7586.520371079221
 30
0.0
 11
1767.314404626409
 21
7629.625600460353
 31
0.0
  0
LINE
  8
0
 62
     0
 10
1781.68281442012
 20
7643.994010254062
 30
0.0
 11
1804.464296989775
 21
7666.775492823718
 31
0.0
  0
LINE
  8
0
 62
     0
 10
1807.324880664191
 20
7669.636076498134
 30
0.0
 11
1824.788043801253
 21
7687.099239635195
 31
0.0
  0
LINE
  8
0
 62
     0
 10
1839.156453594963
 20
7701.467649428906
 30
0.0
 11
1882.261682976095
 21
7744.572878810037
 31
0.0
  0
LINE
  8
0
 62
     0
 10
1896.630092769806
 20
7758.941288603748
 30
0.0
 11
1915.464296989775
 21
7777.775492823717
 31
0.0
  0
LINE
  8
0
 62
     0
 10
1804.464296989775
 20
7666.775492823718
 30
0.0
 11
1807.324880664191
 21
7669.636076498134
 31
0.0
  0
LINE
  8
0
 62
     0
 10
1582.464296989775
 20
7473.512312411142
 30
0.0
 11
1594.893487101881
 21
7485.941502523247
 31
0.0
  0
LINE
  8
0
 62
     0
 10
1609.261896895592
 20
7500.309912316958
 30
0.0
 11
1652.367126276723
 21
7543.415141698089
 31
0.0
  0
LINE
  8
0
 62
     0
 10
1666.735536070434
 20
7557.7835514918
 30
0.0
 11
1693.464296989775
 21
7584.51231241114
 31
0.0
  0
LINE
  8
0
 62
     0
 10
1915.464296989775
 20
7806.512312411141
 30
0.0
 11
1939.735322150937
 21
7830.783337572301
 31
0.0
  0
LINE
  8
0
 62
     0
 10
1954.103731944647
 20
7845.151747366013
 30
0.0
 11
1997.20896132578
 21
7888.256976747144
 31
0.0
  0
LINE
  8
0
 62
     0
 10
1693.464296989775
 20
7584.512312411142
 30
0.0
 11
1709.840765451566
 21
7600.888780872932
 31
0.0
  0
LINE
  8
0
 62
     0
 10
1724.209175245277
 20
7615.257190666643
 30
0.0
 11
1767.314404626409
 21
7658.362420047773
 31
0.0
  0
LINE
  8
0
 62
     0
 10
1804.464296989775
 20
7695.51231241114
 30
0.0
 11
1824.788043801251
 21
7715.836059222617
 31
0.0
  0
LINE
  8
0
 62
     0
 10
1839.156453594962
 20
7730.204469016328
 30
0.0
 11
1882.261682976094
 21
7773.30969839746
 31
0.0
  0
LINE
  8
0
 62
     0
 10
1896.630092769805
 20
7787.67810819117
 30
0.0
 11
1915.464296989775
 21
7806.512312411141
 31
0.0
  0
LINE
  8
0
 62
     0
 10
1781.68281442012
 20
7672.730829841486
 30
0.0
 11
1804.464296989775
 21
7695.512312411142
 31
0.0
  0
LINE
  8
0
 62
     0
 10
1582.464296989775
 20
7502.249131998563
 30
0.0
 11
1594.893487101882
 21
7514.678322110669
 31
0.0
  0
LINE
  8
0
 62
     0
 10
1609.261896895592
 20
7529.046731904379
 30
0.0
 11
1652.367126276724
 21
7572.151961285511
 31
0.0
  0
LINE
  8
0
 62
     0
 10
1666.735536070435
 20
7586.520371079221
 30
0.0
 11
1693.464296989775
 21
7613.249131998562
 31
0.0
  0
LINE
  8
0
 62
     0
 10
1915.464296989775
 20
7835.249131998563
 30
0.0
 11
1939.735322150937
 21
7859.520157159725
 31
0.0
  0
LINE
  8
0
 62
     0
 10
1954.103731944648
 20
7873.888566953435
 30
0.0
 11
1987.976800311216
 21
7907.761635320002
 31
0.0
  0
LINE
  8
0
 62
     0
 10
1693.464296989775
 20
7613.249131998562
 30
0.0
 11
1709.840765451567
 21
7629.625600460355
 31
0.0
  0
LINE
  8
0
 62
     0
 10
1724.209175245278
 20
7643.994010254064
 30
0.0
 11
1749.851241489347
 21
7669.636076498134
 31
0.0
  0
LINE
  8
0
 62
     0
 10
1804.464296989775
 20
7724.249131998561
 30
0.0
 11
1824.788043801252
 21
7744.572878810039
 31
0.0
  0
LINE
  8
0
 62
     0
 10
1839.156453594963
 20
7758.941288603748
 30
0.0
 11
1882.261682976095
 21
7802.046517984881
 31
0.0
  0
LINE
  8
0
 62
     0
 10
1896.630092769806
 20
7816.41492777859
 30
0.0
 11
1915.464296989775
 21
7835.249131998559
 31
0.0
  0
LINE
  8
0
 62
     0
 10
1749.851241489348
 20
7669.636076498134
 30
0.0
 11
1767.314404626409
 21
7687.099239635196
 31
0.0
  0
LINE
  8
0
 62
     0
 10
1781.68281442012
 20
7701.467649428906
 30
0.0
 11
1804.464296989775
 21
7724.249131998561
 31
0.0
  0
LINE
  8
0
 62
     0
 10
1582.464296989775
 20
7530.985951585982
 30
0.0
 11
1594.893487101882
 21
7543.415141698089
 31
0.0
  0
LINE
  8
0
 62
     0
 10
1609.261896895592
 20
7557.7835514918
 30
0.0
 11
1652.367126276724
 21
7600.888780872932
 31
0.0
  0
LINE
  8
0
 62
     0
 10
1666.735536070435
 20
7615.257190666642
 30
0.0
 11
1693.464296989775
 21
7641.985951585982
 31
0.0
  0
LINE
  8
0
 62
     0
 10
1915.464296989775
 20
7863.985951585982
 30
0.0
 11
1939.735322150937
 21
7888.256976747144
 31
0.0
  0
LINE
  8
0
 62
     0
 10
1954.103731944648
 20
7902.625386540855
 30
0.0
 11
1960.585490974527
 21
7909.107145570734
 31
0.0
  0
LINE
  8
0
 62
     0
 10
1693.464296989775
 20
7641.985951585982
 30
0.0
 11
1709.840765451567
 21
7658.362420047773
 31
0.0
  0
LINE
  8
0
 62
     0
 10
1804.464296989775
 20
7752.985951585982
 30
0.0
 11
1824.788043801252
 21
7773.30969839746
 31
0.0
  0
LINE
  8
0
 62
     0
 10
1839.156453594963
 20
7787.67810819117
 30
0.0
 11
1882.261682976095
 21
7830.783337572301
 31
0.0
  0
LINE
  8
0
 62
     0
 10
1896.630092769805
 20
7845.151747366011
 30
0.0
 11
1915.464296989775
 21
7863.985951585981
 31
0.0
  0
LINE
  8
0
 62
     0
 10
1724.209175245277
 20
7672.730829841484
 30
0.0
 11
1767.314404626409
 21
7715.836059222617
 31
0.0
  0
LINE
  8
0
 62
     0
 10
1781.68281442012
 20
7730.204469016326
 30
0.0
 11
1804.464296989775
 21
7752.985951585982
 31
0.0
  0
LINE
  8
0
 62
     0
 10
1582.464296989775
 20
7559.722771173404
 30
0.0
 11
1594.893487101882
 21
7572.151961285511
 31
0.0
  0
LINE
  8
0
 62
     0
 10
1609.261896895593
 20
7586.520371079221
 30
0.0
 11
1652.367126276725
 21
7629.625600460353
 31
0.0
  0
LINE
  8
0
 62
     0
 10
1666.735536070436
 20
7643.994010254062
 30
0.0
 11
1692.377602314505
 21
7669.636076498133
 31
0.0
  0
LINE
  8
0
 62
     0
 10
1804.464296989775
 20
7781.722771173403
 30
0.0
 11
1824.788043801253
 21
7802.046517984881
 31
0.0
  0
LINE
  8
0
 62
     0
 10
1839.156453594964
 20
7816.41492777859
 30
0.0
 11
1882.261682976096
 21
7859.520157159722
 31
0.0
  0
LINE
  8
0
 62
     0
 10
1896.630092769806
 20
7873.888566953433
 30
0.0
 11
1910.550661047577
 21
7887.809135231203
 31
0.0
  0
LINE
  8
0
 62
     0
 10
1692.377602314507
 20
7669.636076498134
 30
0.0
 11
1693.464296989775
 21
7670.722771173402
 31
0.0
  0
LINE
  8
0
 62
     0
 10
1693.464296989775
 20
7670.722771173404
 30
0.0
 11
1709.840765451568
 21
7687.099239635196
 31
0.0
  0
LINE
  8
0
 62
     0
 10
1724.209175245278
 20
7701.467649428906
 30
0.0
 11
1767.31440462641
 21
7744.572878810037
 31
0.0
  0
LINE
  8
0
 62
     0
 10
1781.682814420121
 20
7758.941288603748
 30
0.0
 11
1804.464296989775
 21
7781.722771173403
 31
0.0
  0
LINE
  8
0
 62
     0
 10
1582.464296989775
 20
7588.459590760825
 30
0.0
 11
1594.893487101881
 21
7600.888780872932
 31
0.0
  0
LINE
  8
0
 62
     0
 10
1609.261896895592
 20
7615.257190666642
 30
0.0
 11
1652.367126276724
 21
7658.362420047773
 31
0.0
  0
LINE
  8
0
 62
     0
 10
1804.464296989775
 20
7810.459590760825
 30
0.0
 11
1824.788043801251
 21
7830.783337572301
 31
0.0
  0
LINE
  8
0
 62
     0
 10
1839.156453594962
 20
7845.151747366013
 30
0.0
 11
1882.261682976094
 21
7888.256976747144
 31
0.0
  0
LINE
  8
0
 62
     0
 10
1666.735536070435
 20
7672.730829841484
 30
0.0
 11
1693.464296989775
 21
7699.459590760825
 31
0.0
  0
LINE
  8
0
 62
     0
 10
1693.464296989775
 20
7699.459590760825
 30
0.0
 11
1709.840765451567
 21
7715.836059222617
 31
0.0
  0
LINE
  8
0
 62
     0
 10
1724.209175245277
 20
7730.204469016326
 30
0.0
 11
1767.314404626409
 21
7773.309698397459
 31
0.0
  0
LINE
  8
0
 62
     0
 10
1781.68281442012
 20
7787.678108191168
 30
0.0
 11
1804.464296989775
 21
7810.459590760825
 31
0.0
  0
LINE
  8
0
 62
     0
 10
1582.464296989775
 20
7617.196410348247
 30
0.0
 11
1594.893487101882
 21
7629.625600460355
 31
0.0
  0
LINE
  8
0
 62
     0
 10
1609.261896895592
 20
7643.994010254064
 30
0.0
 11
1634.903963139662
 21
7669.636076498134
 31
0.0
  0
LINE
  8
0
 62
     0
 10
1804.464296989775
 20
7839.196410348246
 30
0.0
 11
1824.788043801252
 21
7859.520157159724
 31
0.0
  0
LINE
  8
0
 62
     0
 10
1839.156453594963
 20
7873.888566953433
 30
0.0
 11
1873.765560474953
 21
7908.497673833424
 31
0.0
  0
LINE
  8
0
 62
     0
 10
1634.903963139664
 20
7669.636076498134
 30
0.0
 11
1652.367126276724
 21
7687.099239635196
 31
0.0
  0
LINE
  8
0
 62
     0
 10
1666.735536070435
 20
7701.467649428906
 30
0.0
 11
1693.464296989775
 21
7728.196410348244
 31
0.0
  0
LINE
  8
0
 62
     0
 10
1693.464296989775
 20
7728.196410348247
 30
0.0
 11
1709.840765451567
 21
7744.572878810039
 31
0.0
  0
LINE
  8
0
 62
     0
 10
1724.209175245278
 20
7758.941288603748
 30
0.0
 11
1767.314404626409
 21
7802.046517984881
 31
0.0
  0
LINE
  8
0
 62
     0
 10
1781.68281442012
 20
7816.41492777859
 30
0.0
 11
1804.464296989775
 21
7839.196410348246
 31
0.0
  0
LINE
  8
0
 62
     0
 10
1582.464296989775
 20
7645.933229935667
 30
0.0
 11
1594.893487101882
 21
7658.362420047773
 31
0.0
  0
LINE
  8
0
 62
     0
 10
1804.464296989775
 20
7867.933229935668
 30
0.0
 11
1824.788043801252
 21
7888.256976747144
 31
0.0
  0
LINE
  8
0
 62
     0
 10
1839.156453594963
 20
7902.625386540854
 30
0.0
 11
1844.717349944395
 21
7908.186282890286
 31
0.0
  0
LINE
  8
0
 62
     0
 10
1609.261896895592
 20
7672.730829841484
 30
0.0
 11
1652.367126276724
 21
7715.836059222617
 31
0.0
  0
LINE
  8
0
 62
     0
 10
1666.735536070435
 20
7730.204469016326
 30
0.0
 11
1693.464296989775
 21
7756.933229935667
 31
0.0
  0
LINE
  8
0
 62
     0
 10
1693.464296989775
 20
7756.933229935668
 30
0.0
 11
1709.840765451567
 21
7773.30969839746
 31
0.0
  0
LINE
  8
0
 62
     0
 10
1724.209175245278
 20
7787.67810819117
 30
0.0
 11
1767.314404626409
 21
7830.783337572301
 31
0.0
  0
LINE
  8
0
 62
     0
 10
1781.68281442012
 20
7845.151747366011
 30
0.0
 11
1804.464296989775
 21
7867.933229935666
 31
0.0
  0
LINE
  8
0
 62
     0
 10
1582.464296989775
 20
7674.670049523089
 30
0.0
 11
1594.893487101882
 21
7687.099239635196
 31
0.0
  0
LINE
  8
0
 62
     0
 10
1609.261896895593
 20
7701.467649428906
 30
0.0
 11
1652.367126276725
 21
7744.572878810037
 31
0.0
  0
LINE
  8
0
 62
     0
 10
1666.735536070436
 20
7758.941288603748
 30
0.0
 11
1693.464296989775
 21
7785.670049523088
 31
0.0
  0
LINE
  8
0
 62
     0
 10
1693.464296989775
 20
7785.670049523091
 30
0.0
 11
1709.840765451567
 21
7802.046517984882
 31
0.0
  0
LINE
  8
0
 62
     0
 10
1724.209175245278
 20
7816.414927778592
 30
0.0
 11
1767.314404626409
 21
7859.520157159724
 31
0.0
  0
LINE
  8
0
 62
     0
 10
1781.68281442012
 20
7873.888566953433
 30
0.0
 11
1797.611731514141
 21
7889.817484047455
 31
0.0
  0
LINE
  8
0
 62
     0
 10
1582.464296989775
 20
7703.406869110509
 30
0.0
 11
1594.893487101882
 21
7715.836059222617
 31
0.0
  0
LINE
  8
0
 62
     0
 10
1609.261896895593
 20
7730.204469016326
 30
0.0
 11
1652.367126276725
 21
7773.309698397459
 31
0.0
  0
LINE
  8
0
 62
     0
 10
1666.735536070436
 20
7787.678108191168
 30
0.0
 11
1693.464296989775
 21
7814.406869110507
 31
0.0
  0
LINE
  8
0
 62
     0
 10
1693.464296989775
 20
7814.40686911051
 30
0.0
 11
1709.840765451567
 21
7830.783337572301
 31
0.0
  0
LINE
  8
0
 62
     0
 10
1724.209175245278
 20
7845.151747366013
 30
0.0
 11
1767.314404626409
 21
7888.256976747144
 31
0.0
  0
LINE
  8
0
 62
     0
 10
1582.464296989775
 20
7732.143688697931
 30
0.0
 11
1594.893487101883
 21
7744.572878810037
 31
0.0
  0
LINE
  8
0
 62
     0
 10
1609.261896895594
 20
7758.941288603748
 30
0.0
 11
1652.367126276726
 21
7802.046517984879
 31
0.0
  0
LINE
  8
0
 62
     0
 10
1666.735536070436
 20
7816.41492777859
 30
0.0
 11
1693.464296989775
 21
7843.143688697929
 31
0.0
  0
LINE
  8
0
 62
     0
 10
1693.464296989775
 20
7843.143688697931
 30
0.0
 11
1709.840765451568
 21
7859.520157159724
 31
0.0
  0
LINE
  8
0
 62
     0
 10
1724.209175245278
 20
7873.888566953433
 30
0.0
 11
1759.416537324632
 21
7909.095929032787
 31
0.0
  0
LINE
  8
0
 62
     0
 10
1582.464296989775
 20
7760.880508285353
 30
0.0
 11
1594.893487101881
 21
7773.30969839746
 31
0.0
  0
LINE
  8
0
 62
     0
 10
1609.261896895592
 20
7787.67810819117
 30
0.0
 11
1652.367126276724
 21
7830.783337572301
 31
0.0
  0
LINE
  8
0
 62
     0
 10
1666.735536070435
 20
7845.151747366011
 30
0.0
 11
1693.464296989775
 21
7871.880508285351
 31
0.0
  0
LINE
  8
0
 62
     0
 10
1693.464296989775
 20
7871.880508285353
 30
0.0
 11
1709.840765451567
 21
7888.256976747144
 31
0.0
  0
LINE
  8
0
 62
     0
 10
1724.209175245277
 20
7902.625386540854
 30
0.0
 11
1728.312101155537
 21
7906.728312451114
 31
0.0
  0
LINE
  8
0
 62
     0
 10
1582.464296989775
 20
7789.617327872774
 30
0.0
 11
1594.893487101882
 21
7802.046517984881
 31
0.0
  0
LINE
  8
0
 62
     0
 10
1609.261896895592
 20
7816.41492777859
 30
0.0
 11
1652.367126276724
 21
7859.520157159722
 31
0.0
  0
LINE
  8
0
 62
     0
 10
1666.735536070435
 20
7873.888566953433
 30
0.0
 11
1684.592909913506
 21
7891.745940796504
 31
0.0
  0
LINE
  8
0
 62
     0
 10
1582.464296989775
 20
7818.354147460195
 30
0.0
 11
1594.893487101882
 21
7830.783337572301
 31
0.0
  0
LINE
  8
0
 62
     0
 10
1609.261896895593
 20
7845.151747366011
 30
0.0
 11
1652.367126276725
 21
7888.256976747143
 31
0.0
  0
LINE
  8
0
 62
     0
 10
1666.735536070436
 20
7902.625386540853
 30
0.0
 11
1667.404613522651
 21
7903.29446399307
 31
0.0
  0
LINE
  8
0
 62
     0
 10
1582.464296989775
 20
7847.090967047617
 30
0.0
 11
1594.893487101882
 21
7859.520157159724
 31
0.0
  0
LINE
  8
0
 62
     0
 10
1609.261896895593
 20
7873.888566953433
 30
0.0
 11
1644.914689860413
 21
7909.541359918255
 31
0.0
  0
LINE
  8
0
 62
     0
 10
1582.464296989775
 20
7875.827786635038
 30
0.0
 11
1594.893487101882
 21
7888.256976747144
 31
0.0
  0
LINE
  8
0
 62
     0
 10
1609.261896895593
 20
7902.625386540854
 30
0.0
 11
1611.070271773586
 21
7904.433761418848
 31
0.0
  0
LINE
  8
0
 62
     0
 10
1609.261896895592
 20
7442.836273142115
 30
0.0
 11
1652.367126276724
 21
7485.941502523246
 31
0.0
  0
LINE
  8
0
 62
     0
 10
1666.735536070435
 20
7500.309912316957
 30
0.0
 11
1693.464296989775
 21
7527.038673236297
 31
0.0
  0
LINE
  8
0
 62
     0
 10
1915.464296989775
 20
7749.038673236297
 30
0.0
 11
1939.735322150937
 21
7773.30969839746
 31
0.0
  0
LINE
  8
0
 62
     0
 10
1954.103731944648
 20
7787.678108191171
 30
0.0
 11
1997.20896132578
 21
7830.783337572301
 31
0.0
  0
LINE
  8
0
 62
     0
 10
2011.577371119491
 20
7845.151747366013
 30
0.0
 11
2026.886643112058
 21
7860.461019358579
 31
0.0
  0
LINE
  8
0
 62
     0
 10
1693.464296989775
 20
7527.038673236297
 30
0.0
 11
1709.840765451567
 21
7543.415141698089
 31
0.0
  0
LINE
  8
0
 62
     0
 10
1724.209175245278
 20
7557.7835514918
 30
0.0
 11
1767.314404626409
 21
7600.888780872932
 31
0.0
  0
LINE
  8
0
 62
     0
 10
1781.68281442012
 20
7615.257190666642
 30
0.0
 11
1804.464296989775
 21
7638.038673236295
 31
0.0
  0
LINE
  8
0
 62
     0
 10
1839.156453594963
 20
7672.730829841484
 30
0.0
 11
1882.261682976095
 21
7715.836059222617
 31
0.0
  0
LINE
  8
0
 62
     0
 10
1896.630092769806
 20
7730.204469016326
 30
0.0
 11
1915.464296989775
 21
7749.038673236296
 31
0.0
  0
LINE
  8
0
 62
     0
 10
1804.464296989775
 20
7638.038673236297
 30
0.0
 11
1824.788043801253
 21
7658.362420047773
 31
0.0
  0
LINE
  8
0
 62
     0
 10
1625.650208177089
 20
7430.487764836191
 30
0.0
 11
1652.367126276724
 21
7457.204682935826
 31
0.0
  0
LINE
  8
0
 62
     0
 10
1666.735536070435
 20
7471.573092729536
 30
0.0
 11
1693.464296989775
 21
7498.301853648876
 31
0.0
  0
LINE
  8
0
 62
     0
 10
1915.464296989775
 20
7720.301853648877
 30
0.0
 11
1939.735322150937
 21
7744.572878810039
 31
0.0
  0
LINE
  8
0
 62
     0
 10
1954.103731944648
 20
7758.94128860375
 30
0.0
 11
1997.20896132578
 21
7802.046517984882
 31
0.0
  0
LINE
  8
0
 62
     0
 10
2011.577371119491
 20
7816.414927778592
 30
0.0
 11
2026.886643112058
 21
7831.724199771159
 31
0.0
  0
LINE
  8
0
 62
     0
 10
1693.464296989775
 20
7498.301853648876
 30
0.0
 11
1709.840765451567
 21
7514.678322110669
 31
0.0
  0
LINE
  8
0
 62
     0
 10
1724.209175245278
 20
7529.046731904379
 30
0.0
 11
1767.314404626409
 21
7572.151961285511
 31
0.0
  0
LINE
  8
0
 62
     0
 10
1781.68281442012
 20
7586.520371079221
 30
0.0
 11
1804.464296989775
 21
7609.301853648877
 31
0.0
  0
LINE
  8
0
 62
     0
 10
1864.798519839033
 20
7669.636076498134
 30
0.0
 11
1882.261682976095
 21
7687.099239635196
 31
0.0
  0
LINE
  8
0
 62
     0
 10
1896.630092769806
 20
7701.467649428906
 30
0.0
 11
1915.464296989775
 21
7720.301853648875
 31
0.0
  0
LINE
  8
0
 62
     0
 10
1804.464296989775
 20
7609.301853648877
 30
0.0
 11
1824.788043801252
 21
7629.625600460355
 31
0.0
  0
LINE
  8
0
 62
     0
 10
1839.156453594963
 20
7643.994010254064
 30
0.0
 11
1864.798519839033
 21
7669.636076498134
 31
0.0
  0
LINE
  8
0
 62
     0
 10
1666.735536070435
 20
7442.836273142115
 30
0.0
 11
1693.464296989775
 21
7469.565034061456
 31
0.0
  0
LINE
  8
0
 62
     0
 10
1915.464296989775
 20
7691.565034061455
 30
0.0
 11
1939.735322150937
 21
7715.836059222618
 31
0.0
  0
LINE
  8
0
 62
     0
 10
1954.103731944648
 20
7730.204469016328
 30
0.0
 11
1997.20896132578
 21
7773.30969839746
 31
0.0
  0
LINE
  8
0
 62
     0
 10
2011.577371119491
 20
7787.678108191171
 30
0.0
 11
2026.886643112058
 21
7802.987380183737
 31
0.0
  0
LINE
  8
0
 62
     0
 10
1693.464296989775
 20
7469.565034061456
 30
0.0
 11
1709.840765451567
 21
7485.941502523247
 31
0.0
  0
LINE
  8
0
 62
     0
 10
1724.209175245278
 20
7500.309912316958
 30
0.0
 11
1767.314404626409
 21
7543.415141698089
 31
0.0
  0
LINE
  8
0
 62
     0
 10
1781.68281442012
 20
7557.7835514918
 30
0.0
 11
1804.464296989775
 21
7580.565034061454
 31
0.0
  0
LINE
  8
0
 62
     0
 10
1896.630092769806
 20
7672.730829841484
 30
0.0
 11
1915.464296989775
 21
7691.565034061454
 31
0.0
  0
LINE
  8
0
 62
     0
 10
1804.464296989775
 20
7580.565034061454
 30
0.0
 11
1824.788043801252
 21
7600.888780872932
 31
0.0
  0
LINE
  8
0
 62
     0
 10
1839.156453594963
 20
7615.257190666643
 30
0.0
 11
1882.261682976095
 21
7658.362420047773
 31
0.0
  0
LINE
  8
0
 62
     0
 10
1701.21422335336
 20
7448.578140837618
 30
0.0
 11
1709.840765451567
 21
7457.204682935825
 31
0.0
  0
LINE
  8
0
 62
     0
 10
1724.209175245278
 20
7471.573092729535
 30
0.0
 11
1767.314404626409
 21
7514.678322110666
 31
0.0
  0
LINE
  8
0
 62
     0
 10
1781.68281442012
 20
7529.046731904378
 30
0.0
 11
1804.464296989775
 21
7551.828214474032
 31
0.0
  0
LINE
  8
0
 62
     0
 10
1922.272159013877
 20
7669.636076498136
 30
0.0
 11
1939.735322150937
 21
7687.099239635196
 31
0.0
  0
LINE
  8
0
 62
     0
 10
1954.103731944648
 20
7701.467649428906
 30
0.0
 11
1997.20896132578
 21
7744.572878810037
 31
0.0
  0
LINE
  8
0
 62
     0
 10
2011.577371119491
 20
7758.941288603748
 30
0.0
 11
2026.886643112058
 21
7774.250560596315
 31
0.0
  0
LINE
  8
0
 62
     0
 10
1804.464296989775
 20
7551.828214474033
 30
0.0
 11
1824.788043801252
 21
7572.151961285511
 31
0.0
  0
LINE
  8
0
 62
     0
 10
1839.156453594963
 20
7586.520371079221
 30
0.0
 11
1882.261682976095
 21
7629.625600460353
 31
0.0
  0
LINE
  8
0
 62
     0
 10
1896.630092769806
 20
7643.994010254062
 30
0.0
 11
1915.464296989776
 21
7662.828214474033
 31
0.0
  0
LINE
  8
0
 62
     0
 10
1915.464296989775
 20
7662.828214474035
 30
0.0
 11
1922.272159013875
 21
7669.636076498134
 31
0.0
  0
LINE
  8
0
 62
     0
 10
1724.209175245278
 20
7442.836273142115
 30
0.0
 11
1767.314404626409
 21
7485.941502523246
 31
0.0
  0
LINE
  8
0
 62
     0
 10
1781.68281442012
 20
7500.309912316957
 30
0.0
 11
1804.464296989775
 21
7523.091394886613
 31
0.0
  0
LINE
  8
0
 62
     0
 10
1954.103731944648
 20
7672.730829841486
 30
0.0
 11
1997.20896132578
 21
7715.836059222617
 31
0.0
  0
LINE
  8
0
 62
     0
 10
2011.577371119491
 20
7730.204469016328
 30
0.0
 11
2026.886643112058
 21
7745.513741008895
 31
0.0
  0
LINE
  8
0
 62
     0
 10
1804.464296989775
 20
7523.091394886613
 30
0.0
 11
1824.788043801252
 21
7543.415141698089
 31
0.0
  0
LINE
  8
0
 62
     0
 10
1839.156453594963
 20
7557.7835514918
 30
0.0
 11
1882.261682976095
 21
7600.888780872932
 31
0.0
  0
LINE
  8
0
 62
     0
 10
1896.630092769806
 20
7615.257190666642
 30
0.0
 11
1915.464296989776
 21
7634.091394886612
 31
0.0
  0
LINE
  8
0
 62
     0
 10
1915.464296989775
 20
7634.091394886612
 30
0.0
 11
1939.735322150937
 21
7658.362420047775
 31
0.0
  0
LINE
  8
0
 62
     0
 10
1740.065822149407
 20
7429.956100458824
 30
0.0
 11
1767.314404626409
 21
7457.204682935825
 31
0.0
  0
LINE
  8
0
 62
     0
 10
1781.68281442012
 20
7471.573092729535
 30
0.0
 11
1804.464296989775
 21
7494.35457529919
 31
0.0
  0
LINE
  8
0
 62
     0
 10
1979.745798188718
 20
7669.636076498134
 30
0.0
 11
1997.20896132578
 21
7687.099239635196
 31
0.0
  0
LINE
  8
0
 62
     0
 10
2011.577371119491
 20
7701.467649428906
 30
0.0
 11
2026.886643112058
 21
7716.776921421474
 31
0.0
  0
LINE
  8
0
 62
     0
 10
1804.464296989775
 20
7494.35457529919
 30
0.0
 11
1824.788043801252
 21
7514.678322110668
 31
0.0
  0
LINE
  8
0
 62
     0
 10
1839.156453594963
 20
7529.046731904378
 30
0.0
 11
1882.261682976095
 21
7572.15196128551
 31
0.0
  0
LINE
  8
0
 62
     0
 10
1896.630092769806
 20
7586.520371079221
 30
0.0
 11
1915.464296989776
 21
7605.35457529919
 31
0.0
  0
LINE
  8
0
 62
     0
 10
1915.464296989775
 20
7605.354575299192
 30
0.0
 11
1939.735322150937
 21
7629.625600460355
 31
0.0
  0
LINE
  8
0
 62
     0
 10
1954.103731944648
 20
7643.994010254064
 30
0.0
 11
1979.745798188718
 21
7669.636076498134
 31
0.0
  0
LINE
  8
0
 62
     0
 10
1781.682814420121
 20
7442.836273142115
 30
0.0
 11
1804.464296989775
 21
7465.617755711769
 31
0.0
  0
LINE
  8
0
 62
     0
 10
2011.577371119491
 20
7672.730829841486
 30
0.0
 11
2026.886643112058
 21
7688.040101834053
 31
0.0
  0
LINE
  8
0
 62
     0
 10
1804.464296989775
 20
7465.617755711769
 30
0.0
 11
1824.788043801253
 21
7485.941502523246
 31
0.0
  0
LINE
  8
0
 62
     0
 10
1839.156453594964
 20
7500.309912316957
 30
0.0
 11
1882.261682976096
 21
7543.415141698089
 31
0.0
  0
LINE
  8
0
 62
     0
 10
1896.630092769806
 20
7557.783551491799
 30
0.0
 11
1915.464296989776
 21
7576.617755711768
 31
0.0
  0
LINE
  8
0
 62
     0
 10
1915.464296989775
 20
7576.61775571177
 30
0.0
 11
1939.735322150937
 21
7600.888780872932
 31
0.0
  0
LINE
  8
0
 62
     0
 10
1954.103731944648
 20
7615.257190666643
 30
0.0
 11
1997.20896132578
 21
7658.362420047773
 31
0.0
  0
LINE
  8
0
 62
     0
 10
1814.268997011632
 20
7446.685636146206
 30
0.0
 11
1824.788043801252
 21
7457.204682935826
 31
0.0
  0
LINE
  8
0
 62
     0
 10
1839.156453594963
 20
7471.573092729536
 30
0.0
 11
1882.261682976095
 21
7514.678322110668
 31
0.0
  0
LINE
  8
0
 62
     0
 10
1896.630092769806
 20
7529.046731904378
 30
0.0
 11
1915.464296989775
 21
7547.880936124347
 31
0.0
  0
LINE
  8
0
 62
     0
 10
1915.464296989775
 20
7547.880936124348
 30
0.0
 11
1939.735322150937
 21
7572.151961285511
 31
0.0
  0
LINE
  8
0
 62
     0
 10
1954.103731944648
 20
7586.520371079221
 30
0.0
 11
1997.20896132578
 21
7629.625600460353
 31
0.0
  0
LINE
  8
0
 62
     0
 10
2011.577371119491
 20
7643.994010254062
 30
0.0
 11
2026.886643112058
 21
7659.30328224663
 31
0.0
  0
LINE
  8
0
 62
     0
 10
1839.156453594963
 20
7442.836273142115
 30
0.0
 11
1882.261682976095
 21
7485.941502523246
 31
0.0
  0
LINE
  8
0
 62
     0
 10
1896.630092769805
 20
7500.309912316957
 30
0.0
 11
1915.464296989776
 21
7519.144116536926
 31
0.0
  0
LINE
  8
0
 62
     0
 10
1915.464296989775
 20
7519.144116536928
 30
0.0
 11
1939.735322150937
 21
7543.415141698091
 31
0.0
  0
LINE
  8
0
 62
     0
 10
1954.103731944648
 20
7557.7835514918
 30
0.0
 11
1997.20896132578
 21
7600.888780872932
 31
0.0
  0
LINE
  8
0
 62
     0
 10
2011.577371119491
 20
7615.257190666643
 30
0.0
 11
2026.886643112058
 21
7630.56646265921
 31
0.0
  0
LINE
  8
0
 62
     0
 10
1854.642348736236
 20
7429.585348695966
 30
0.0
 11
1882.261682976095
 21
7457.204682935825
 31
0.0
  0
LINE
  8
0
 62
     0
 10
1896.630092769805
 20
7471.573092729535
 30
0.0
 11
1915.464296989776
 21
7490.407296949506
 31
0.0
  0
LINE
  8
0
 62
     0
 10
1915.464296989775
 20
7490.407296949507
 30
0.0
 11
1939.735322150937
 21
7514.678322110669
 31
0.0
  0
LINE
  8
0
 62
     0
 10
1954.103731944648
 20
7529.046731904379
 30
0.0
 11
1997.20896132578
 21
7572.151961285511
 31
0.0
  0
LINE
  8
0
 62
     0
 10
2011.577371119491
 20
7586.520371079221
 30
0.0
 11
2026.886643112058
 21
7601.829643071789
 31
0.0
  0
LINE
  8
0
 62
     0
 10
1896.630092769805
 20
7442.836273142115
 30
0.0
 11
1915.464296989775
 21
7461.670477362084
 31
0.0
  0
LINE
  8
0
 62
     0
 10
1915.464296989775
 20
7461.670477362084
 30
0.0
 11
1939.735322150937
 21
7485.941502523247
 31
0.0
  0
LINE
  8
0
 62
     0
 10
1954.103731944648
 20
7500.309912316958
 30
0.0
 11
1997.20896132578
 21
7543.415141698089
 31
0.0
  0
LINE
  8
0
 62
     0
 10
2011.577371119491
 20
7557.7835514918
 30
0.0
 11
2026.886643112058
 21
7573.092823484368
 31
0.0
  0
LINE
  8
0
 62
     0
 10
1927.404115034701
 20
7444.873475819589
 30
0.0
 11
1939.735322150937
 21
7457.204682935826
 31
0.0
  0
LINE
  8
0
 62
     0
 10
1954.103731944648
 20
7471.573092729536
 30
0.0
 11
1997.20896132578
 21
7514.678322110668
 31
0.0
  0
LINE
  8
0
 62
     0
 10
2011.577371119491
 20
7529.046731904378
 30
0.0
 11
2026.886643112058
 21
7544.356003896946
 31
0.0
  0
LINE
  8
0
 62
     0
 10
1954.103731944648
 20
7442.836273142115
 30
0.0
 11
1997.20896132578
 21
7485.941502523246
 31
0.0
  0
LINE
  8
0
 62
     0
 10
2011.577371119491
 20
7500.309912316957
 30
0.0
 11
2026.886643112058
 21
7515.619184309524
 31
0.0
  0
LINE
  8
0
 62
     0
 10
1969.401724117752
 20
7429.397445727798
 30
0.0
 11
1997.20896132578
 21
7457.204682935826
 31
0.0
  0
LINE
  8
0
 62
     0
 10
2011.577371119491
 20
7471.573092729536
 30
0.0
 11
2026.886643112058
 21
7486.882364722104
 31
0.0
  0
LINE
  8
0
 62
     0
 10
2011.577371119491
 20
7442.836273142115
 30
0.0
 11
2026.886643112058
 21
7458.145545134684
 31
0.0
  0
LINE
  8
0
 62
     0
 10
2011.712334838072
 20
7442.701289836111
 30
0.0
 11
1982.840541738358
 21
7471.573082935823
 31
0.0
  0
LINE
  8
0
 62
     0
 10
1968.472131944648
 20
7485.941492729534
 30
0.0
 11
1925.366902563516
 21
7529.046722110666
 31
0.0
  0
LINE
  8
0
 62
     0
 10
1681.103936070435
 20
7773.309688603748
 30
0.0
 11
1637.998706689303
 21
7816.414917984879
 31
0.0
  0
LINE
  8
0
 62
     0
 10
1623.630296895592
 20
7830.78332777859
 30
0.0
 11
1582.464296989775
 21
7871.949327684405
 31
0.0
  0
LINE
  8
0
 62
     0
 10
1910.998492769806
 20
7543.415131904377
 30
0.0
 11
1867.893263388674
 21
7586.520361285509
 31
0.0
  0
LINE
  8
0
 62
     0
 10
1853.524853594963
 20
7600.88877107922
 30
0.0
 11
1810.419624213831
 21
7643.994000460351
 31
0.0
  0
LINE
  8
0
 62
     0
 10
1784.777548176048
 20
7669.636076498134
 30
0.0
 11
1752.945985038988
 21
7701.467639635194
 31
0.0
  0
LINE
  8
0
 62
     0
 10
1738.577575245277
 20
7715.836049428905
 30
0.0
 11
1695.472345864145
 21
7758.941278810037
 31
0.0
  0
LINE
  8
0
 62
     0
 10
1796.05121442012
 20
7658.362410254062
 30
0.0
 11
1784.777548176049
 21
7669.636076498134
 31
0.0
  0
LINE
  8
0
 62
     0
 10
2025.945771119491
 20
7457.204673142113
 30
0.0
 11
1982.840541738359
 21
7500.309902523246
 31
0.0
  0
LINE
  8
0
 62
     0
 10
1968.472131944649
 20
7514.678312316955
 30
0.0
 11
1925.366902563517
 21
7557.783541698086
 31
0.0
  0
LINE
  8
0
 62
     0
 10
1681.103936070435
 20
7802.046508191168
 30
0.0
 11
1637.998706689303
 21
7845.151737572301
 31
0.0
  0
LINE
  8
0
 62
     0
 10
1623.630296895593
 20
7859.52014736601
 30
0.0
 11
1591.371590842111
 21
7891.778853419492
 31
0.0
  0
LINE
  8
0
 62
     0
 10
1910.998492769806
 20
7572.151951491799
 30
0.0
 11
1867.893263388674
 21
7615.257180872931
 31
0.0
  0
LINE
  8
0
 62
     0
 10
1853.524853594963
 20
7629.625590666641
 30
0.0
 11
1813.514367763471
 21
7669.636076498134
 31
0.0
  0
LINE
  8
0
 62
     0
 10
1796.05121442012
 20
7687.099229841484
 30
0.0
 11
1752.945985038989
 21
7730.204459222616
 31
0.0
  0
LINE
  8
0
 62
     0
 10
1738.577575245278
 20
7744.572869016326
 30
0.0
 11
1695.472345864146
 21
7787.678098397457
 31
0.0
  0
LINE
  8
0
 62
     0
 10
1813.51436776347
 20
7669.636076498134
 30
0.0
 11
1810.419624213831
 21
7672.730820047773
 31
0.0
  0
LINE
  8
0
 62
     0
 10
2025.94577111949
 20
7485.941492729534
 30
0.0
 11
1982.840541738358
 21
7529.046722110666
 31
0.0
  0
LINE
  8
0
 62
     0
 10
1968.472131944647
 20
7543.415131904377
 30
0.0
 11
1925.366902563516
 21
7586.520361285509
 31
0.0
  0
LINE
  8
0
 62
     0
 10
1681.103936070435
 20
7830.78332777859
 30
0.0
 11
1637.998706689303
 21
7873.888557159721
 31
0.0
  0
LINE
  8
0
 62
     0
 10
1623.630296895593
 20
7888.256966953433
 30
0.0
 11
1608.570749601556
 21
7903.316514247469
 31
0.0
  0
LINE
  8
0
 62
     0
 10
1910.998492769806
 20
7600.88877107922
 30
0.0
 11
1867.893263388674
 21
7643.994000460352
 31
0.0
  0
LINE
  8
0
 62
     0
 10
1853.524853594963
 20
7658.362410254062
 30
0.0
 11
1842.251187350892
 21
7669.636076498134
 31
0.0
  0
LINE
  8
0
 62
     0
 10
1796.05121442012
 20
7715.836049428905
 30
0.0
 11
1752.945985038989
 21
7758.941278810037
 31
0.0
  0
LINE
  8
0
 62
     0
 10
1738.577575245278
 20
7773.309688603748
 30
0.0
 11
1695.472345864146
 21
7816.414917984879
 31
0.0
  0
LINE
  8
0
 62
     0
 10
1842.251187350891
 20
7669.636076498134
 30
0.0
 11
1810.41962421383
 21
7701.467639635194
 31
0.0
  0
LINE
  8
0
 62
     0
 10
2025.94577111949
 20
7514.678312316955
 30
0.0
 11
1982.840541738358
 21
7557.783541698086
 31
0.0
  0
LINE
  8
0
 62
     0
 10
1968.472131944647
 20
7572.151951491798
 30
0.0
 11
1925.366902563516
 21
7615.257180872928
 31
0.0
  0
LINE
  8
0
 62
     0
 10
1681.103936070435
 20
7859.520147366012
 30
0.0
 11
1637.998706689303
 21
7902.625376747144
 31
0.0
  0
LINE
  8
0
 62
     0
 10
1910.998492769806
 20
7629.625590666641
 30
0.0
 11
1870.988006938313
 21
7669.636076498134
 31
0.0
  0
LINE
  8
0
 62
     0
 10
1796.05121442012
 20
7744.572869016326
 30
0.0
 11
1752.945985038988
 21
7787.678098397457
 31
0.0
  0
LINE
  8
0
 62
     0
 10
1738.577575245277
 20
7802.046508191168
 30
0.0
 11
1695.472345864145
 21
7845.151737572299
 31
0.0
  0
LINE
  8
0
 62
     0
 10
1870.988006938312
 20
7669.636076498134
 30
0.0
 11
1867.893263388673
 21
7672.730820047773
 31
0.0
  0
LINE
  8
0
 62
     0
 10
1853.524853594962
 20
7687.099229841483
 30
0.0
 11
1810.41962421383
 21
7730.204459222615
 31
0.0
  0
LINE
  8
0
 62
     0
 10
2025.94577111949
 20
7543.415131904377
 30
0.0
 11
1982.840541738358
 21
7586.520361285509
 31
0.0
  0
LINE
  8
0
 62
     0
 10
1968.472131944647
 20
7600.88877107922
 30
0.0
 11
1925.366902563516
 21
7643.994000460351
 31
0.0
  0
LINE
  8
0
 62
     0
 10
1681.103936070435
 20
7888.256966953434
 30
0.0
 11
1664.977902044873
 21
7904.383000978996
 31
0.0
  0
LINE
  8
0
 62
     0
 10
1910.998492769806
 20
7658.362410254063
 30
0.0
 11
1899.724826525735
 21
7669.636076498134
 31
0.0
  0
LINE
  8
0
 62
     0
 10
1796.05121442012
 20
7773.309688603748
 30
0.0
 11
1752.945985038989
 21
7816.41491798488
 31
0.0
  0
LINE
  8
0
 62
     0
 10
1738.577575245278
 20
7830.78332777859
 30
0.0
 11
1695.472345864146
 21
7873.888557159721
 31
0.0
  0
LINE
  8
0
 62
     0
 10
1899.724826525734
 20
7669.636076498134
 30
0.0
 11
1867.893263388673
 21
7701.467639635195
 31
0.0
  0
LINE
  8
0
 62
     0
 10
1853.524853594962
 20
7715.836049428905
 30
0.0
 11
1810.41962421383
 21
7758.941278810037
 31
0.0
  0
LINE
  8
0
 62
     0
 10
2025.945771119491
 20
7572.151951491799
 30
0.0
 11
1982.840541738358
 21
7615.257180872931
 31
0.0
  0
LINE
  8
0
 62
     0
 10
1968.472131944648
 20
7629.625590666641
 30
0.0
 11
1928.461646113156
 21
7669.636076498134
 31
0.0
  0
LINE
  8
0
 62
     0
 10
1796.05121442012
 20
7802.046508191168
 30
0.0
 11
1752.945985038988
 21
7845.151737572301
 31
0.0
  0
LINE
  8
0
 62
     0
 10
1738.577575245277
 20
7859.52014736601
 30
0.0
 11
1704.47192841841
 21
7893.625794192878
 31
0.0
  0
LINE
  8
0
 62
     0
 10
1928.461646113154
 20
7669.636076498134
 30
0.0
 11
1925.366902563516
 21
7672.730820047775
 31
0.0
  0
LINE
  8
0
 62
     0
 10
1910.998492769805
 20
7687.099229841484
 30
0.0
 11
1867.893263388673
 21
7730.204459222616
 31
0.0
  0
LINE
  8
0
 62
     0
 10
1853.524853594962
 20
7744.572869016326
 30
0.0
 11
1810.41962421383
 21
7787.678098397457
 31
0.0
  0
LINE
  8
0
 62
     0
 10
2025.94577111949
 20
7600.88877107922
 30
0.0
 11
1982.840541738358
 21
7643.994000460351
 31
0.0
  0
LINE
  8
0
 62
     0
 10
1968.472131944647
 20
7658.362410254062
 30
0.0
 11
1957.198465700576
 21
7669.636076498134
 31
0.0
  0
LINE
  8
0
 62
     0
 10
1796.05121442012
 20
7830.78332777859
 30
0.0
 11
1752.945985038989
 21
7873.888557159721
 31
0.0
  0
LINE
  8
0
 62
     0
 10
1738.577575245278
 20
7888.256966953433
 30
0.0
 11
1722.302824166694
 21
7904.531718032016
 31
0.0
  0
LINE
  8
0
 62
     0
 10
1957.198465700576
 20
7669.636076498134
 30
0.0
 11
1925.366902563516
 21
7701.467639635194
 31
0.0
  0
LINE
  8
0
 62
     0
 10
1910.998492769806
 20
7715.836049428905
 30
0.0
 11
1867.893263388674
 21
7758.941278810037
 31
0.0
  0
LINE
  8
0
 62
     0
 10
1853.524853594963
 20
7773.309688603748
 30
0.0
 11
1810.419624213831
 21
7816.414917984879
 31
0.0
  0
LINE
  8
0
 62
     0
 10
2025.945771119491
 20
7629.625590666642
 30
0.0
 11
1985.935285287998
 21
7669.636076498134
 31
0.0
  0
LINE
  8
0
 62
     0
 10
1796.05121442012
 20
7859.520147366012
 30
0.0
 11
1752.945985038988
 21
7902.625376747144
 31
0.0
  0
LINE
  8
0
 62
     0
 10
1985.935285287998
 20
7669.636076498134
 30
0.0
 11
1982.840541738358
 21
7672.730820047775
 31
0.0
  0
LINE
  8
0
 62
     0
 10
1968.472131944648
 20
7687.099229841484
 30
0.0
 11
1925.366902563516
 21
7730.204459222616
 31
0.0
  0
LINE
  8
0
 62
     0
 10
1910.998492769806
 20
7744.572869016328
 30
0.0
 11
1867.893263388674
 21
7787.678098397459
 31
0.0
  0
LINE
  8
0
 62
     0
 10
1853.524853594963
 20
7802.046508191168
 30
0.0
 11
1810.419624213831
 21
7845.151737572301
 31
0.0
  0
LINE
  8
0
 62
     0
 10
2025.94577111949
 20
7658.362410254062
 30
0.0
 11
2014.672104875419
 21
7669.636076498134
 31
0.0
  0
LINE
  8
0
 62
     0
 10
1796.05121442012
 20
7888.256966953433
 30
0.0
 11
1783.940611750681
 21
7900.367569622873
 31
0.0
  0
LINE
  8
0
 62
     0
 10
2014.672104875419
 20
7669.636076498134
 30
0.0
 11
1982.840541738358
 21
7701.467639635195
 31
0.0
  0
LINE
  8
0
 62
     0
 10
1968.472131944647
 20
7715.836049428905
 30
0.0
 11
1925.366902563516
 21
7758.941278810037
 31
0.0
  0
LINE
  8
0
 62
     0
 10
1910.998492769806
 20
7773.309688603748
 30
0.0
 11
1867.893263388674
 21
7816.41491798488
 31
0.0
  0
LINE
  8
0
 62
     0
 10
1853.524853594963
 20
7830.78332777859
 30
0.0
 11
1810.419624213831
 21
7873.888557159721
 31
0.0
  0
LINE
  8
0
 62
     0
 10
2025.94577111949
 20
7687.099229841486
 30
0.0
 11
1982.840541738358
 21
7730.204459222616
 31
0.0
  0
LINE
  8
0
 62
     0
 10
1968.472131944647
 20
7744.572869016328
 30
0.0
 11
1925.366902563515
 21
7787.678098397459
 31
0.0
  0
LINE
  8
0
 62
     0
 10
1910.998492769805
 20
7802.04650819117
 30
0.0
 11
1867.893263388673
 21
7845.151737572302
 31
0.0
  0
LINE
  8
0
 62
     0
 10
1853.524853594962
 20
7859.520147366012
 30
0.0
 11
1817.65301751666
 21
7895.391983444313
 31
0.0
  0
LINE
  8
0
 62
     0
 10
2025.945771119491
 20
7715.836049428905
 30
0.0
 11
1982.840541738359
 21
7758.941278810037
 31
0.0
  0
LINE
  8
0
 62
     0
 10
1968.472131944649
 20
7773.309688603748
 30
0.0
 11
1925.366902563517
 21
7816.414917984879
 31
0.0
  0
LINE
  8
0
 62
     0
 10
1910.998492769806
 20
7830.78332777859
 30
0.0
 11
1867.893263388674
 21
7873.888557159721
 31
0.0
  0
LINE
  8
0
 62
     0
 10
1853.524853594963
 20
7888.256966953433
 30
0.0
 11
1836.135739516027
 21
7905.64608103237
 31
0.0
  0
LINE
  8
0
 62
     0
 10
2025.945771119491
 20
7744.572869016326
 30
0.0
 11
1982.840541738359
 21
7787.678098397457
 31
0.0
  0
LINE
  8
0
 62
     0
 10
1968.472131944648
 20
7802.046508191168
 30
0.0
 11
1925.366902563516
 21
7845.151737572299
 31
0.0
  0
LINE
  8
0
 62
     0
 10
1910.998492769806
 20
7859.520147366012
 30
0.0
 11
1867.893263388674
 21
7902.625376747144
 31
0.0
  0
LINE
  8
0
 62
     0
 10
2025.945771119491
 20
7773.309688603748
 30
0.0
 11
1982.840541738359
 21
7816.41491798488
 31
0.0
  0
LINE
  8
0
 62
     0
 10
1968.472131944648
 20
7830.78332777859
 30
0.0
 11
1925.366902563516
 21
7873.888557159721
 31
0.0
  0
LINE
  8
0
 62
     0
 10
2025.945771119491
 20
7802.04650819117
 30
0.0
 11
1982.84054173836
 21
7845.151737572302
 31
0.0
  0
LINE
  8
0
 62
     0
 10
1968.472131944649
 20
7859.520147366012
 30
0.0
 11
1930.915902797657
 21
7897.076376513004
 31
0.0
  0
LINE
  8
0
 62
     0
 10
2025.945771119491
 20
7830.783327778591
 30
0.0
 11
1982.840541738359
 21
7873.888557159723
 31
0.0
  0
LINE
  8
0
 62
     0
 10
1968.472131944648
 20
7888.256966953433
 30
0.0
 11
1950.075496557952
 21
7906.653602340129
 31
0.0
  0
LINE
  8
0
 62
     0
 10
2025.94577111949
 20
7859.520147366012
 30
0.0
 11
1982.840541738358
 21
7902.625376747144
 31
0.0
  0
LINE
  8
0
 62
     0
 10
1992.762384991726
 20
7432.914420095038
 30
0.0
 11
1982.840541738359
 21
7442.836263348404
 31
0.0
  0
LINE
  8
0
 62
     0
 10
1968.472131944649
 20
7457.204673142113
 30
0.0
 11
1925.366902563517
 21
7500.309902523246
 31
0.0
  0
LINE
  8
0
 62
     0
 10
1681.103936070435
 20
7744.572869016326
 30
0.0
 11
1637.998706689303
 21
7787.678098397457
 31
0.0
  0
LINE
  8
0
 62
     0
 10
1623.630296895593
 20
7802.046508191168
 30
0.0
 11
1582.464296989775
 21
7843.212508096987
 31
0.0
  0
LINE
  8
0
 62
     0
 10
1910.998492769806
 20
7514.678312316957
 30
0.0
 11
1867.893263388675
 21
7557.783541698088
 31
0.0
  0
LINE
  8
0
 62
     0
 10
1853.524853594964
 20
7572.151951491798
 30
0.0
 11
1810.419624213832
 21
7615.25718087293
 31
0.0
  0
LINE
  8
0
 62
     0
 10
1756.040728588627
 20
7669.636076498134
 30
0.0
 11
1752.945985038989
 21
7672.730820047773
 31
0.0
  0
LINE
  8
0
 62
     0
 10
1738.577575245278
 20
7687.099229841483
 30
0.0
 11
1695.472345864146
 21
7730.204459222615
 31
0.0
  0
LINE
  8
0
 62
     0
 10
1796.05121442012
 20
7629.625590666641
 30
0.0
 11
1756.040728588628
 21
7669.636076498134
 31
0.0
  0
LINE
  8
0
 62
     0
 10
1967.471769317756
 20
7429.468216181585
 30
0.0
 11
1925.366902563516
 21
7471.573082935824
 31
0.0
  0
LINE
  8
0
 62
     0
 10
1681.103936070435
 20
7715.836049428906
 30
0.0
 11
1637.998706689303
 21
7758.941278810039
 31
0.0
  0
LINE
  8
0
 62
     0
 10
1623.630296895593
 20
7773.309688603748
 30
0.0
 11
1582.464296989775
 21
7814.475688509565
 31
0.0
  0
LINE
  8
0
 62
     0
 10
1910.998492769806
 20
7485.941492729535
 30
0.0
 11
1867.893263388674
 21
7529.046722110668
 31
0.0
  0
LINE
  8
0
 62
     0
 10
1853.524853594963
 20
7543.415131904377
 30
0.0
 11
1810.419624213831
 21
7586.520361285509
 31
0.0
  0
LINE
  8
0
 62
     0
 10
1727.303909001207
 20
7669.636076498134
 30
0.0
 11
1695.472345864145
 21
7701.467639635195
 31
0.0
  0
LINE
  8
0
 62
     0
 10
1796.05121442012
 20
7600.88877107922
 30
0.0
 11
1752.945985038989
 21
7643.994000460352
 31
0.0
  0
LINE
  8
0
 62
     0
 10
1738.577575245278
 20
7658.362410254062
 30
0.0
 11
1727.303909001207
 21
7669.636076498133
 31
0.0
  0
LINE
  8
0
 62
     0
 10
1910.998492769806
 20
7457.204673142115
 30
0.0
 11
1867.893263388674
 21
7500.309902523246
 31
0.0
  0
LINE
  8
0
 62
     0
 10
1853.524853594963
 20
7514.678312316957
 30
0.0
 11
1810.419624213831
 21
7557.783541698088
 31
0.0
  0
LINE
  8
0
 62
     0
 10
1681.103936070435
 20
7687.099229841486
 30
0.0
 11
1637.998706689303
 21
7730.204459222616
 31
0.0
  0
LINE
  8
0
 62
     0
 10
1623.630296895592
 20
7744.572869016328
 30
0.0
 11
1582.464296989775
 21
7785.738868922143
 31
0.0
  0
LINE
  8
0
 62
     0
 10
1796.05121442012
 20
7572.151951491799
 30
0.0
 11
1752.945985038989
 21
7615.257180872931
 31
0.0
  0
LINE
  8
0
 62
     0
 10
1738.577575245278
 20
7629.625590666642
 30
0.0
 11
1698.567089413787
 21
7669.636076498133
 31
0.0
  0
LINE
  8
0
 62
     0
 10
1698.567089413786
 20
7669.636076498134
 30
0.0
 11
1695.472345864145
 21
7672.730820047775
 31
0.0
  0
LINE
  8
0
 62
     0
 10
1898.391779533569
 20
7441.074566790929
 30
0.0
 11
1867.893263388674
 21
7471.573082935824
 31
0.0
  0
LINE
  8
0
 62
     0
 10
1853.524853594963
 20
7485.941492729534
 30
0.0
 11
1810.419624213831
 21
7529.046722110666
 31
0.0
  0
LINE
  8
0
 62
     0
 10
1669.830269826363
 20
7669.636076498134
 30
0.0
 11
1637.998706689303
 21
7701.467639635195
 31
0.0
  0
LINE
  8
0
 62
     0
 10
1623.630296895592
 20
7715.836049428905
 30
0.0
 11
1582.464296989775
 21
7757.002049334722
 31
0.0
  0
LINE
  8
0
 62
     0
 10
1796.05121442012
 20
7543.415131904377
 30
0.0
 11
1752.945985038989
 21
7586.520361285509
 31
0.0
  0
LINE
  8
0
 62
     0
 10
1738.577575245278
 20
7600.88877107922
 30
0.0
 11
1695.472345864146
 21
7643.994000460351
 31
0.0
  0
LINE
  8
0
 62
     0
 10
1681.103936070435
 20
7658.362410254063
 30
0.0
 11
1669.830269826364
 21
7669.636076498134
 31
0.0
  0
LINE
  8
0
 62
     0
 10
1878.744183731653
 20
7431.985343005423
 30
0.0
 11
1867.893263388674
 21
7442.836263348404
 31
0.0
  0
LINE
  8
0
 62
     0
 10
1853.524853594963
 20
7457.204673142113
 30
0.0
 11
1810.419624213831
 21
7500.309902523246
 31
0.0
  0
LINE
  8
0
 62
     0
 10
1641.093450238942
 20
7669.636076498134
 30
0.0
 11
1637.998706689303
 21
7672.730820047775
 31
0.0
  0
LINE
  8
0
 62
     0
 10
1623.630296895592
 20
7687.099229841484
 30
0.0
 11
1582.464296989775
 21
7728.2652297473
 31
0.0
  0
LINE
  8
0
 62
     0
 10
1796.05121442012
 20
7514.678312316958
 30
0.0
 11
1752.945985038989
 21
7557.783541698088
 31
0.0
  0
LINE
  8
0
 62
     0
 10
1738.577575245278
 20
7572.151951491799
 30
0.0
 11
1695.472345864146
 21
7615.257180872931
 31
0.0
  0
LINE
  8
0
 62
     0
 10
1681.103936070435
 20
7629.625590666642
 30
0.0
 11
1641.093450238944
 21
7669.636076498134
 31
0.0
  0
LINE
  8
0
 62
     0
 10
1852.171354503366
 20
7429.82135264629
 30
0.0
 11
1810.419624213831
 21
7471.573082935824
 31
0.0
  0
LINE
  8
0
 62
     0
 10
1612.356630651521
 20
7669.636076498134
 30
0.0
 11
1582.464296989775
 21
7699.528410159881
 31
0.0
  0
LINE
  8
0
 62
     0
 10
1796.051214420121
 20
7485.941492729534
 30
0.0
 11
1752.945985038989
 21
7529.046722110666
 31
0.0
  0
LINE
  8
0
 62
     0
 10
1738.577575245278
 20
7543.415131904377
 30
0.0
 11
1695.472345864146
 21
7586.520361285509
 31
0.0
  0
LINE
  8
0
 62
     0
 10
1681.103936070436
 20
7600.888771079222
 30
0.0
 11
1637.998706689304
 21
7643.994000460353
 31
0.0
  0
LINE
  8
0
 62
     0
 10
1623.630296895593
 20
7658.362410254063
 30
0.0
 11
1612.356630651523
 21
7669.636076498134
 31
0.0
  0
LINE
  8
0
 62
     0
 10
1796.05121442012
 20
7457.204673142113
 30
0.0
 11
1752.945985038988
 21
7500.309902523246
 31
0.0
  0
LINE
  8
0
 62
     0
 10
1738.577575245277
 20
7514.678312316955
 30
0.0
 11
1695.472345864145
 21
7557.783541698086
 31
0.0
  0
LINE
  8
0
 62
     0
 10
1583.619811064099
 20
7669.636076498134
 30
0.0
 11
1582.464296989775
 21
7670.791590572458
 31
0.0
  0
LINE
  8
0
 62
     0
 10
1681.103936070435
 20
7572.151951491799
 30
0.0
 11
1637.998706689303
 21
7615.257180872931
 31
0.0
  0
LINE
  8
0
 62
     0
 10
1623.630296895593
 20
7629.625590666641
 30
0.0
 11
1583.619811064101
 21
7669.636076498133
 31
0.0
  0
LINE
  8
0
 62
     0
 10
1784.986627530941
 20
7439.532440443872
 30
0.0
 11
1752.945985038988
 21
7471.573082935824
 31
0.0
  0
LINE
  8
0
 62
     0
 10
1738.577575245277
 20
7485.941492729534
 30
0.0
 11
1695.472345864145
 21
7529.046722110666
 31
0.0
  0
LINE
  8
0
 62
     0
 10
1681.103936070436
 20
7543.415131904379
 30
0.0
 11
1637.998706689304
 21
7586.52036128551
 31
0.0
  0
LINE
  8
0
 62
     0
 10
1623.630296895593
 20
7600.88877107922
 30
0.0
 11
1582.464296989775
 21
7642.054770985038
 31
0.0
  0
LINE
  8
0
 62
     0
 10
1764.605750820821
 20
7431.17649756657
 30
0.0
 11
1752.945985038989
 21
7442.836263348404
 31
0.0
  0
LINE
  8
0
 62
     0
 10
1738.577575245278
 20
7457.204673142113
 30
0.0
 11
1695.472345864146
 21
7500.309902523246
 31
0.0
  0
LINE
  8
0
 62
     0
 10
1681.103936070436
 20
7514.678312316958
 30
0.0
 11
1637.998706689304
 21
7557.783541698088
 31
0.0
  0
LINE
  8
0
 62
     0
 10
1623.630296895593
 20
7572.151951491799
 30
0.0
 11
1582.464296989775
 21
7613.317951397618
 31
0.0
  0
LINE
  8
0
 62
     0
 10
1736.537033326711
 20
7430.508395473259
 30
0.0
 11
1695.472345864145
 21
7471.573082935824
 31
0.0
  0
LINE
  8
0
 62
     0
 10
1681.103936070435
 20
7485.941492729535
 30
0.0
 11
1637.998706689303
 21
7529.046722110668
 31
0.0
  0
LINE
  8
0
 62
     0
 10
1623.630296895593
 20
7543.415131904377
 30
0.0
 11
1582.464296989775
 21
7584.581131810194
 31
0.0
  0
LINE
  8
0
 62
     0
 10
1681.103936070435
 20
7457.204673142113
 30
0.0
 11
1637.998706689303
 21
7500.309902523246
 31
0.0
  0
LINE
  8
0
 62
     0
 10
1623.630296895593
 20
7514.678312316955
 30
0.0
 11
1582.464296989774
 21
7555.844312222774
 31
0.0
  0
LINE
  8
0
 62
     0
 10
1671.494544183209
 20
7438.077245441918
 30
0.0
 11
1637.998706689303
 21
7471.573082935826
 31
0.0
  0
LINE
  8
0
 62
     0
 10
1623.630296895592
 20
7485.941492729535
 30
0.0
 11
1582.464296989774
 21
7527.107492635352
 31
0.0
  0
LINE
  8
0
 62
     0
 10
1650.336614966795
 20
7430.49835507091
 30
0.0
 11
1637.998706689302
 21
7442.836263348404
 31
0.0
  0
LINE
  8
0
 62
     0
 10
1623.630296895592
 20
7457.204673142115
 30
0.0
 11
1582.464296989774
 21
7498.37067304793
 31
0.0
  0
LINE
  8
0
 62
     0
 10
1620.460742790365
 20
7431.63740765992
 30
0.0
 11
1582.464296989775
 21
7469.63385346051
 31
0.0
  0
ENDBLK
  8
0
  0
ENDSEC
  0
SECTION
  2
ENTITIES
  0
VIEWPORT
  8
0
 67
     1
 68
     1
 10
210.0
 20
151.361256544503
 30
0.0
 40
420.0
 41
302.722513089005
 69
     1
1001
ACAD
1000
MVIEW
1002
{
1070
    16
1010
0.0
1020
0.0
1030
0.0
1010
0.0
1020
0.0
1030
1.0
1040
0.0
1040
302.722513089005
1040
210.0
1040
151.361256544503
1040
50.0
1040
0.0
1040
0.0
1070
     0
1070
 20000
1070
     1
1070
     1
1070
     0
1070
     0
1070
     0
1070
     0
1040
0.0
1040
0.0
1040
0.0
1040
10.0
1040
10.0
1040
10.0
1040
10.0
1070
     0
1002
{
1002
}
1002
}
  0
LINE
  8
DIK
 10
2154.307485561729
 20
7719.636076498134
 30
0.0
 11
2154.307485561729
 21
7619.636076498134
 31
0.0
  0
LINE
  8
DIK
 10
1454.307485561731
 20
7719.636076498133
 30
0.0
 11
1454.307485561731
 21
7619.636076498133
 31
0.0
  0
LINE
  8
DIK
 10
2254.307485561729
 20
7719.636076498134
 30
0.0
 11
2254.307485561729
 21
7619.636076498134
 31
0.0
  0
LINE
  8
DIK
 10
1354.307485561728
 20
7719.636076498133
 30
0.0
 11
1354.307485561729
 21
7619.636076498133
 31
0.0
  0
LINE
  8
DIK
 10
1425.307485561732
 20
7944.636076498133
 30
0.0
 11
1425.307485561732
 21
7719.636076498134
 31
0.0
  0
LINE
  8
DIK
 10
1383.307485561731
 20
7944.636076498133
 30
0.0
 11
1383.307485561731
 21
7719.636076498134
 31
0.0
  0
LINE
  8
DIK
 10
2225.307485561732
 20
7944.636076498134
 30
0.0
 11
2225.307485561732
 21
7719.636076498134
 31
0.0
  0
LINE
  8
DIK
 10
2183.307485561732
 20
7944.636076498134
 30
0.0
 11
2183.307485561732
 21
7719.636076498134
 31
0.0
  0
LINE
  8
DIK
 10
2026.886643112058
 20
7457.974263487095
 30
0.0
 11
2026.886643112058
 21
7881.297889509171
 31
0.0
  0
LINE
  8
DIK
 10
1582.464296989775
 20
7457.395800021238
 30
0.0
 11
1582.464296989775
 21
7881.876352975027
 31
0.0
  0
LINE
  8
DIK
 10
1693.464296989775
 20
7457.395800021239
 30
0.0
 11
1693.464296989775
 21
7881.876352975027
 31
0.0
  0
LINE
  8
DIK
 10
1804.464296989775
 20
7457.395800021239
 30
0.0
 11
1804.464296989775
 21
7881.876352975027
 31
0.0
  0
LINE
  8
DIK
 10
1915.464296989775
 20
7457.395800021239
 30
0.0
 11
1915.464296989775
 21
7881.876352975027
 31
0.0
  0
ARC
  8
DIK
 10
1637.964296989775
 20
7498.36071708099
 30
0.0
 40
68.980971504555
 50
216.431280036584
 51
323.568719963417
  0
ARC
  8
DIK
 10
1748.964296989775
 20
7498.36071708099
 30
0.0
 40
68.980971504555
 50
216.431280036584
 51
323.568719963417
  0
ARC
  8
DIK
 10
1970.964296989775
 20
7498.36071708099
 30
0.0
 40
68.980971504555
 50
216.431280036584
 51
324.163631461517
  0
ARC
  8
DIK
 10
1859.964296989775
 20
7498.36071708099
 30
0.0
 40
68.980971504555
 50
216.431280036584
 51
323.568719963417
  0
ARC
  8
DIK
 10
1970.964296989775
 20
7840.911435915276
 30
0.0
 40
68.980971504555
 50
35.836368538483
 51
143.568719963417
  0
ARC
  8
DIK
 10
1748.964296989775
 20
7840.911435915276
 30
0.0
 40
68.980971504555
 50
36.431280036583
 51
143.568719963417
  0
ARC
  8
DIK
 10
1637.964296989775
 20
7840.911435915276
 30
0.0
 40
68.980971504555
 50
36.431280036583
 51
143.568719963417
  0
ARC
  8
DIK
 10
1859.964296989775
 20
7840.911435915276
 30
0.0
 40
68.980971504555
 50
36.431280036583
 51
143.568719963417
  0
LINE
  8
HARTLIJN
 10
1336.807485561823
 20
7669.636076498133
 30
0.0
 11
2271.807485561792
 21
7669.636076498134
 31
0.0
  0
LINE
  8
DIK
 10
1454.307485561731
 20
7690.636076498132
 30
0.0
 11
1582.464296989775
 21
7690.636076498132
 31
0.0
  0
LINE
  8
DIK
 10
1454.307485561731
 20
7648.636076498132
 30
0.0
 11
1582.464296989775
 21
7648.636076498132
 31
0.0
  0
LINE
  8
DIK
 10
1354.307485561729
 20
7719.636076498133
 30
0.0
 11
1454.307485561731
 21
7719.636076498133
 31
0.0
  0
LINE
  8
DIK
 10
1354.307485561729
 20
7619.636076498133
 30
0.0
 11
1454.307485561731
 21
7619.636076498133
 31
0.0
  0
LINE
  8
DIK
 10
2154.307485561729
 20
7619.636076498134
 30
0.0
 11
2254.307485561729
 21
7619.636076498134
 31
0.0
  0
LINE
  8
DIK
 10
2154.307485561729
 20
7719.636076498134
 30
0.0
 11
2254.307485561729
 21
7719.636076498134
 31
0.0
  0
ARC
  8
DIK
 10
2204.307485561733
 20
7944.636076498134
 30
0.0
 40
21.0
 50
0.0
 51
180.0
  0
ARC
  8
DIK
 10
1404.307485561731
 20
7944.636076498133
 30
0.0
 40
21.0
 50
0.0
 51
180.0
  0
ARC
  8
DIK
 10
1404.307485561731
 20
7394.636076498135
 30
0.0
 40
21.0
 50
180.0
 51
0.0
  0
ARC
  8
DIK
 10
2204.307485561733
 20
7394.636076498135
 30
0.0
 40
21.0
 50
180.0
 51
0.0
  0
LINE
  8
DIK
 10
2183.307485561732
 20
7619.636076498134
 30
0.0
 11
2183.307485561732
 21
7394.636076498135
 31
0.0
  0
LINE
  8
DIK
 10
2225.307485561732
 20
7619.636076498134
 30
0.0
 11
2225.307485561732
 21
7394.636076498135
 31
0.0
  0
LINE
  8
DIK
 10
1425.307485561732
 20
7619.636076498133
 30
0.0
 11
1425.307485561731
 21
7394.636076498135
 31
0.0
  0
LINE
  8
DIK
 10
1383.307485561731
 20
7619.636076498133
 30
0.0
 11
1383.307485561731
 21
7394.636076498135
 31
0.0
  0
ARC
  8
DIK
 10
1354.307485561729
 20
7669.636076498133
 30
0.0
 40
17.5
 50
90.000000000001
 51
270.0
  0
ARC
  8
DIK
 10
2254.307485561729
 20
7669.636076498134
 30
0.0
 40
17.5
 50
270.0
 51
90.0
  0
ARC
  8
DIK
 10
2204.307485561729
 20
7719.636076498134
 30
0.0
 40
17.5
 50
0.000000000003
 51
179.999999999997
  0
ARC
  8
DIK
 10
1404.30748556173
 20
7719.636076498133
 30
0.0
 40
17.5
 50
0.0
 51
180.0
  0
LINE
  8
DIK
 10
2026.886643112058
 20
7690.636076498132
 30
0.0
 11
2154.307485561729
 21
7690.636076498134
 31
0.0
  0
LINE
  8
DIK
 10
2026.886643112058
 20
7648.636076498132
 30
0.0
 11
2154.307485561729
 21
7648.636076498133
 31
0.0
  0
LINE
  8
DIK
 10
-145.692514438272
 20
7965.636076498131
 30
0.0
 11
-145.692514438271
 21
7373.63607649813
 31
0.0
  0
LINE
  8
DIK
 10
3754.307485561728
 20
7965.636076498135
 30
0.0
 11
3754.307485561728
 21
7373.636076498134
 31
0.0
  0
LINE
  8
DIK
 10
1354.307485561728
 20
9465.636076498133
 30
0.0
 11
2254.307485561728
 21
9465.636076498133
 31
0.0
  0
LINE
  8
DIK
 10
1354.307485561729
 20
5873.636076498134
 30
0.0
 11
2254.307485561727
 21
5873.636076498134
 31
0.0
  0
ARC
  8
DIK
 10
1354.307485561728
 20
7965.636076498135
 30
0.0
 40
1500.0
 50
90.0
 51
180.0
  0
ARC
  8
DIK
 10
2254.307485561728
 20
7965.636076498135
 30
0.0
 40
1500.0
 50
0.0
 51
90.0
  0
ARC
  8
DIK
 10
2254.307485561728
 20
7373.636076498134
 30
0.0
 40
1500.0
 50
270.0
 51
0.0
  0
ARC
  8
DIK
 10
1354.307485561729
 20
7373.636076498134
 30
0.0
 40
1500.0
 50
180.0
 51
270.0
  0
LINE
  8
STREEPLIJN
 10
-145.692514438271
 20
7373.63607649813
 30
0.0
 11
-145.692514438271
 21
5873.636076498133
 31
0.0
  0
LINE
  8
STREEPLIJN
 10
1354.307485561729
 20
5873.636076498134
 30
0.0
 11
-145.692514438271
 21
5873.636076498133
 31
0.0
  0
LINE
  8
STREEPLIJN
 10
2254.307485561728
 20
5873.636076498134
 30
0.0
 11
3754.307485561728
 21
5873.636076498133
 31
0.0
  0
LINE
  8
STREEPLIJN
 10
3754.307485561728
 20
7373.636076498134
 30
0.0
 11
3754.307485561728
 21
5873.636076498133
 31
0.0
  0
LINE
  8
STREEPLIJN
 10
-145.692514438271
 20
7965.636076498136
 30
0.0
 11
-145.692514438271
 21
9465.636076498133
 31
0.0
  0
LINE
  8
STREEPLIJN
 10
1354.307485561729
 20
9465.636076498133
 30
0.0
 11
-145.692514438271
 21
9465.636076498133
 31
0.0
  0
LINE
  8
STREEPLIJN
 10
3754.307485561728
 20
7965.636076498133
 30
0.0
 11
3754.307485561728
 21
9465.636076498133
 31
0.0
  0
LINE
  8
STREEPLIJN
 10
2254.307485561728
 20
9465.636076498133
 30
0.0
 11
3754.307485561728
 21
9465.636076498133
 31
0.0
  0
DIMENSION
  8
DUN
  2
*D18
 10
3754.307485561728
 20
7668.185734744133
 30
0.0
 11
3004.307485561728
 21
7748.185734744134
 31
0.0
 12
96.679461640751
 22
1241.546814743339
 32
0.0
 13
2254.307485561729
 23
7619.636076498134
 33
0.0
 14
3754.307485561728
 24
7373.636076498134
 34
0.0
  3
STANDAARD
  0
DIMENSION
  8
DUN
  2
*D20
 10
3754.307485561728
 20
9937.396817358539
 30
0.0
 11
1804.307485561728
 21
10017.39681735853
 31
0.0
 13
-145.692514438271
 23
9465.636076498133
 33
0.0
 14
3754.307485561728
 24
9465.636076498133
 34
0.0
  3
STANDAARD
  0
DIMENSION
  8
DUN
  2
*D19
 10
-485.82572689249
 20
5873.636076498133
 30
0.0
 11
-565.82572689249
 21
7669.636076498134
 31
0.0
 13
-145.692514438271
 23
9465.636076498133
 33
0.0
 14
-145.692514438271
 24
5873.636076498133
 34
0.0
 50
90.0
  3
STANDAARD
  0
TEXT
  8
DIK
 10
-545.510120498213
 20
5216.429837028266
 30
0.0
 40
80.0
  1
Alle ondergronden zijn toegestaan.
  7
ROMANS
  0
INSERT
  8
STREEPLIJN
  2
*X21
 10
0.0
 20
0.0
 30
0.0
1001
ACAD
1000
HATCH
1002
{
1070
    16
1000
AR-HBONE
1040
0.2
1040
0.0
1002
}
  0
POLYLINE
  8
DUN
 66
     1
 10
0.0
 20
0.0
 30
0.0
 70
     1
  0
VERTEX
  8
DUN
 10
-714.295715812734
 20
10138.07318774252
 30
0.0
  0
VERTEX
  8
DUN
 10
-714.295715812734
 20
5115.81233483929
 30
0.0
  0
VERTEX
  8
DUN
 10
4127.211850504247
 20
5115.81233483929
 30
0.0
  0
VERTEX
  8
DUN
 10
4127.211850504247
 20
10138.07318774252
 30
0.0
  0
SEQEND
  8
DUN
  0
TEXT
  8
DIK
 10
-545.510120498213
 20
5363.815828029154
 30
0.0
 40
80.0
  1
Obstakelvrije ruimte
  7
ROMANS
  0
TEXT
  8
DIK
 10
1096.179552315463
 20
5966.239811056386
 30
0.0
 40
80.0
  1
Wico Comfa AK766
  7
ROMANS
  0
ENDSEC
  0
EOF
